osu file format v14

[General]
AudioFilename: where.mp3
AudioLeadIn: 0
PreviewTime: 31719
Countdown: 0
SampleSet: Normal
StackLeniency: 0.7
Mode: 0
LetterboxInBreaks: 0
WidescreenStoryboard: 1

[Editor]
Bookmarks: 4605,25104,31289,53342,64181,80360,83057,95197,98957,101523,116924,119491,122058,124625,127192,132353,137656,140296,148159,150780,158644,161265,166507,169128,171837,189654,197597
DistanceSpacing: 1
BeatDivisor: 4
GridSize: 32
TimelineZoom: 1.400001

[Metadata]
Title:Whereabouts Unknown
TitleUnicode:Whereabouts Unknown
Artist:Rise Against
ArtistUnicode:Rise Against
Creator:Milan-
Version:Normal
Source:
Tags:pishifat metal punk hardcore Appeal to Reason
BeatmapID:733478
BeatmapSetID:327188

[Difficulty]
HPDrainRate:4
CircleSize:3.5
OverallDifficulty:4
ApproachRate:5
SliderMultiplier:0.999999999999999
SliderTickRate:1

[Events]
//Background and Video events
0,0,"what.png",0,0
//Break Periods
2,83246,87209
2,135197,136449
//Storyboard Layer 0 (Background)
//Storyboard Layer 1 (Fail)
//Storyboard Layer 2 (Pass)
//Storyboard Layer 3 (Foreground)
//Storyboard Sound Samples

[TimingPoints]
4589,427.046263345196,4,1,1,59,1,0
25087,413.793103448276,4,1,1,50,1,0
25087,-100,4,1,1,50,0,0
25914,-100,4,1,1,55,0,0
26742,405.405405405405,4,1,1,40,1,0
27147,-100,4,1,1,45,0,0
27552,-100,4,1,1,50,0,0
27958,-100,4,1,1,55,0,0
28363,365.296803652968,4,1,1,65,1,0
30006,-100,4,1,1,60,0,0
31285,344.580043072505,4,1,1,65,1,0
31285,-100,4,1,1,65,0,0
52648,338.743824982357,4,1,1,65,1,0
52648,-100,4,1,1,65,0,0
53325,338.743824982357,4,1,1,70,1,0
61624,-100,4,1,1,50,0,0
62132,-100,4,1,1,55,0,0
62471,-100,4,1,1,60,0,0
62809,-100,4,1,1,65,0,0
63487,341.880341880342,4,1,1,65,1,0
64170,337.078651685393,4,1,1,70,1,1
64170,-100,4,1,1,70,0,1
69563,-100,4,1,1,70,0,1
72259,-100,4,1,1,70,0,1
77653,-100,4,1,1,70,0,1
83046,335.195530726257,4,1,1,70,1,0
88409,333.333333333333,4,3,1,50,1,0
88409,-100,4,3,1,50,0,0
91075,329.67032967033,4,3,1,50,1,0
91075,-100,4,3,1,50,0,0
93053,-100,4,3,1,59,0,0
93712,327.421555252387,4,3,1,40,1,0
93712,-100,4,3,1,40,0,0
94039,-100,4,3,1,50,0,0
95349,-100,4,3,1,55,0,0
96331,-100,4,1,1,40,0,0
96413,-100,4,3,1,50,0,0
97968,-100,4,3,1,55,0,0
98295,-100,4,3,1,60,0,0
98623,-100,4,3,1,65,0,0
98950,320.855614973262,4,1,1,65,1,0
98950,-100,4,1,1,65,0,0
101516,-100,4,1,1,65,0,0
106169,-100,4,1,1,50,0,0
106650,-100,4,1,1,65,0,0
116917,-100,4,1,1,65,0,0
119484,-100,4,1,1,65,0,0
122051,-100,4,1,1,65,0,0
124618,-100,4,1,1,65,0,0
127185,-100,4,1,1,65,0,0
129431,-100,4,1,1,65,0,0
129752,324.324324324324,4,1,1,65,1,0
131211,-100,4,1,1,50,0,0
131697,-100,4,1,1,55,0,0
132022,-100,4,1,1,60,0,0
132346,331.491712707182,4,1,1,65,1,0
137649,327.868852459016,4,1,1,70,1,1
137730,-100,4,1,1,70,0,0
140271,-100,4,1,1,70,0,1
145517,-100,4,1,1,70,0,1
150763,-100,4,1,1,70,0,0
160763,-100,4,1,1,55,0,0
161255,-100,4,1,1,70,0,1
161337,-100,4,1,1,70,0,0
166501,-100,4,1,1,70,0,1
169124,335.195530726257,4,1,1,59,1,0
170464,344.827586206897,4,1,1,49,1,0
171929,-100,4,1,1,5,0,0

[Colours]
Combo1 : 104,119,155
Combo2 : 203,138,67
Combo3 : 104,166,141

[HitObjects]
54,75,25087,6,0,P|106:75|153:77,1,99.9999999999999,2|2,0:0|0:0,0:0:0:0:
226,146,25914,2,0,P|275:148|325:148,1,99.9999999999999,2|2,0:0|0:0,0:0:0:0:
404,213,26742,2,0,L|434:277,2,50,8|8|8,0:0|0:0|0:0,0:0:0:0:
330,280,27552,2,0,L|327:334,2,50,8|8|8,0:0|0:0|0:0,0:0:0:0:
255,197,28363,1,8,0:0:0:0:
255,197,30006,5,8,0:0:0:0:
226,155,30189,2,0,L|223:25,2,99.9999999999999,2|8|2,0:0|0:0|0:3,0:0:0:0:
182,251,31285,6,0,P|138:274|88:273,1,99.9999999999999,6|2,0:0|0:0,0:0:0:0:
118,177,31974,1,8,0:0:0:0:
118,177,32146,2,0,L|132:58,2,99.9999999999999,2|2|0,0:0|0:0|0:0,0:0:0:0:
186,255,33180,1,2,0:0:0:0:
186,255,33352,2,0,P|273:262|316:206,1,150,8|0,0:0|0:0,0:0:0:0:
319,170,34041,5,6,0:0:0:0:
402,225,34386,1,2,0:0:0:0:
411,125,34730,1,8,0:0:0:0:
411,125,34903,2,0,B|407:62|407:62|400:17,2,99.9999999999999,2|2|0,0:0|0:0|0:0,0:0:0:0:
319,170,35936,1,2,0:0:0:0:
319,170,36109,2,0,P|247:181|186:141,1,150,8|0,0:0|0:0,0:0:0:0:
169,93,36798,5,6,0:0:0:0:
101,166,37142,1,2,0:0:0:0:
115,265,37487,1,8,0:0:0:0:
115,265,37659,2,0,B|112:299|112:299|112:370,2,99.9999999999999,2|2|0,0:0|0:0|0:0,0:0:0:0:
191,199,38693,2,0,L|243:188,1,50,2|8,0:0|0:0,0:0:0:0:
332,227,39210,2,0,L|384:216,1,50,0|0,0:0|0:0,0:0:0:0:
423,190,39554,5,6,0:0:0:0:
428,90,39899,1,2,0:0:0:0:
342,37,40244,2,0,L|293:47,1,50,8|2,0:0|0:0,0:0:0:0:
211,104,40760,1,2,0:0:0:0:
166,193,41105,2,0,B|161:247|161:247|166:288|166:288|161:346,1,150,8|8,0:0|0:0,0:0:0:0:
204,367,41794,1,8,0:0:0:0:
204,367,41966,2,0,P|234:369|267:364,1,50,8|8,0:0|0:0,0:0:0:0:
294,337,42311,6,0,P|335:336|397:341,1,99.9999999999999,6|2,0:0|0:0,0:0:0:0:
481,292,43000,2,0,P|478:261|474:231,1,50,8|2,0:0|0:0,0:0:0:0:
410,166,43517,2,0,L|298:164,1,99.9999999999999,2|0,0:0|0:0,0:0:0:0:
229,223,44206,1,2,0:0:0:0:
229,223,44379,2,0,P|142:230|99:174,1,150,8|0,0:0|0:0,0:0:0:0:
96,138,45068,5,6,0:0:0:0:
170,71,45412,1,2,0:0:0:0:
260,112,45757,2,0,L|332:107,1,50,8|2,0:0|0:0,0:0:0:0:
409,96,46274,2,0,B|412:163|412:163|426:227,1,99.9999999999999,2|0,0:0|0:0,0:0:0:0:
490,265,46963,1,2,0:0:0:0:
490,265,47135,2,0,P|447:324|375:338,1,150,8|0,0:0|0:0,0:0:0:0:
328,319,47824,5,6,0:0:0:0:
259,246,48169,1,2,0:0:0:0:
162,272,48514,1,8,0:0:0:0:
162,272,48686,2,0,B|159:306|159:306|159:377,2,99.9999999999999,2|2|0,0:0|0:0|0:0,0:0:0:0:
186,174,49720,2,0,L|174:106,1,50,2|8,0:0|0:0,0:0:0:0:
95,67,50236,2,0,L|86:116,1,50,0|0,0:0|0:0,0:0:0:0:
68,162,50581,5,6,0:0:0:0:
104,255,50926,1,2,0:0:0:0:
201,277,51270,2,0,L|249:266,1,50,8|2,0:0|0:0,0:0:0:0:
321,197,51787,2,0,P|374:187|434:180,1,99.9999999999999,2|8,0:0|0:0,0:0:0:0:
441,279,52476,1,2,0:0:0:0:
441,279,52648,2,0,P|387:288|328:296,1,99.9999999999999,8|8,0:0|0:0,0:0:0:0:
292,293,53156,1,8,0:0:0:0:
251,321,53325,6,0,P|203:316|148:318,1,99.9999999999999,6|8,0:0|0:0,0:0:0:0:
75,252,54002,2,0,L|28:220,2,50,2|2|8,0:0|0:0|0:0,0:0:0:0:
122,234,54510,2,0,P|169:189|152:100,1,150,2|8,0:0|0:0,0:0:0:0:
92,35,55357,2,0,L|35:23,2,50,2|2|8,0:0|0:0|0:0,0:0:0:0:
189,13,56034,2,0,L|246:1,2,50,6|2|8,0:0|0:0|0:0,0:0:0:0:
160,109,56712,1,2,0:0:0:0:
257,86,57051,1,8,0:0:0:0:
351,119,57389,6,0,P|390:182|285:185,2,200,6|6|6,0:0|0:0|0:0,0:0:0:0:
302,105,58914,6,0,L|257:86,1,50,2|8,0:0|0:0,0:0:0:0:
159,110,59422,1,2,0:0:0:0:
110,120,59591,2,0,L|64:100,1,50,2|8,0:0|0:0,0:0:0:0:
41,197,60099,2,0,L|44:246,2,50,2|2|8,0:0|0:0|0:0,0:0:0:0:
137,222,60777,2,0,L|133:271,2,50,2|2|8,0:0|0:0|0:0,0:0:0:0:
202,146,61454,6,0,P|243:119|293:117,1,99.9999999999999,8|8,0:0|0:0,0:0:0:0:
384,158,62132,1,8,0:0:0:0:
481,137,62471,1,8,0:0:0:0:
454,40,62809,1,8,0:0:0:0:
354,62,63148,2,0,P|338:42|323:23,2,50,8|8|8,0:0|0:3|0:3,0:0:0:0:
384,158,63828,1,4,0:3:0:0:
333,245,64170,6,0,P|258:251|183:245,1,150,6|2,0:0|0:0,0:0:0:0:
138,224,64844,1,8,0:0:0:0:
129,124,65181,1,0,0:0:0:0:
206,61,65518,2,0,P|226:106|222:155,2,99.9999999999999,2|0|8,0:0|0:0|0:0,0:0:0:0:
129,124,66529,1,2,0:0:0:0:
148,221,66866,6,0,P|218:247|289:228,1,150,6|2,0:0|0:0,0:0:0:0:
328,196,67540,1,8,0:0:0:0:
417,239,67877,1,0,0:0:0:0:
482,164,68214,2,0,P|487:114|471:67,2,99.9999999999999,2|0|8,0:0|0:0|0:0,0:0:0:0:
390,125,69226,1,2,0:0:0:0:
296,90,69563,6,0,L|280:36,2,50,12|2|2,0:0|0:0|0:0,0:0:0:0:
259,182,70237,2,0,L|243:236,2,50,8|2|2,0:0|0:0|0:0,0:0:0:0:
198,102,70911,2,0,L|182:48,2,50,8|2|2,0:0|0:0|0:0,0:0:0:0:
111,151,71585,1,8,0:0:0:0:
116,250,71922,1,8,0:0:0:0:
212,275,72259,6,0,P|278:308|359:284,1,150,6|2,0:0|0:0,0:0:0:0:
384,255,72934,1,8,0:0:0:0:
471,206,73271,1,0,0:0:0:0:
385,154,73608,2,0,P|378:104|398:59,2,99.9999999999999,2|0|8,0:0|0:0|0:0,0:0:0:0:
470,206,74619,1,2,0:0:0:0:
384,255,74956,6,0,P|309:262|234:257,1,150,6|2,0:0|0:0,0:0:0:0:
190,233,75630,1,8,0:0:0:0:
103,282,75967,1,0,0:0:0:0:
105,182,76304,2,0,L|107:127,2,50,2|8|0,0:0|0:0|0:0,0:0:0:0:
103,282,76978,2,0,P|142:320|210:336,1,99.9999999999999,8|2,0:0|0:0,0:0:0:0:
283,322,77653,6,0,L|320:363,2,50,12|2|2,0:0|0:0|0:0,0:0:0:0:
286,222,78327,2,0,L|272:138,2,50,8|2|2,0:0|0:0|0:0,0:0:0:0:
372,271,79001,2,0,L|435:257,1,50,8|2,0:0|0:0,0:0:0:0:
452,221,79338,1,2,0:0:0:0:
389,143,79675,1,8,0:0:0:0:
426,50,80012,1,8,0:0:0:0:
326,62,80349,6,0,P|276:64|226:64,1,99.9999999999999,12|2,0:0|0:0,0:0:0:0:
135,106,81023,2,0,P|107:173|110:222,1,99.9999999999999,8|2,0:0|0:0,0:0:0:0:
163,282,81698,2,0,P|212:279|262:279,1,99.9999999999999,8|2,0:0|0:0,0:0:0:0:
309,262,82203,1,8,0:0:0:0:
309,262,82372,2,0,L|312:204,2,50,2|2|8,0:0|0:0|0:0,0:0:0:0:
327,360,83046,5,6,0:0:0:0:
90,95,88409,6,0,B|147:98|147:98|214:92,1,99.9999999999999,0|8,0:0|0:0,0:0:0:0:
334,53,89242,1,8,0:0:0:0:
298,198,89742,2,0,B|295:259|295:259|300:356,2,150,8|8|4,0:0|0:0|0:0,0:0:0:0:
379,138,91075,5,8,0:0:0:0:
447,210,91404,2,0,B|450:271|450:271|445:368,2,150,8|8|8,0:0|0:0|0:0,0:0:0:0:
281,97,93053,2,0,L|278:43,2,50,4|0|8,0:0|0:0|0:0,0:0:0:0:
292,145,93547,1,0,0:0:0:0:
292,145,93712,6,0,L|184:145,1,99.9999999999999,6|8,0:1|0:0,0:0:0:0:
43,127,94530,2,0,P|43:176|38:226,2,99.9999999999999,8|8|4,0:0|0:0|0:0,0:0:0:0:
40,76,95349,2,0,L|51:23,1,50,8|0,0:0|0:0,0:0:0:0:
141,69,95840,2,0,L|151:117,1,50,8|8,0:0|0:0,0:0:0:0:
220,189,96331,6,0,P|268:176|320:168,1,99.9999999999999,6|8,0:0|0:0,0:0:0:0:
416,184,96986,1,8,0:0:0:0:
380,90,97313,1,8,0:0:0:0:
317,168,97641,2,0,P|317:204|327:235,1,50,8|0,0:0|0:0,0:0:0:0:
348,258,97968,1,8,0:0:0:0:
299,345,98295,1,4,0:0:0:0:
208,301,98623,1,8,0:0:0:0:
125,360,98950,6,0,B|79:365|79:365|-10:357,1,99.9999999999999,6|2,0:0|0:0,0:0:0:0:
47,315,99431,2,0,P|53:283|57:253,1,50,2|8,0:0|0:0,0:0:0:0:
69,166,99912,1,2,0:0:0:0:
148,226,100233,2,0,B|205:225|205:225|265:222,1,99.9999999999999,6|2,0:0|0:0,0:0:0:0:
322,155,100875,2,0,P|354:155|389:157,1,50,8|2,0:0|0:0,0:0:0:0:
418,174,101195,1,8,0:0:0:0:
360,256,101516,6,0,L|357:333,2,50,2|2|8,0:0|0:0|0:0,0:0:0:0:
260,270,102158,2,0,L|277:345,2,50,2|2|8,0:0|0:0|0:0,0:0:0:0:
167,309,102800,2,0,L|202:377,2,50,2|2|8,0:0|0:0|0:0,0:0:0:0:
72,276,103441,1,2,0:0:0:0:
66,176,103762,1,12,0:0:0:0:
129,98,104083,6,0,L|201:93,1,50,2|2,0:0|0:0,0:0:0:0:
227,105,104404,1,8,0:0:0:0:
245,203,104725,2,0,L|317:208,1,50,2|2,0:0|0:0,0:0:0:0:
343,196,105046,1,8,0:0:0:0:
357,97,105367,2,0,L|429:92,1,50,2|2,0:0|0:0,0:0:0:0:
455,104,105687,1,8,0:0:0:0:
478,200,106008,1,2,0:0:0:0:
478,200,106169,2,0,P|485:250|458:313,1,99.9999999999999,8|8,0:0|0:0,0:0:0:0:
428,325,106650,6,0,L|299:327,1,99.9999999999999,6|8,0:0|0:0,0:0:0:0:
239,279,107292,2,0,L|237:229,1,50,2|2,0:0|0:0,0:0:0:0:
211,186,107612,1,8,0:0:0:0:
302,146,107933,2,0,L|303:96,1,50,2|2,0:0|0:0,0:0:0:0:
323,49,108254,1,8,0:0:0:0:
230,13,108575,2,0,P|187:59|119:63,1,99.9999999999999,2|8,0:0|0:0,0:0:0:0:
56,33,109217,6,0,L|-3:21,2,50,2|2|12,0:0|0:0|0:0,0:0:0:0:
67,132,109859,2,0,L|6:135,2,50,2|2|8,0:0|0:0|0:0,0:0:0:0:
100,226,110500,2,0,L|42:245,2,50,2|2|8,0:0|0:0|0:0,0:0:0:0:
197,200,111142,1,2,0:0:0:0:
268,269,111463,1,8,0:0:0:0:
360,229,111784,6,0,L|435:218,1,50,2|2,0:0|0:0,0:0:0:0:
455,242,112105,1,12,0:0:0:0:
427,337,112425,2,0,L|352:348,1,50,2|2,0:0|0:0,0:0:0:0:
332,324,112746,1,8,0:0:0:0:
255,259,113067,2,0,L|180:248,1,50,2|2,0:0|0:0,0:0:0:0:
160,272,113388,1,8,0:0:0:0:
79,211,113709,2,0,L|74:86,1,99.9999999999999,2|8,0:0|0:0,0:0:0:0:
142,36,114351,6,0,P|166:34|191:36,1,50,2|2,0:0|0:0,0:0:0:0:
231,66,114671,2,0,P|309:66|362:35,2,99.9999999999999,12|2|8,0:0|0:0|0:0,0:0:0:0:
164,140,115634,2,0,L|162:206,2,50,2|2|8,0:0|0:0|0:0,0:0:0:0:
67,110,116276,2,0,L|68:159,1,50,8|8,0:0|0:0,0:0:0:0:
61,209,116597,1,8,0:0:0:0:
122,287,116917,6,0,L|243:280,1,99.9999999999999,6|2,0:0|0:0,0:0:0:0:
299,218,117559,2,0,L|283:151,2,50,8|2|8,0:0|0:0|0:3,0:0:0:0:
336,251,118040,1,8,0:3:0:0:
396,170,118361,2,0,L|403:98,1,50,8|4,0:3|0:3,0:0:0:0:
350,33,118843,2,0,P|300:28|241:33,1,99.9999999999999,8|4,0:0|0:3,0:0:0:0:
163,80,119484,6,0,L|121:43,2,50,6|2|8,0:0|0:0|0:0,0:0:0:0:
119,170,120126,2,0,L|68:145,2,50,2|2|8,0:0|0:0|0:0,0:0:0:0:
120,270,120768,2,0,L|65:258,2,50,2|2|8,0:0|0:0|0:0,0:0:0:0:
212,232,121409,1,2,0:0:0:0:
270,313,121730,1,8,0:0:0:0:
361,272,122051,6,0,P|391:227|390:151,1,99.9999999999999,6|2,0:0|0:0,0:0:0:0:
355,90,122693,1,8,0:0:0:0:
264,132,123014,1,6,0:0:0:0:
180,77,123335,2,0,L|48:73,1,99.9999999999999,2|2,0:0|0:0,0:0:0:0:
30,161,123976,2,0,L|34:224,1,50,8|2,0:0|0:0,0:0:0:0:
65,249,124297,1,8,0:0:0:0:
155,206,124618,6,0,L|209:177,2,50,6|2|8,0:0|0:0|0:0,0:0:0:0:
226,276,125260,2,0,L|285:261,2,50,2|2|8,0:0|0:0|0:0,0:0:0:0:
280,360,125901,2,0,L|341:361,2,50,2|2|8,0:0|0:0|0:0,0:0:0:0:
179,365,126543,1,2,0:0:0:0:
226,276,126864,1,8,0:0:0:0:
155,206,127185,6,0,P|142:157|154:109,1,99.9999999999999,6|2,0:0|0:0,0:0:0:0:
247,71,127827,1,8,0:0:0:0:
323,135,128147,1,6,0:0:0:0:
398,69,128468,2,0,L|514:61,1,99.9999999999999,2|6,0:0|0:0,0:0:0:0:
454,152,129110,2,0,P|451:186|454:232,1,50,8|2,0:0|0:0,0:0:0:0:
468,248,129431,1,8,0:0:0:0:
397,317,129752,6,0,L|404:373,2,50,6|2|8,0:0|0:0|0:0,0:0:0:0:
336,237,130400,2,0,L|342:187,2,50,2|2|8,0:0|0:0|0:0,0:0:0:0:
299,330,131049,1,12,0:0:0:0:
238,250,131373,1,8,0:0:0:0:
157,308,131697,2,0,L|95:296,1,50,8|8,0:0|0:0,0:0:0:0:
117,249,132022,2,0,L|79:215,1,50,8|8,0:0|0:0,0:0:0:0:
79,166,132346,5,6,0:0:0:0:
256,192,132511,12,0,134997,2:0:0:0:
186,137,137649,6,0,L|177:69,2,50,12|2|2,0:0|0:0|0:0,0:0:0:0:
242,219,138304,2,0,L|233:287,2,50,8|2|2,0:0|0:0|0:0,0:0:0:0:
287,129,138960,2,0,L|278:61,2,50,8|2|2,0:0|0:0|0:0,0:0:0:0:
362,195,139616,2,0,L|368:244,1,50,8|2,0:0|0:0,0:0:0:0:
396,286,139944,1,8,0:0:0:0:
315,345,140271,6,0,P|243:360|175:333,1,150,6|2,0:0|0:0,0:0:0:0:
156,286,140927,1,8,0:0:0:0:
181,189,141255,1,0,0:0:0:0:
102,122,141583,2,0,P|94:73|113:27,2,99.9999999999999,2|0|8,0:0|0:0|0:0,0:0:0:0:
181,189,142567,1,2,0:0:0:0:
258,127,142894,6,0,P|331:110|403:130,1,150,6|2,0:0|0:0,0:0:0:0:
435,168,143550,1,8,0:0:0:0:
377,249,143878,1,0,0:0:0:0:
452,314,144206,2,0,L|513:308,2,50,2|0|0,0:0|0:0|0:0,0:0:0:0:
358,349,144862,2,0,P|290:362|233:329,1,99.9999999999999,8|2,0:0|0:0,0:0:0:0:
179,297,145517,6,0,L|124:310,2,50,12|2|2,0:0|0:0|0:0,0:0:0:0:
123,213,146173,2,0,L|66:211,2,50,8|2|2,0:0|0:0|0:0,0:0:0:0:
99,115,146829,2,0,L|44:98,1,50,8|2,0:0|0:0,0:0:0:0:
17,62,147157,1,2,0:0:0:0:
110,25,147485,1,8,0:0:0:0:
192,81,147812,1,8,0:0:0:0:
288,56,148140,6,0,P|346:45|428:55,1,99.9999999999999,6|0,0:0|0:0,0:0:0:0:
431,70,148632,2,0,L|441:187,1,99.9999999999999,8|2,0:0|0:0,0:0:0:0:
460,215,149124,1,8,0:0:0:0:
389,285,149452,2,0,L|252:291,1,99.9999999999999,8|2,0:0|0:0,0:0:0:0:
289,238,149944,2,0,L|152:232,1,99.9999999999999,8|2,0:0|0:0,0:0:0:0:
148,263,150435,1,8,0:0:0:0:
128,164,150763,6,0,B|126:107|126:107|132:64,1,99.9999999999999,6|8,0:0|0:0,0:0:0:0:
232,54,151419,2,0,L|270:13,2,50,2|2|8,0:0|0:0|0:0,0:0:0:0:
254,151,152075,2,0,L|263:206,1,50,2|2,0:0|0:0,0:0:0:0:
300,232,152403,1,8,0:0:0:0:
398,249,152730,2,0,L|456:221,2,50,2|2|8,0:0|0:0|0:0,0:0:0:0:
334,326,153386,6,0,P|285:352|214:359,1,99.9999999999999,6|8,0:0|0:0,0:0:0:0:
146,327,154042,2,0,L|88:366,2,50,2|2|8,0:0|0:0|0:0,0:0:0:0:
183,233,154698,2,0,P|180:202|174:170,1,50,2|2,0:0|0:0,0:0:0:0:
143,145,155026,1,8,0:0:0:0:
65,82,155353,2,0,P|61:57|58:32,2,50,2|2|8,0:0|0:0|0:0,0:0:0:0:
143,145,156009,6,0,L|268:132,1,99.9999999999999,6|8,0:0|0:0,0:0:0:0:
336,99,156665,2,0,L|364:27,2,50,2|2|8,0:0|0:0|0:0,0:0:0:0:
321,198,157321,2,0,L|331:259,1,50,2|2,0:0|0:0,0:0:0:0:
365,281,157648,1,8,0:0:0:0:
453,234,157976,2,0,L|505:232,2,50,2|2|8,0:0|0:0|0:0,0:0:0:0:
365,281,158632,6,0,P|316:328|203:308,1,150,6|8,0:0|0:0,0:0:0:0:
199,297,159288,2,0,L|173:354,2,50,0|2|8,0:0|0:0|0:0,0:0:0:0:
270,226,159944,1,8,0:0:0:0:
264,126,160271,2,0,P|247:101|237:73,1,50,2|8,0:0|0:0,0:0:0:0:
259,36,160599,2,0,B|198:53|198:53|104:53,1,150,2|8,0:0|0:0,0:0:0:0:
73,20,161255,6,0,P|60:65|53:141,1,99.9999999999999,6|8,0:0|0:0,0:0:0:0:
72,216,161911,2,0,L|26:257,2,50,2|2|8,0:0|0:0|0:0,0:0:0:0:
168,189,162567,2,0,L|253:184,1,50,2|2,0:0|0:0,0:0:0:0:
259,213,162894,1,8,0:0:0:0:
334,147,163222,2,0,L|333:86,2,50,2|2|8,0:0|0:0|0:0,0:0:0:0:
396,225,163878,6,0,L|392:344,1,99.9999999999999,6|8,0:0|0:0,0:0:0:0:
349,351,164370,2,0,P|301:359|238:352,1,99.9999999999999,8|2,0:0|0:0,0:0:0:0:
203,335,164862,1,8,0:0:0:0:
157,246,165189,2,0,L|175:163,2,50,2|2|8,0:0|0:0|0:0,0:0:0:0:
90,321,165845,2,0,L|100:369,2,50,2|2|8,0:0|0:0|0:0,0:0:0:0:
65,223,166501,6,0,B|77:150|28:158|54:67,1,150,12|2,0:0|0:0,0:0:0:0:
88,42,167157,2,0,P|146:64|236:25,1,150,8|2,0:0|0:0,0:0:0:0:
275,36,167812,2,0,P|321:75|440:56,1,150,8|2,0:0|0:0,0:0:0:0:
452,53,168468,1,8,0:0:0:0:
478,149,168796,1,8,0:0:0:0:
422,230,169124,5,6,0:0:0:0:
199,93,170464,5,6,0:0:0:0:
229,364,171843,5,6,0:0:0:0:
256,192,172015,12,0,177360,0:0:0:0:
