osu file format v14

[General]
AudioFilename: where.mp3
AudioLeadIn: 0
PreviewTime: 31719
Countdown: 0
SampleSet: Normal
StackLeniency: 0.5
Mode: 0
LetterboxInBreaks: 0
WidescreenStoryboard: 1

[Editor]
Bookmarks: 4605,25104,31289,53342,64181,80360,83057,95197,98957,101523,116924,119491,122058,124625,127192,132353,137656,140296,148159,150780,158644,161265,166507,169128,171837,189654,197597
DistanceSpacing: 1.4
BeatDivisor: 4
GridSize: 32
TimelineZoom: 2.5

[Metadata]
Title:Whereabouts Unknown
TitleUnicode:Whereabouts Unknown
Artist:Rise Against
ArtistUnicode:Rise Against
Creator:Milan-
Version:Insane
Source:
Tags:pishifat metal punk hardcore Appeal to Reason
BeatmapID:726228
BeatmapSetID:327188

[Difficulty]
HPDrainRate:6.5
CircleSize:4
OverallDifficulty:7.3
ApproachRate:8.3
SliderMultiplier:1.5
SliderTickRate:1

[Events]
//Background and Video events
0,0,"what.png",0,0
//Break Periods
2,83246,87705
2,135197,136945
//Storyboard Layer 0 (Background)
//Storyboard Layer 1 (Fail)
//Storyboard Layer 2 (Pass)
//Storyboard Layer 3 (Foreground)
//Storyboard Sound Samples

[TimingPoints]
4589,427.046263345196,4,1,1,59,1,0
25087,413.793103448276,4,1,1,50,1,0
25087,-125,4,1,1,50,0,0
25914,-125,4,1,1,55,0,0
26742,405.405405405405,4,1,1,40,1,0
27147,-125,4,1,1,45,0,0
27552,-125,4,1,1,50,0,0
27958,-125,4,1,1,55,0,0
28363,365.296803652968,4,1,1,65,1,0
30006,-125,4,1,1,60,0,0
31285,344.580043072505,4,1,1,65,1,0
31285,-111.111111111111,4,1,1,65,0,0
52648,338.743824982357,4,1,1,65,1,0
52648,-111.111111111111,4,1,1,65,0,0
53325,338.743824982357,4,1,1,70,1,0
61624,-100,4,1,1,50,0,0
62132,-100,4,1,1,55,0,0
62471,-100,4,1,1,60,0,0
62809,-100,4,1,1,65,0,0
63487,341.880341880342,4,1,1,65,1,0
64170,337.078651685393,4,1,1,70,1,1
64170,-111.111111111111,4,1,1,70,0,1
69563,-100,4,1,1,70,0,1
72259,-111.111111111111,4,1,1,70,0,1
77653,-100,4,1,1,70,0,1
83046,335.195530726257,4,1,1,70,1,0
88409,333.333333333333,4,3,1,50,1,0
88409,-125,4,3,1,50,0,0
91075,329.67032967033,4,3,1,50,1,0
91075,-125,4,3,1,50,0,0
93053,-125,4,3,1,59,0,0
93712,327.421555252387,4,3,1,40,1,0
93712,-125,4,3,1,40,0,0
94039,-125,4,3,1,50,0,0
95349,-125,4,3,1,55,0,0
96331,-125,4,1,1,40,0,0
96413,-125,4,3,1,50,0,0
97968,-125,4,3,1,55,0,0
98295,-125,4,3,1,60,0,0
98623,-125,4,3,1,65,0,0
98950,320.855614973262,4,1,1,65,1,0
98950,-111.111111111111,4,1,1,65,0,0
101516,-100,4,1,1,65,0,0
106169,-100,4,1,1,50,0,0
106650,-100,4,1,1,65,0,0
116917,-111.111111111111,4,1,1,65,0,0
119484,-99.9999999999999,4,1,1,65,0,0
122051,-111.111111111111,4,1,1,65,0,0
124618,-100,4,1,1,65,0,0
127185,-111.111111111111,4,1,1,65,0,0
129431,-111.111111111111,4,1,1,65,0,0
129752,324.324324324324,4,1,1,65,1,0
131211,-100,4,1,1,50,0,0
131697,-100,4,1,1,55,0,0
132022,-100,4,1,1,60,0,0
132346,331.491712707182,4,1,1,65,1,0
137649,327.868852459016,4,1,1,70,1,1
137730,-100,4,1,1,70,0,0
140271,-111.111111111111,4,1,1,70,0,1
145517,-99.9999999999999,4,1,1,70,0,1
150763,-99.9999999999999,4,1,1,70,0,0
160763,-100,4,1,1,55,0,0
161255,-100,4,1,1,70,0,1
161337,-99.9999999999999,4,1,1,70,0,0
166501,-99.9999999999999,4,1,1,70,0,1
169124,335.195530726257,4,1,1,59,1,0
170464,344.827586206897,4,1,1,49,1,0
171929,-100,4,1,1,5,0,0

[Colours]
Combo1 : 104,119,155
Combo2 : 203,138,67
Combo3 : 104,166,141

[HitObjects]
94,107,24873,5,0,0:0:0:0:
94,107,24980,1,0,0:0:0:0:
94,107,25087,2,0,L|159:107,1,60,2|0,0:0|0:0,0:0:0:0:
178,187,25500,2,0,L|243:187,1,60,2|0,0:0|0:0,0:0:0:0:
283,257,25914,2,0,L|348:257,1,60,2|0,0:0|0:0,0:0:0:0:
447,252,26328,1,2,0:0:0:0:
391,170,26535,1,0,0:0:0:0:
393,317,26742,5,8,0:0:0:0:
502,189,26944,1,8,0:0:0:0:
360,166,27147,1,8,0:0:0:0:
447,252,27350,1,8,0:0:0:0:
469,107,27552,1,8,0:0:0:0:
330,162,27755,1,8,0:0:0:0:
502,189,27958,1,8,0:0:0:0:
398,49,28160,1,8,0:0:0:0:
308,242,28363,5,8,0:0:0:0:
295,249,30006,5,8,0:0:0:0:
209,193,30189,1,2,0:0:0:0:
209,193,30372,1,2,0:0:0:0:
297,90,30554,1,8,0:0:0:0:
209,193,30737,1,8,0:0:0:0:
133,53,30920,1,2,0:3:0:0:
140,62,31285,6,0,L|140:129,1,67.4999979400635,6|0,0:0|0:0,0:0:0:0:
209,261,31629,2,0,L|209:193,1,67.4999979400635,2|0,0:0|0:0,0:0:0:0:
293,298,31974,1,8,0:0:0:0:
132,213,32146,6,0,L|132:281,1,67.4999979400635,2|0,0:0|0:0,0:0:0:0:
286,220,32491,2,0,L|286:77,1,134.999995880127,2|0,0:0|0:0,0:0:0:0:
360,27,33007,1,2,0:0:0:0:
370,121,33180,1,2,0:0:0:0:
253,64,33352,6,0,P|219:60|176:66,1,67.4999979400635,8|0,0:0|0:0,0:0:0:0:
96,95,33697,1,0,0:0:0:0:
230,161,33869,1,0,0:0:0:0:
230,161,33955,1,0,0:0:0:0:
230,161,34041,6,0,P|263:164|307:159,1,67.4999979400635,6|0,0:0|0:0,0:0:0:0:
424,83,34386,2,0,P|393:97|370:121,1,67.4999979400635,2|0,0:0|0:0,0:0:0:0:
448,173,34730,1,8,0:0:0:0:
319,60,34903,6,0,P|287:59|252:64,1,67.4999979400635,2|0,0:0|0:0,0:0:0:0:
305,179,35247,2,0,P|248:216|182:229,1,134.999995880127,2|0,0:0|0:0,0:0:0:0:
89,210,35764,1,2,0:0:0:0:
153,141,35936,1,2,0:0:0:0:
257,251,36109,6,0,L|255:338,1,67.4999979400635,8|0,0:0|0:0,0:0:0:0:
354,254,36453,1,0,0:0:0:0:
354,254,36625,1,0,0:0:0:0:
226,178,36798,6,0,L|140:180,1,67.4999979400635,6|0,0:0|0:0,0:0:0:0:
290,107,37142,2,0,L|376:109,1,67.4999979400635,2|0,0:0|0:0,0:0:0:0:
244,188,37487,1,8,0:0:0:0:
421,70,37659,2,0,P|429:102|428:136,1,67.4999979400635,2|0,0:0|0:0,0:0:0:0:
349,239,38004,6,0,P|339:172|357:108,1,134.999995880127,2|0,0:0|0:0,0:0:0:0:
435,56,38521,1,2,0:0:0:0:
350,14,38693,1,2,0:0:0:0:
269,121,38865,2,0,P|232:127|193:125,1,67.4999979400635,8|0,0:0|0:0,0:0:0:0:
265,35,39210,1,0,0:0:0:0:
265,35,39382,1,0,0:0:0:0:
118,115,39554,6,0,P|120:148|134:178,1,67.4999979400635,6|0,0:0|0:0,0:0:0:0:
170,319,39899,2,0,P|184:288|186:255,1,67.4999979400635,2|0,0:0|0:0,0:0:0:0:
83,342,40244,1,8,0:0:0:0:
256,360,40416,6,0,L|345:355,1,67.4999979400635,2|0,0:0|0:0,0:0:0:0:
186,255,40760,2,0,L|118:251,1,67.4999979400635,2|0,0:0|0:0,0:0:0:0:
0,330,41105,1,8,0:0:0:0:
50,214,41277,1,0,0:0:0:0:
108,327,41450,1,2,0:0:0:0:
223,185,41622,5,8,0:0:0:0:
256,360,41794,1,8,0:0:0:0:
308,151,41966,1,8,0:0:0:0:
137,215,42139,1,8,0:0:0:0:
343,321,42311,6,0,L|419:318,1,67.4999979400635,6|0,0:0|0:0,0:0:0:0:
290,241,42656,2,0,L|222:238,1,67.4999979400635,2|0,0:0|0:0,0:0:0:0:
379,237,43000,1,8,0:0:0:0:
258,318,43173,2,0,L|190:315,1,67.4999979400635,2|0,0:0|0:0,0:0:0:0:
137,194,43517,6,0,L|292:199,1,134.999995880127,2|0,0:0|0:0,0:0:0:0:
351,145,44034,1,2,0:0:0:0:
351,145,44206,1,2,0:0:0:0:
269,38,44379,2,0,L|267:136,1,67.4999979400635,8|0,0:0|0:0,0:0:0:0:
353,66,44723,1,0,0:0:0:0:
282,195,44895,1,0,0:0:0:0:
282,195,44982,1,0,0:0:0:0:
282,195,45068,6,0,L|191:215,1,67.4999979400635,6|0,0:0|0:0,0:0:0:0:
86,263,45412,2,0,L|177:283,1,67.4999979400635,2|0,0:0|0:0,0:0:0:0:
131,178,45757,1,8,0:0:0:0:
234,289,45929,2,0,P|235:325|244:375,1,67.4999979400635,2|0,0:0|0:0,0:0:0:0:
334,256,46274,6,0,P|360:195|333:135,1,134.999995880127,2|0,0:0|0:0,0:0:0:0:
252,87,46791,1,2,0:0:0:0:
252,87,46963,1,2,0:0:0:0:
214,197,47135,2,0,L|282:195,1,67.4999979400635,8|0,0:0|0:0,0:0:0:0:
381,166,47480,1,0,0:0:0:0:
381,166,47652,1,0,0:0:0:0:
258,275,47824,6,0,L|190:277,1,67.4999979400635,6|0,0:0|0:0,0:0:0:0:
63,216,48169,2,0,L|130:213,1,67.4999979400635,2|0,0:0|0:0,0:0:0:0:
258,275,48514,1,8,0:0:0:0:
216,130,48686,2,0,L|214:206,1,67.4999979400635,2|0,0:0|0:0,0:0:0:0:
300,105,49030,6,0,P|259:53|193:43,1,134.999995880127,2|0,0:0|0:0,0:0:0:0:
121,104,49547,1,2,0:0:0:0:
29,129,49720,1,2,0:0:0:0:
157,194,49892,2,0,L|247:194,1,67.4999979400635,8|0,0:0|0:0,0:0:0:0:
318,200,50236,1,0,0:0:0:0:
253,342,50409,1,0,0:0:0:0:
253,342,50495,1,0,0:0:0:0:
253,342,50581,6,0,L|258:263,1,67.4999979400635,6|0,0:0|0:0,0:0:0:0:
313,132,50926,2,0,L|317:199,1,67.4999979400635,2|0,0:0|0:0,0:0:0:0:
224,194,51270,1,8,0:0:0:0:
296,51,51442,2,0,L|300:118,1,67.4999979400635,2|0,0:0|0:0,0:0:0:0:
154,145,51787,6,0,P|110:142|20:151,1,134.999995880127,2|8,0:0|0:0,0:0:0:0:
66,233,52304,1,0,0:0:0:0:
155,158,52476,1,2,0:0:0:0:
258,304,52648,2,0,P|292:310|325:308,1,67.4999979400635,8|8,0:0|0:0,0:0:0:0:
352,295,52902,1,8,0:0:0:0:
373,275,52986,1,8,0:0:0:0:
343,113,53156,1,8,0:0:0:0:
323,135,53240,1,8,0:0:0:0:
308,165,53325,6,0,P|298:213|329:313,1,150,6|8,0:0|0:0,0:0:0:0:
415,363,53833,1,0,0:0:0:0:
433,226,54002,1,2,0:0:0:0:
497,308,54171,1,2,0:0:0:0:
352,295,54341,2,0,L|277:290,1,75,8|2,0:0|0:0,0:0:0:0:
149,368,54679,6,0,L|223:363,2,75,0|2|8,0:0|0:0|0:0,0:0:0:0:
48,334,55188,1,0,0:0:0:0:
137,199,55357,2,0,L|134:303,1,75,2|2,0:0|0:0,0:0:0:0:
48,334,55696,1,8,0:0:0:0:
149,368,55865,1,0,0:0:0:0:
149,368,55950,1,0,0:0:0:0:
149,368,56034,6,0,L|223:363,1,75,6|2,0:0|0:0,0:0:0:0:
360,316,56373,2,0,L|285:311,1,75,8|0,0:0|0:0,0:0:0:0:
214,233,56712,1,2,0:0:0:0:
284,326,56881,1,2,0:0:0:0:
378,211,57051,2,0,L|381:125,1,75,8|0,0:0|0:0,0:0:0:0:
456,279,57389,5,6,0:0:0:0:
463,289,58067,5,6,0:0:0:0:
469,297,58744,5,6,0:0:0:0:
372,254,58914,1,2,0:0:0:0:
256,347,59083,2,0,B|217:350|217:350|168:351,1,75,8|0,0:0|0:0,0:0:0:0:
290,186,59422,1,2,0:0:0:0:
217,261,59591,1,2,0:0:0:0:
116,147,59761,2,0,B|111:111|111:111|113:58,1,75,8|0,0:0|0:0,0:0:0:0:
231,115,60099,5,2,0:0:0:0:
231,115,60269,1,2,0:0:0:0:
374,215,60438,2,0,B|379:251|379:251|377:304,1,75,8|0,0:0|0:0,0:0:0:0:
217,261,60777,1,2,0:0:0:0:
217,261,60946,1,2,0:0:0:0:
346,139,61116,2,0,B|386:134|386:134|438:134,1,75,8|2,0:0|0:0,0:0:0:0:
290,211,61454,5,8,0:0:0:0:
290,211,61624,1,8,0:0:0:0:
287,74,61793,1,8,0:0:0:0:
287,74,61962,1,8,0:0:0:0:
205,188,62132,1,8,0:0:0:0:
346,139,62301,1,8,0:0:0:0:
319,287,62471,1,8,0:0:0:0:
204,173,62640,1,8,0:0:0:0:
172,332,62809,5,8,0:0:0:0:
40,228,62979,1,8,0:0:0:0:
52,233,63063,1,8,0:0:0:0:
65,238,63148,1,8,0:0:0:0:
141,122,63317,1,8,0:3:0:0:
131,130,63402,1,8,0:3:0:0:
122,141,63487,2,0,L|90:67,1,75,8|8,0:3|0:3,0:0:0:0:
189,0,63828,2,0,L|185:39,3,37.5,4|4|4|4,0:3|0:3|0:3|0:3,0:3:0:0:
211,57,64170,6,0,B|262:58|262:58|293:64|293:64|328:57|349:57,1,134.999995880127,6|0,0:0|0:0,0:0:0:0:
396,135,64675,1,2,0:0:0:0:
325,274,64844,2,0,B|303:232|310:186|310:186|303:164|307:130,1,134.999995880127,8|0,0:0|0:0,0:0:0:0:
413,300,65349,1,0,0:0:0:0:
413,300,65434,1,0,0:0:0:0:
413,300,65518,6,0,P|379:344|333:362,1,101.249996910095,2|0,0:0|0:0,0:0:0:0:
303,355,65855,2,0,B|270:354|270:354|223:358,1,67.4999979400635,0|2,0:0|0:0,0:0:0:0:
78,326,66192,2,0,B|111:327|111:327|158:323,1,67.4999979400635,8|0,0:0|0:0,0:0:0:0:
179,235,66529,2,0,P|224:214|275:213,1,101.249996910095,2|0,0:0|0:0,0:0:0:0:
301,237,66866,6,0,B|306:183|306:183|300:149|300:149|305:119|303:84,1,134.999995880127,6|0,0:0|0:0,0:0:0:0:
353,22,67372,1,2,0:0:0:0:
218,109,67540,2,0,B|157:106|157:106|124:111|124:111|71:109,1,134.999995880127,8|0,0:0|0:0,0:0:0:0:
120,22,68046,1,0,0:0:0:0:
211,188,68214,6,0,P|259:176|291:137,1,101.249996910095,2|0,0:0|0:0,0:0:0:0:
303,102,68552,2,0,L|325:184,1,67.4999979400635,0|2,0:0|0:0,0:0:0:0:
401,222,68889,2,0,B|404:183|404:183|411:151,1,67.4999979400635,8|0,0:0|0:0,0:0:0:0:
475,283,69226,1,2,0:0:0:0:
463,307,69563,5,12,0:0:0:0:
401,222,69731,1,2,0:0:0:0:
382,372,69900,1,2,0:0:0:0:
289,322,70068,1,2,0:0:0:0:
306,189,70237,2,0,B|306:146|306:146|304:114,1,75,8|2,0:0|0:0,0:0:0:0:
154,0,70574,1,2,0:0:0:0:
210,88,70743,1,2,0:0:0:0:
93,183,70911,6,0,B|56:181|56:181|18:184,1,75,8|2,0:0|0:0,0:0:0:0:
153,269,71248,1,2,0:0:0:0:
198,173,71417,1,2,0:0:0:0:
335,296,71585,2,0,B|373:299|373:299|409:293,1,75,8|2,0:0|0:0,0:0:0:0:
282,217,71922,1,8,0:0:0:0:
219,351,72091,1,0,0:0:0:0:
219,351,72175,1,0,0:0:0:0:
219,351,72259,6,0,B|170:348|139:351|139:351|113:354|113:354|77:346,1,134.999995880127,6|0,0:0|0:0,0:0:0:0:
11,287,72765,1,2,0:0:0:0:
117,142,72934,2,0,B|133:188|125:215|125:215|130:247|130:247|127:275,1,134.999995880127,8|0,0:0|0:0,0:0:0:0:
45,191,73439,1,0,0:0:0:0:
187,93,73608,6,0,P|236:84|287:86,1,101.249996910095,2|0,0:0|0:0,0:0:0:0:
317,107,73945,2,0,L|405:89,1,67.4999979400635,0|2,0:0|0:0,0:0:0:0:
504,146,74282,2,0,B|477:168|477:168|450:198,1,67.4999979400635,8|0,0:0|0:0,0:0:0:0:
439,296,74619,2,0,P|406:257|359:241,1,101.249996910095,2|0,0:0|0:0,0:0:0:0:
328,256,74956,6,0,B|275:263|235:258|235:258|212:268|176:273,1,134.999995880127,6|0,0:0|0:0,0:0:0:0:
278,183,75462,1,2,0:0:0:0:
166,342,75630,2,0,B|209:350|243:335|243:335|275:337|323:335,1,134.999995880127,8|0,0:0|0:0,0:0:0:0:
406,228,76136,1,0,0:0:0:0:
406,228,76220,1,0,0:0:0:0:
406,228,76304,6,0,L|414:148,1,67.4999979400635,2|8,0:0|0:0,0:0:0:0:
351,88,76641,1,0,0:0:0:0:
278,183,76810,1,2,0:0:0:0:
212,47,76978,2,0,P|252:44|293:48,1,67.4999979400635,8|0,0:0|0:0,0:0:0:0:
185,142,77316,1,2,0:0:0:0:
169,147,77653,5,12,0:0:0:0:
193,248,77821,1,2,0:0:0:0:
295,80,77990,1,2,0:0:0:0:
278,183,78158,1,2,0:0:0:0:
415,231,78327,2,0,B|460:229|460:229|502:233,1,75,8|2,0:0|0:0,0:0:0:0:
387,346,78664,1,2,0:0:0:0:
330,258,78832,1,2,0:0:0:0:
216,363,79001,6,0,B|171:365|171:365|129:361,1,75,8|2,0:0|0:0,0:0:0:0:
27,244,79338,1,2,0:0:0:0:
126,277,79507,1,2,0:0:0:0:
222,137,79675,2,0,B|223:99|223:99|223:48,1,75,8|2,0:0|0:0,0:0:0:0:
76,176,80012,2,0,B|108:185|108:185|149:187,1,75,8|2,0:0|0:0,0:0:0:0:
381,165,80349,6,0,B|349:156|349:156|307:153,1,75,12|2,0:0|0:0,0:0:0:0:
235,303,80686,1,2,0:0:0:0:
327,253,80855,1,2,0:0:0:0:
421,371,81023,2,0,B|465:362|465:362|505:356,1,75,8|2,0:0|0:0,0:0:0:0:
416,271,81361,1,2,0:0:0:0:
338,341,81529,1,2,0:0:0:0:
249,220,81698,6,0,B|249:173|249:173|256:113,1,75,8|2,0:0|0:0,0:0:0:0:
327,15,82035,1,2,0:0:0:0:
199,78,82203,1,8,0:0:0:0:
282,141,82372,1,2,0:0:0:0:
180,263,82540,1,2,0:0:0:0:
356,294,82709,2,0,B|396:287|396:287|457:288,1,75,8|2,0:0|0:0,0:0:0:0:
256,348,83046,5,6,0:0:0:0:
132,123,88409,6,0,L|277:118,1,120,0|8,0:0|0:0,0:0:0:0:
251,118,89242,1,8,0:0:0:0:
251,118,89742,1,8,0:0:0:0:
376,292,90242,1,8,0:0:0:0:
376,292,90742,1,4,0:0:0:0:
356,186,90909,1,0,0:0:0:0:
356,186,90992,1,0,0:0:0:0:
355,186,91075,6,0,P|301:207|267:256,1,120,8|8,0:0|0:0,0:0:0:0:
267,256,91899,1,8,0:0:0:0:
267,256,92393,1,8,0:0:0:0:
464,55,93053,1,4,0:0:0:0:
384,96,93217,1,0,0:0:0:0:
458,147,93382,1,8,0:0:0:0:
375,116,93547,1,0,0:0:0:0:
410,243,93712,6,0,P|414:299|414:369,1,120,6|8,0:1|0:0,0:0:0:0:
414,362,94530,1,8,0:0:0:0:
272,270,94857,1,8,0:0:0:0:
398,159,95185,1,4,0:0:0:0:
344,93,95349,2,0,L|331:44,1,30,8|8,0:0|0:0,0:0:0:0:
250,17,95594,2,0,L|246:53,1,30,8|8,0:0|0:0,0:0:0:0:
184,105,95840,1,8,0:3:0:0:
170,125,95922,1,0,0:0:0:0:
158,146,96003,2,0,L|153:175,3,30,8|0|0|0,0:3|0:0|0:0|0:0,0:0:0:0:
142,213,96331,6,0,L|164:288,1,60,6|8,0:0|0:0,0:0:0:0:
240,294,96658,2,0,L|339:283,1,90,8|8,0:0|0:0,0:0:0:0:
345,255,96986,2,0,B|352:206|352:206|348:159,1,90,8|8,0:0|0:0,0:0:0:0:
345,132,97313,2,0,L|355:78,2,30
263,173,97641,6,0,L|270:220,2,30,8|8|0,0:0|0:0|0:0,0:0:0:0:
181,153,97968,2,0,B|170:118|170:118|165:64,1,90,8|0,0:0|0:0,0:0:0:0:
198,39,98295,2,0,B|246:36|246:36|287:40,1,90,4|0,0:0|0:0,0:0:0:0:
329,43,98623,2,0,B|340:78|340:78|345:132,1,90,8|0,0:0|0:0,0:0:0:0:
342,161,98950,6,0,L|201:164,1,134.999995880127,6|2,0:0|0:0,0:0:0:0:
123,209,99431,1,2,0:0:0:0:
143,64,99591,1,8,0:0:0:0:
143,64,99912,2,0,L|141:147,1,67.4999979400635,2|0,0:0|0:0,0:0:0:0:
213,249,100233,6,0,L|347:246,1,134.999995880127,6|2,0:0|0:0,0:0:0:0:
347,246,100875,1,8,0:0:0:0:
438,345,101035,1,2,0:0:0:0:
511,219,101195,2,0,P|479:213|445:214,1,67.4999979400635,8|0,0:0|0:0,0:0:0:0:
347,246,101516,5,2,0:0:0:0:
347,246,101677,1,2,0:0:0:0:
405,145,101837,2,0,B|406:95|406:95|403:58,1,75,8|0,0:0|0:0,0:0:0:0:
318,153,102158,1,2,0:0:0:0:
318,153,102318,1,2,0:0:0:0:
260,254,102479,2,0,B|258:303|258:303|262:341,1,75,8|0,0:0|0:0,0:0:0:0:
185,212,102800,6,0,P|215:179|251:164,1,75,2|2,0:0|0:0,0:0:0:0:
165,297,103121,2,0,P|131:279|107:251,1,75,8|0,0:0|0:0,0:0:0:0:
160,98,103441,1,2,0:0:0:0:
160,98,103602,1,2,0:0:0:0:
77,162,103762,2,0,P|44:166|-7:166,1,75,12|0,0:0|0:0,0:0:0:0:
55,44,104083,5,2,0:0:0:0:
55,44,104244,1,2,0:0:0:0:
160,98,104404,2,0,P|192:102|244:102,1,75,8|0,0:0|0:0,0:0:0:0:
370,31,104725,1,2,0:0:0:0:
370,31,104885,1,2,0:0:0:0:
328,141,105046,2,0,B|329:188|329:188|335:244,1,75,8|0,0:0|0:0,0:0:0:0:
406,338,105367,6,0,B|405:291|405:291|399:235,1,75,2|2,0:0|0:0,0:0:0:0:
251,246,105687,2,0,P|271:278|303:297,1,75,8|0,0:0|0:0,0:0:0:0:
407,184,106008,1,2,0:0:0:0:
277,100,106169,1,8,0:0:0:0:
247,97,106249,1,8,0:0:0:0:
217,103,106329,1,8,0:0:0:0:
193,121,106409,1,8,0:0:0:0:
167,137,106490,1,8,0:0:0:0:
137,139,106570,1,8,0:0:0:0:
108,130,106650,6,0,P|92:90|102:40,1,75,6|2,0:0|0:0,0:0:0:0:
172,218,106971,2,0,P|173:255|158:289,1,75,8|0,0:0|0:0,0:0:0:0:
70,231,107292,1,2,0:0:0:0:
70,231,107452,1,2,0:0:0:0:
190,209,107613,2,0,B|234:206|234:206|276:208,1,75,8|0,0:0|0:0,0:0:0:0:
365,300,107933,5,2,0:0:0:0:
365,300,108094,1,2,0:0:0:0:
357,194,108254,2,0,B|359:158|359:158|365:107,1,75,8|0,0:0|0:0,0:0:0:0:
443,24,108575,1,2,0:0:0:0:
443,24,108736,1,2,0:0:0:0:
338,32,108896,2,0,B|296:35|296:35|233:35,1,75,8|0,0:0|0:0,0:0:0:0:
136,64,109217,6,0,P|170:79|195:105,1,75,2|2,0:0|0:0,0:0:0:0:
56,91,109538,2,0,P|44:55|47:18,1,75,12|0,0:0|0:0,0:0:0:0:
121,148,109859,1,2,0:0:0:0:
121,148,110019,1,2,0:0:0:0:
225,89,110179,2,0,B|263:88|263:88|314:91,1,75,8|0,0:0|0:0,0:0:0:0:
377,211,110500,5,2,0:0:0:0:
377,211,110661,1,2,0:0:0:0:
402,109,110821,2,0,B|403:69|403:69|401:28,1,75,8|0,0:0|0:0,0:0:0:0:
311,128,111142,1,2,0:0:0:0:
311,128,111302,1,2,0:0:0:0:
286,230,111463,2,0,B|285:270|285:270|287:311,1,75,8|0,0:0|0:0,0:0:0:0:
379,355,111784,6,0,P|389:319|390:281,1,75,2|2,0:0|0:0,0:0:0:0:
213,293,112105,2,0,P|248:303|286:304,1,75,12|0,0:0|0:0,0:0:0:0:
389,203,112425,1,2,0:0:0:0:
389,203,112586,1,2,0:0:0:0:
286,230,112746,2,0,B|282:186|282:186|288:140,1,75,8|0,0:0|0:0,0:0:0:0:
322,12,113067,5,2,0:0:0:0:
322,12,113228,1,2,0:0:0:0:
241,78,113388,2,0,B|197:82|197:82|151:76,1,75,8|0,0:0|0:0,0:0:0:0:
41,6,113709,1,2,0:0:0:0:
41,6,113869,1,2,0:0:0:0:
80,103,114030,2,0,B|81:145|81:145|76:184,1,75,8|0,0:0|0:0,0:0:0:0:
83,300,114351,6,0,P|112:268|152:255,1,75,2|2,0:0|0:0,0:0:0:0:
220,377,114671,2,0,P|186:361|162:333,1,75,12|0,0:0|0:0,0:0:0:0:
230,223,114992,1,2,0:0:0:0:
230,223,115153,1,2,0:0:0:0:
295,304,115313,2,0,B|345:296|345:296|390:292,1,75,8|0,0:0|0:0,0:0:0:0:
471,266,115634,5,2,0:0:0:0:
405,363,115794,1,2,0:0:0:0:
319,221,115955,1,8,0:0:0:0:
335,229,116276,5,8,0:0:0:0:
410,102,116436,1,8,0:0:0:0:
256,96,116597,1,8,0:0:0:0:
246,119,116917,6,0,P|190:126|85:127,1,134.999995880127,6|2,0:0|0:0,0:0:0:0:
111,128,117559,5,8,0:0:0:0:
196,35,117720,1,2,0:0:0:0:
93,132,117880,1,8,0:3:0:0:
201,14,118040,1,8,0:3:0:0:
253,131,118201,2,0,P|266:166|276:211,1,67.4999979400635,0|8,0:0|0:3,0:0:0:0:
246,286,118522,1,4,0:3:0:0:
246,286,118682,1,4,0:3:0:0:
348,230,118843,2,0,P|352:196|349:163,1,67.4999979400635,8|8,0:0|0:3,0:0:0:0:
413,21,119163,2,0,P|409:54|413:87,1,67.4999979400635,4|0,0:3|0:0,0:0:0:0:
487,247,119484,5,6,0:0:0:0:
487,247,119645,1,2,0:0:0:0:
423,164,119805,2,0,B|390:166|390:166|349:162,1,75,8|0,0:0|0:0,0:0:0:0:
224,76,120126,1,2,0:0:0:0:
224,76,120286,1,2,0:0:0:0:
254,176,120447,2,0,B|255:220|255:220|250:270,1,75,8|0,0:0|0:0,0:0:0:0:
161,149,120768,5,2,0:0:0:0:
161,149,120928,1,2,0:0:0:0:
314,101,121089,2,0,B|354:94|354:94|391:90,1,75,8|0,0:0|0:0,0:0:0:0:
285,191,121409,2,0,B|318:214|318:214|347:237,1,75,2|2,0:0|0:0,0:0:0:0:
203,249,121730,2,0,B|210:289|210:289|214:325,1,75,8|0,0:0|0:0,0:0:0:0:
106,203,122051,6,0,B|114:126|114:126|126:70,1,134.999995880127,6|2,0:0|0:0,0:0:0:0:
126,69,122693,1,8,0:0:0:0:
325,151,123014,2,0,B|294:155|294:155|243:161,1,67.4999979400635,6|0,0:0|0:0,0:0:0:0:
367,79,123335,6,0,B|444:86|444:86|508:82,1,134.999995880127,2|2,0:0|0:0,0:0:0:0:
501,82,123976,1,8,0:0:0:0:
402,192,124137,1,2,0:0:0:0:
350,56,124297,1,8,0:0:0:0:
367,79,124618,6,0,B|334:98|334:98|285:118,1,75,6|2,0:0|0:0,0:0:0:0:
184,9,124939,2,0,B|218:22|218:22|251:41,1,75,8|0,0:0|0:0,0:0:0:0:
172,111,125260,1,2,0:0:0:0:
172,111,125420,1,2,0:0:0:0:
76,29,125581,2,0,B|40:29|40:29|-2:32,1,75,8|0,0:0|0:0,0:0:0:0:
88,115,125901,5,2,0:0:0:0:
88,115,126062,1,2,0:0:0:0:
18,219,126222,2,0,B|8:253|8:253|0:295,1,75,8|0,0:0|0:0,0:0:0:0:
124,227,126543,2,0,B|142:258|142:258|165:293,1,75,2|2,0:0|0:0,0:0:0:0:
212,165,126864,2,0,B|246:174|246:174|288:182,1,75,8|0,0:0|0:0,0:0:0:0:
423,82,127185,6,0,B|350:88|350:88|285:99,1,134.999995880127,6|2,0:0|0:0,0:0:0:0:
289,98,127827,1,8,0:0:0:0:
368,296,128147,2,0,B|372:247|372:247|369:202,1,67.4999979400635,6|0,0:0|0:0,0:0:0:0:
276,86,128468,6,0,B|269:148|269:148|272:220,1,134.999995880127,2|6,0:0|0:0,0:0:0:0:
63,76,129110,2,0,B|94:73|94:73|130:72,1,67.4999979400635,8|2,0:0|0:0,0:0:0:0:
108,185,129431,2,0,B|131:205|131:205|157:230,1,67.4999979400635,8|0,0:0|0:0,0:0:0:0:
47,306,129752,5,6,0:0:0:0:
47,306,129914,1,2,0:0:0:0:
112,171,130076,1,8,0:0:0:0:
119,155,130400,5,2,0:0:0:0:
127,301,130562,1,2,0:0:0:0:
248,208,130724,1,8,0:0:0:0:
126,139,130887,1,2,0:0:0:0:
213,282,131049,6,0,P|249:288|286:282,1,75,12|8,0:0|0:3,0:0:0:0:
362,230,131373,1,8,0:0:0:0:
392,143,131535,1,8,0:0:0:0:
479,108,131697,5,8,0:0:0:0:
395,159,131860,1,8,0:0:0:0:
297,122,132022,1,8,0:0:0:0:
269,20,132184,1,8,0:0:0:0:
190,165,132346,5,6,0:0:0:0:
256,192,132428,12,0,134997,2:0:0:0:
103,68,137649,5,12,0:0:0:0:
103,68,137812,1,2,0:0:0:0:
196,115,137976,2,0,B|232:117|232:117|273:113,1,75,2|2,0:0|0:0,0:0:0:0:
82,152,138304,1,8,0:0:0:0:
82,152,138468,1,2,0:0:0:0:
199,222,138632,2,0,B|233:233|233:233|273:239,1,75,2|2,0:0|0:0,0:0:0:0:
49,233,138960,5,8,0:0:0:0:
49,233,139124,1,2,0:0:0:0:
176,335,139288,2,0,B|206:354|206:354|243:371,1,75,2|2,0:0|0:0,0:0:0:0:
350,275,139616,2,0,B|361:222|361:222|374:182,1,75,8|2,0:0|0:0,0:0:0:0:
468,70,139944,2,0,P|427:106|372:103,1,112.5,8|0,0:0|0:0,0:0:0:0:
348,88,140271,6,0,B|297:73|257:89|257:89|214:86,1,134.999995880127,6|0,0:0|0:0,0:0:0:0:
301,160,140763,1,2,0:0:0:0:
202,15,140927,2,0,P|150:54|151:119,1,134.999995880127,8|0,0:0|0:0,0:0:0:0:
211,192,141419,1,0,0:0:0:0:
68,99,141583,6,0,P|81:148|112:188,1,101.249996910095,2|0,0:0|0:0,0:0:0:0:
143,195,141911,2,0,B|185:192|185:192|211:192,1,67.4999979400635,0|2,0:0|0:0,0:0:0:0:
329,275,142239,2,0,B|303:274|303:274|261:271,1,67.4999979400635,8|0,0:0|0:0,0:0:0:0:
370,183,142567,2,0,P|411:210|428:257,1,101.249996910095,2|0,0:0|0:0,0:0:0:0:
424,287,142894,6,0,P|431:221|482:180,1,134.999995880127,6|0,0:0|0:0,0:0:0:0:
512,268,143386,1,2,0:0:0:0:
366,358,143550,2,0,B|308:355|308:355|269:358|269:358|223:357,1,134.999995880127,8|0,0:0|0:0,0:0:0:0:
128,370,144042,1,0,0:0:0:0:
128,370,144124,1,0,0:0:0:0:
128,370,144206,6,0,P|135:306|109:251,1,101.249996910095,2|0,0:0|0:0,0:0:0:0:
107,251,144534,2,0,B|120:209|120:209|123:185,1,67.4999979400635,0|2,0:0|0:0,0:0:0:0:
175,59,144862,2,0,B|178:82|178:82|191:124,1,67.4999979400635,8|0,0:0|0:0,0:0:0:0:
276,238,145189,2,0,B|234:233|234:233|208:231,1,67.4999979400635,2|0,0:0|0:0,0:0:0:0:
260,333,145517,5,12,0:0:0:0:
386,247,145681,1,2,0:0:0:0:
276,347,145845,1,2,0:0:0:0:
386,268,146009,1,2,0:0:0:0:
255,227,146173,2,0,B|249:190|249:190|256:132,1,75,8|2,0:0|0:0,0:0:0:0:
373,27,146501,1,2,0:0:0:0:
339,126,146665,1,2,0:0:0:0:
188,90,146829,6,0,B|143:88|143:88|96:90,1,75,8|2,0:0|0:0,0:0:0:0:
2,223,147157,1,2,0:0:0:0:
95,167,147321,1,2,0:0:0:0:
182,296,147485,2,0,B|185:334|185:334|183:370,1,75,8|2,0:0|0:0,0:0:0:0:
255,227,147812,2,0,B|262:190|262:190|275:154,1,75,8|0,0:0|0:0,0:0:0:0:
447,282,148140,6,0,B|413:290|413:290|372:292,1,75,6|0,0:0|0:0,0:0:0:0:
260,234,148468,1,0,0:0:0:0:
393,187,148632,1,8,0:0:0:0:
356,309,148796,2,0,B|353:345|353:345|353:383,1,75,0|2,0:0|0:0,0:0:0:0:
225,310,149124,2,0,P|195:286|180:252,1,75,8|2,0:0|0:0,0:0:0:0:
267,74,149452,6,0,P|275:110|267:146,1,75,8|2,0:0|0:0,0:0:0:0:
169,108,149780,1,2,0:0:0:0:
286,220,149944,1,8,0:0:0:0:
181,209,150108,1,2,0:0:0:0:
276,81,150271,1,2,0:0:0:0:
369,202,150435,2,0,B|375:233|375:233|381:275,1,75,8|0,0:0|0:0,0:0:0:0:
274,362,150763,5,6,0:0:0:0:
274,362,150927,1,2,0:0:0:0:
185,305,151091,2,0,B|139:301|139:301|110:301,1,75,8|0,0:0|0:0,0:0:0:0:
6,200,151419,1,2,0:0:0:0:
6,200,151583,1,2,0:0:0:0:
110,208,151747,2,0,B|145:178|145:178|165:157,1,75,8|0,0:0|0:0,0:0:0:0:
289,37,152075,5,2,0:0:0:0:
289,37,152239,1,2,0:0:0:0:
249,133,152403,2,0,B|249:169|249:169|253:208,1,75,8|0,0:0|0:0,0:0:0:0:
347,297,152730,2,0,B|351:258|351:258|351:222,1,75,2|2,0:0|0:0,0:0:0:0:
274,331,153058,2,0,P|311:370|385:369,1,112.5,8|0,0:0|0:0,0:0:0:0:
394,360,153386,6,0,P|427:341|471:332,1,75,6|2,0:0|0:0,0:0:0:0:
512,228,153714,2,0,P|475:219|443:200,1,75,8|0,0:0|0:0,0:0:0:0:
374,72,154042,1,2,0:0:0:0:
374,72,154206,1,2,0:0:0:0:
348,174,154370,2,0,B|313:187|313:187|264:191,1,75,8|0,0:0|0:0,0:0:0:0:
146,79,154698,5,2,0:0:0:0:
146,79,154862,1,2,0:0:0:0:
173,180,155026,2,0,B|174:218|174:218|172:273,1,75,8|0,0:0|0:0,0:0:0:0:
71,364,155353,1,2,0:0:0:0:
71,364,155517,1,2,0:0:0:0:
172,338,155681,2,0,P|226:326|281:335,1,112.5,8|0,0:0|0:0,0:0:0:0:
305,355,156009,6,0,P|343:359|378:348,1,75,6|2,0:0|0:0,0:0:0:0:
453,273,156337,2,0,L|454:178,1,75,8|0,0:0|0:0,0:0:0:0:
376,78,156665,1,2,0:0:0:0:
376,78,156829,1,2,0:0:0:0:
322,167,156993,2,0,B|286:185|286:185|243:194,1,75,8|0,0:0|0:0,0:0:0:0:
113,185,157321,5,2,0:0:0:0:
113,185,157485,1,2,0:0:0:0:
167,274,157648,2,0,B|203:292|203:292|246:301,1,75,8|0,0:0|0:0,0:0:0:0:
374,174,157976,1,2,0:0:0:0:
374,174,158140,1,2,0:0:0:0:
329,269,158304,2,0,P|330:323|368:363,1,112.5,8|0,0:0|0:0,0:0:0:0:
396,368,158632,6,0,P|350:352|252:390,1,150,6|0,0:0|0:0,0:0:0:0:
160,344,159124,1,8,0:0:0:0:
229,197,159288,2,0,P|235:234|238:272,1,75,0|2,0:0|0:0,0:0:0:0:
132,171,159616,2,0,P|134:133|141:96,1,75,8|2,0:0|0:0,0:0:0:0:
300,20,159944,5,8,0:0:0:0:
243,108,160108,1,2,0:0:0:0:
378,166,160271,2,0,B|430:158|430:158|472:155,1,75,2|8,0:0|0:0,0:0:0:0:
308,262,160599,2,0,B|285:260|285:260|233:252,1,75,2|8,0:0|0:0,0:0:0:0:
206,238,160845,1,8,0:0:0:0:
180,222,160927,1,8,0:0:0:0:
150,216,161009,1,8,0:0:0:0:
120,220,161091,1,8,0:0:0:0:
94,236,161173,1,8,0:0:0:0:
73,257,161255,6,0,P|66:295|71:345,1,75,6|2,0:0|0:0,0:0:0:0:
150,216,161583,2,0,P|153:141|131:69,1,150,8|2,0:0|0:0,0:0:0:0:
68,154,162075,1,2,0:0:0:0:
173,234,162239,2,0,B|203:232|203:232|253:227,1,75,8|0,0:0|0:0,0:0:0:0:
374,117,162567,5,2,0:0:0:0:
374,117,162730,1,2,0:0:0:0:
340,216,162894,2,0,B|338:258|338:258|344:319,1,75,8|0,0:0|0:0,0:0:0:0:
428,192,163222,1,2,0:0:0:0:
428,192,163386,1,2,0:0:0:0:
292,144,163550,2,0,P|251:135|159:162,1,112.5,8|0,0:0|0:0,0:0:0:0:
163,170,163878,6,0,P|122:177|83:169,1,75,6|2,0:0|0:0,0:0:0:0:
3,66,164206,1,8,0:0:0:0:
3,226,164370,1,8,0:0:0:0:
127,100,164534,2,0,P|163:92|200:98,1,75,2|2,0:0|0:0,0:0:0:0:
289,175,164862,2,0,P|349:173|402:129,1,112.5,8|0,0:0|0:0,0:0:0:0:
404,117,165189,6,0,P|441:123|472:144,1,75,2|2,0:0|0:0,0:0:0:0:
317,96,165517,2,0,P|280:89|249:68,1,75,8|0,0:0|0:0,0:0:0:0:
379,35,165845,1,2,0:0:0:0:
379,35,166009,1,2,0:0:0:0:
345,184,166173,1,8,0:0:0:0:
336,173,166501,5,12,0:0:0:0:
294,269,166665,1,2,0:0:0:0:
233,107,166829,1,2,0:0:0:0:
230,212,166993,1,2,0:0:0:0:
133,65,167157,2,0,B|94:58|94:58|58:55,1,75,8|2,0:0|0:0,0:0:0:0:
152,154,167485,1,2,0:0:0:0:
152,154,167648,1,2,0:0:0:0:
258,31,167812,6,0,B|297:24|297:24|333:21,1,75,8|2,0:0|0:0,0:0:0:0:
431,155,168140,1,2,0:0:0:0:
337,106,168304,1,2,0:0:0:0:
249,234,168468,2,0,B|210:244|210:244|152:247,1,75,8|2,0:0|0:0,0:0:0:0:
0,140,168796,2,0,B|34:141|34:141|73:151,1,75,8|2,0:0|0:0,0:0:0:0:
114,305,169124,5,6,0:0:0:0:
125,318,170464,5,6,0:0:0:0:
141,335,171843,5,6,0:0:0:0:
256,192,171929,12,0,177360,0:0:0:0:
