osu file format v14

[General]
AudioFilename: where.mp3
AudioLeadIn: 0
PreviewTime: 31719
Countdown: 0
SampleSet: Normal
StackLeniency: 0.5
Mode: 0
LetterboxInBreaks: 0
WidescreenStoryboard: 1

[Editor]
Bookmarks: 4605,25104,31289,53342,64181,80360,83057,95197,98957,101523,116924,119491,122058,124625,127192,132353,137656,138310,140296,148159,150780,158644,161265,166507,169128,171837,189654,197597
DistanceSpacing: 1.4
BeatDivisor: 4
GridSize: 32
TimelineZoom: 2.4

[Metadata]
Title:Whereabouts Unknown
TitleUnicode:Whereabouts Unknown
Artist:Rise Against
ArtistUnicode:Rise Against
Creator:Milan-
Version:Hard
Source:
Tags:pishifat metal punk hardcore Appeal to Reason
BeatmapID:731395
BeatmapSetID:327188

[Difficulty]
HPDrainRate:6
CircleSize:4
OverallDifficulty:6
ApproachRate:7.3
SliderMultiplier:1.3
SliderTickRate:1

[Events]
//Background and Video events
0,0,"what.png",0,0
//Break Periods
2,83246,87555
2,135197,136795
//Storyboard Layer 0 (Background)
//Storyboard Layer 1 (Fail)
//Storyboard Layer 2 (Pass)
//Storyboard Layer 3 (Foreground)
//Storyboard Sound Samples

[TimingPoints]
4589,427.046263345196,4,1,1,59,1,0
25087,413.793103448276,4,1,1,50,1,0
25087,-125,4,1,1,50,0,0
25914,-125,4,1,1,55,0,0
26742,405.405405405405,4,1,1,40,1,0
26742,-125,4,1,1,40,0,0
27147,-125,4,1,1,45,0,0
27552,-125,4,1,1,50,0,0
27958,-125,4,1,1,55,0,0
28363,365.296803652968,4,1,1,65,1,0
30006,-111.111111111111,4,1,1,60,0,0
31285,344.580043072505,4,1,1,65,1,0
31285,-100,4,1,1,65,0,0
52648,338.743824982357,4,1,1,65,1,0
52648,-100,4,1,1,65,0,0
53325,338.743824982357,4,1,1,70,1,0
57389,-125,4,1,1,70,0,0
58744,-100,4,1,1,70,0,0
61624,-100,4,1,1,50,0,0
62132,-100,4,1,1,55,0,0
62471,-100,4,1,1,60,0,0
62809,-100,4,1,1,65,0,0
63487,341.880341880342,4,1,1,65,1,0
64170,337.078651685393,4,1,1,70,1,1
64170,-111.111111111111,4,1,1,70,0,1
69563,-100,4,1,1,70,0,1
72259,-111.111111111111,4,1,1,70,0,1
77653,-100,4,1,1,70,0,1
83046,335.195530726257,4,1,1,70,1,0
88409,333.333333333333,4,3,1,50,1,0
88409,-125,4,3,1,50,0,0
91075,329.67032967033,4,3,1,50,1,0
91075,-125,4,3,1,50,0,0
93053,-125,4,3,1,59,0,0
93712,327.421555252387,4,3,1,40,1,0
93712,-125,4,3,1,40,0,0
94039,-125,4,3,1,50,0,0
95349,-125,4,3,1,55,0,0
96331,-125,4,1,1,40,0,0
96413,-125,4,3,1,50,0,0
97968,-125,4,3,1,55,0,0
98295,-125,4,3,1,60,0,0
98623,-125,4,3,1,65,0,0
98950,320.855614973262,4,1,1,65,1,0
98950,-111.111111111111,4,1,1,65,0,0
101516,-100,4,1,1,65,0,0
106169,-100,4,1,1,50,0,0
106650,-100,4,1,1,65,0,0
116917,-111.111111111111,4,1,1,65,0,0
119484,-99.9999999999999,4,1,1,65,0,0
122051,-111.111111111111,4,1,1,65,0,0
124618,-100,4,1,1,65,0,0
127185,-111.111111111111,4,1,1,65,0,0
129431,-111.111111111111,4,1,1,65,0,0
129752,324.324324324324,4,1,1,65,1,0
131211,-100,4,1,1,50,0,0
131697,-100,4,1,1,55,0,0
132022,-100,4,1,1,60,0,0
132346,331.491712707182,4,1,1,65,1,0
137649,327.868852459016,4,1,1,70,1,1
137730,-100,4,1,1,70,0,0
140271,-111.111111111111,4,1,1,70,0,1
145517,-99.9999999999999,4,1,1,70,0,1
150763,-99.9999999999999,4,1,1,70,0,0
160763,-100,4,1,1,55,0,0
161255,-100,4,1,1,70,0,1
161337,-99.9999999999999,4,1,1,70,0,0
166501,-99.9999999999999,4,1,1,70,0,1
169124,335.195530726257,4,1,1,59,1,0
170464,344.827586206897,4,1,1,49,1,0
171929,-100,4,1,1,5,0,0

[Colours]
Combo1 : 104,119,155
Combo2 : 203,138,67
Combo3 : 104,166,141

[HitObjects]
106,53,24873,5,0,0:0:0:0:
106,53,24980,1,0,0:0:0:0:
106,53,25087,2,0,L|98:104,1,52,2|0,0:0|0:0,0:0:0:0:
167,141,25500,2,0,L|174:192,1,52,2|0,0:0|0:0,0:0:0:0:
125,253,25914,2,0,L|117:304,1,52,2|0,0:0|0:0,0:0:0:0:
178,352,26328,2,0,P|203:346|227:337,1,52,2|0,0:0|0:0,0:0:0:0:
263,266,26742,6,0,P|287:256|320:252,1,52,8|8,0:0|0:0,0:0:0:0:
389,267,27147,2,0,P|403:245|415:222,1,52,8|8,0:0|0:0,0:0:0:0:
418,144,27552,1,8,0:0:0:0:
418,144,27755,1,8,0:0:0:0:
345,100,27958,1,8,0:0:0:0:
345,100,28160,1,8,0:0:0:0:
281,153,28363,5,8,0:0:0:0:
194,69,30006,5,8,0:0:0:0:
171,143,30189,2,0,L|115:162,1,58.4999982147217,2|2,0:0|0:0,0:0:0:0:
181,220,30554,2,0,L|155:272,1,58.4999982147217,8|8,0:0|0:0,0:0:0:0:
261,238,30920,1,2,0:3:0:0:
261,238,31285,6,0,L|401:230,1,130,6|2,0:0|0:0,0:0:0:0:
390,230,31974,1,8,0:0:0:0:
436,155,32146,2,0,P|440:103|378:35,2,130,2|2|0,0:0|0:0|0:0,0:0:0:0:
354,122,33007,2,0,L|281:129,1,65,2|2,0:0|0:0,0:0:0:0:
203,108,33352,2,0,L|190:33,2,65,8|0|0,0:0|0:0|0:0,0:0:0:0:
197,195,33869,1,0,0:0:0:0:
122,147,34041,6,0,P|109:209|141:264,1,130,6|2,0:0|0:0,0:0:0:0:
141,264,34730,1,8,0:0:0:0:
228,272,34903,2,0,L|360:258,1,130,2|2,0:0|0:0,0:0:0:0:
435,100,35592,2,0,P|441:131|440:164,1,65,0|2,0:0|0:0,0:0:0:0:
356,141,35936,1,2,0:0:0:0:
278,98,36109,2,0,L|212:106,1,65,8|0,0:0|0:0,0:0:0:0:
146,161,36453,2,0,L|80:153,1,65,0|0,0:0|0:0,0:0:0:0:
124,76,36798,5,6,0:0:0:0:
199,233,37142,1,2,0:0:0:0:
335,122,37487,1,8,0:0:0:0:
252,96,37659,2,0,B|184:82|184:82|123:75,2,130,2|2|0,0:0|0:0|0:0,0:0:0:0:
273,181,38521,2,0,L|282:262,1,65,2|2,0:0|0:0,0:0:0:0:
360,328,38865,2,0,L|369:247,1,65,8|0,0:0|0:0,0:0:0:0:
432,204,39210,2,0,L|423:128,1,65,0|0,0:0|0:0,0:0:0:0:
335,122,39554,6,0,P|275:99|215:121,1,130,6|2,0:0|0:0,0:0:0:0:
215,121,40244,2,0,L|139:121,1,65,8|2,0:0|0:0,0:0:0:0:
35,253,40760,1,2,0:0:0:0:
35,253,41105,1,8,0:0:0:0:
121,240,41277,2,0,L|199:233,1,65,0|2,0:0|0:0,0:0:0:0:
260,281,41622,5,8,0:0:0:0:
260,281,41794,1,8,0:0:0:0:
335,235,41966,1,8,0:0:0:0:
335,235,42139,1,8,0:0:0:0:
394,299,42311,6,0,P|455:314|510:283,1,130,6|2,0:0|0:0,0:0:0:0:
510,283,43000,1,8,0:0:0:0:
443,226,43173,2,0,L|438:87,2,130,2|2|0,0:0|0:0|0:0,0:0:0:0:
393,299,44034,2,0,P|363:308|330:308,1,65,2|2,0:0|0:0,0:0:0:0:
255,261,44379,2,0,L|242:186,2,65,8|0|0,0:0|0:0|0:0,0:0:0:0:
242,348,44895,1,0,0:0:0:0:
176,292,45068,6,0,L|153:157,1,130,6|2,0:0|0:0,0:0:0:0:
154,163,45757,1,8,0:0:0:0:
243,196,45929,2,0,L|375:182,1,130,2|2,0:0|0:0,0:0:0:0:
432,17,46618,2,0,P|438:48|437:81,1,65,0|2,0:0|0:0,0:0:0:0:
353,54,46963,1,2,0:0:0:0:
285,110,47135,2,0,L|217:100,1,65,8|0,0:0|0:0,0:0:0:0:
138,130,47480,2,0,L|96:74,1,65,0|0,0:0|0:0,0:0:0:0:
173,31,47824,5,6,0:0:0:0:
200,204,48169,1,2,0:0:0:0:
371,167,48514,1,8,0:0:0:0:
304,224,48686,2,0,B|290:268|290:268|291:307|310:359,2,130,2|2|0,0:0|0:0|0:0,0:0:0:0:
386,253,49547,2,0,P|415:240|443:219,1,65,2|2,0:0|0:0,0:0:0:0:
371,167,49892,2,0,L|353:78,1,65,8|0,0:0|0:0,0:0:0:0:
274,129,50236,2,0,L|233:47,1,65,0|0,0:0|0:0,0:0:0:0:
200,183,50581,6,0,P|190:250|206:317,1,130,6|2,0:0|0:0,0:0:0:0:
203,309,51270,2,0,P|223:284|233:254,1,65,8|2,0:0|0:0,0:0:0:0:
148,101,51787,1,2,0:0:0:0:
148,101,52132,1,8,0:0:0:0:
126,186,52304,2,0,P|136:216|156:241,1,65,0|2,0:0|0:0,0:0:0:0:
243,219,52648,5,8,0:0:0:0:
303,282,52817,2,0,L|304:334,2,32.5,8|8|8,0:0|0:0|0:0,0:0:0:0:
363,217,53156,1,8,0:0:0:0:
363,217,53240,1,8,0:0:0:0:
362,217,53325,6,0,P|379:154|364:92,1,130,6|8,0:0|0:0,0:0:0:0:
364,92,54002,2,0,P|336:107|304:112,2,65,2|2|8,0:0|0:0|0:0,0:0:0:0:
307,24,54510,1,2,0:0:0:0:
229,65,54679,2,0,L|151:56,1,65,0|2,0:0|0:0,0:0:0:0:
81,86,55018,1,8,0:0:0:0:
155,244,55357,2,0,P|160:213|157:180,1,65,2|2,0:0|0:0,0:0:0:0:
75,213,55696,2,0,P|69:244|72:277,1,65,8|0,0:0|0:0,0:0:0:0:
177,321,56034,6,0,P|216:293|226:275,1,65,6|2,0:0|0:0,0:0:0:0:
238,192,56373,1,8,0:0:0:0:
383,93,56712,2,0,P|344:121|334:139,1,65,2|2,0:0|0:0,0:0:0:0:
322,222,57051,1,8,0:0:0:0:
154,243,57389,6,0,P|147:145|237:94,2,208,6|6|6,0:0|0:0|0:0,0:0:0:0:
242,233,58914,5,2,0:0:0:0:
322,268,59083,2,0,L|465:257,1,130,8|2,0:0|0:0,0:0:0:0:
482,175,59591,1,2,0:0:0:0:
412,121,59761,2,0,L|408:48,1,65,8|0,0:0|0:0,0:0:0:0:
329,18,60099,2,0,L|325:82,2,65,2|2|8,0:0|0:0|0:0,0:0:0:0:
239,169,60777,2,0,P|192:175|164:169,1,65,2|2,0:0|0:0,0:0:0:0:
109,231,61116,2,0,P|77:224|44:227,1,65,8|2,0:0|0:0,0:0:0:0:
148,311,61454,6,0,P|180:314|215:306,1,65,8|8,0:0|0:0,0:0:0:0:
283,256,61793,2,0,L|364:246,1,65,8|8,0:0|0:0,0:0:0:0:
430,277,62132,1,8,0:0:0:0:
430,277,62301,1,8,0:0:0:0:
457,193,62471,1,8,0:0:0:0:
457,193,62640,1,8,0:0:0:0:
441,106,62809,5,8,0:0:0:0:
379,42,62979,2,0,L|373:-17,2,32.5,8|8|8,0:0|0:0|0:0,0:0:0:0:
337,119,63317,2,0,L|330:150,2,32.5,8|8|8,0:3|0:3|0:3,0:0:0:0:
282,51,63657,1,8,0:3:0:0:
259,50,63743,1,0,0:0:0:0:
237,47,63828,2,0,L|216:15,3,32.5,4|4|4|4,0:3|0:3|0:3|0:3,0:0:0:0:
203,58,64170,6,0,P|172:83|36:63,1,175.499994644165,6|2,0:0|0:0,0:0:0:0:
44,71,64844,1,8,0:0:0:0:
158,180,65181,2,0,P|169:206|173:235,1,58.4999982147217,0|0,0:0|0:0,0:0:0:0:
149,310,65518,2,0,P|186:277|262:276,1,116.999996429443,2|0,0:0|0:0,0:0:0:0:
312,321,66023,1,2,0:0:0:0:
383,355,66192,1,8,0:0:0:0:
408,198,66529,2,0,P|416:169|430:144,1,58.4999982147217,2|0,0:0|0:0,0:0:0:0:
483,85,66866,6,0,P|427:107|361:77,1,116.999996429443,6|0,0:0|0:0,0:0:0:0:
323,29,67372,1,2,0:0:0:0:
296,103,67540,1,8,0:0:0:0:
138,89,67877,2,0,P|166:84|195:85,1,58.4999982147217,0|0,0:0|0:0,0:0:0:0:
176,162,68214,2,0,P|119:169|73:135,1,116.999996429443,2|0,0:0|0:0,0:0:0:0:
138,89,68720,1,2,0:0:0:0:
217,92,68889,2,0,L|348:87,1,116.999996429443,8|2,0:0|0:0,0:0:0:0:
333,87,69563,6,0,L|348:166,2,65,12|2|2,0:0|0:0|0:0,0:0:0:0:
269,176,70068,1,2,0:0:0:0:
269,176,70237,2,0,L|254:255,2,65,8|2|2,0:0|0:0|0:0,0:0:0:0:
339,265,70743,1,2,0:0:0:0:
339,265,70911,6,0,L|354:344,2,65,8|2|2,0:0|0:0|0:0,0:0:0:0:
269,318,71417,1,2,0:0:0:0:
185,291,71585,1,8,0:0:0:0:
244,125,71922,1,8,0:0:0:0:
339,265,72259,6,0,P|404:240|409:131,1,175.499994644165,6|2,0:0|0:0,0:0:0:0:
417,143,72934,1,8,0:0:0:0:
274,213,73271,2,0,P|263:239|259:268,1,58.4999982147217,0|0,0:0|0:0,0:0:0:0:
295,339,73608,2,0,P|238:346|191:314,1,116.999996429443,2|0,0:0|0:0,0:0:0:0:
185,235,74113,1,2,0:0:0:0:
120,280,74282,1,8,0:0:0:0:
91,124,74619,2,0,P|86:152|88:182,1,58.4999982147217,2|0,0:0|0:0,0:0:0:0:
163,159,74956,6,0,P|167:101|134:54,1,116.999996429443,6|0,0:0|0:0,0:0:0:0:
91,124,75462,1,2,0:0:0:0:
47,58,75630,1,8,0:0:0:0:
204,83,75967,2,0,P|231:75|261:73,1,58.4999982147217,0|0,0:0|0:0,0:0:0:0:
327,117,76304,2,0,L|341:53,1,58.4999982147217,2|8,0:0|0:0,0:0:0:0:
402,134,76641,2,0,L|414:191,1,58.4999982147217,0|2,0:0|0:0,0:0:0:0:
456,258,76978,2,0,L|432:375,1,116.999996429443,8|2,0:0|0:0,0:0:0:0:
432,372,77653,6,0,P|381:354|356:352,2,65,12|2|2,0:0|0:0|0:0,0:0:0:0:
363,271,78158,1,2,0:0:0:0:
363,271,78327,2,0,P|356:213|362:184,2,65,8|2|2,0:0|0:0|0:0,0:0:0:0:
269,188,78832,1,2,0:0:0:0:
269,188,79001,6,0,P|237:166|197:158,2,65,8|2|2,0:0|0:0|0:0,0:0:0:0:
201,243,79507,1,2,0:0:0:0:
133,187,79675,1,8,0:0:0:0:
198,349,80012,1,8,0:0:0:0:
269,188,80349,6,0,P|297:171|329:168,2,65,12|2|2,0:0|0:0|0:0,0:0:0:0:
201,243,80855,1,2,0:0:0:0:
137,302,81023,2,0,P|109:318|77:321,2,65,8|2|2,0:0|0:0|0:0,0:0:0:0:
201,243,81529,1,2,0:0:0:0:
125,197,81698,6,0,P|108:169|105:137,2,65,8|2|2,0:0|0:0|0:0,0:0:0:0:
201,243,82203,1,8,0:0:0:0:
277,287,82372,2,0,P|293:314|296:346,1,65,2|2,0:0|0:0,0:0:0:0:
348,241,82709,2,0,P|350:208|367:181,1,65,8|2,0:0|0:0,0:0:0:0:
425,280,83046,5,6,0:0:0:0:
376,66,88409,6,0,B|366:124|366:124|365:178,1,104,0|8,0:0|0:0,0:0:0:0:
365,169,89242,1,8,0:0:0:0:
365,169,89742,2,0,B|306:162|306:162|190:160,1,156,8|8,0:0|0:0,0:0:0:0:
209,160,90742,2,0,L|197:109,1,52,4|0,0:0|0:0,0:0:0:0:
176,81,90992,1,0,0:0:0:0:
176,81,91075,6,0,L|70:90,1,104,8|8,0:0|0:0,0:0:0:0:
75,308,91899,1,8,0:0:0:0:
75,308,92393,2,0,L|294:289,1,208,8|4,0:0|0:0,0:0:0:0:
345,248,93217,2,0,L|330:188,2,52,0|8|0,0:0|0:0|0:0,0:0:0:0:
425,213,93712,6,0,L|433:101,1,104,6|8,0:1|0:0,0:0:0:0:
432,109,94530,1,8,0:0:0:0:
280,109,94857,2,0,L|174:102,1,104,8|4,0:0|0:0,0:0:0:0:
107,134,95349,6,0,L|132:213,1,78,8|8,0:0|0:0,0:0:0:0:
169,207,95676,2,0,L|179:264,1,52,8|8,0:0|0:0,0:0:0:0:
254,224,96003,2,0,L|290:248,3,26,8|0|0|0,0:0|0:0|0:0|0:0,0:0:0:0:
303,235,96331,6,0,L|376:230,1,52,6|8,0:0|0:0,0:0:0:0:
346,310,96658,2,0,L|437:333,1,78,8|8,0:0|0:0,0:0:0:0:
456,312,96986,2,0,B|477:282|488:252|488:252|492:202,1,104,8|8,0:0|0:0,0:0:0:0:
458,148,97477,1,0,0:0:0:0:
394,99,97641,6,0,L|380:62,3,26,8|8|0|8,0:0|0:0|0:0|0:0,0:0:0:0:
362,55,97968,2,0,P|302:85|265:80,2,104,8|4|8,0:0|0:0|0:0,0:0:0:0:
195,43,98950,6,0,P|137:43|90:76,1,116.999996429443,6|2,0:0|0:0,0:0:0:0:
80,155,99431,1,2,0:0:0:0:
153,127,99591,1,8,0:0:0:0:
216,271,99912,2,0,P|228:237|243:217,1,58.4999982147217,2|0,0:0|0:0,0:0:0:0:
295,276,100233,2,0,P|269:328|217:351,1,116.999996429443,6|2,0:0|0:0,0:0:0:0:
149,206,100875,2,0,P|139:234|135:263,2,58.4999982147217,8|2|8,0:0|0:0|0:0,0:0:0:0:
306,283,101516,6,0,L|381:285,2,65,2|2|8,0:0|0:0|0:0,0:0:0:0:
265,203,101998,1,0,0:0:0:0:
186,241,102158,2,0,L|111:243,2,65,2|2|8,0:0|0:0|0:0,0:0:0:0:
265,203,102639,1,0,0:0:0:0:
304,124,102800,6,0,L|306:49,2,65,2|2|8,0:0|0:0|0:0,0:0:0:0:
265,203,103281,1,0,0:0:0:0:
252,290,103441,2,0,L|254:365,2,65,2|2|12,0:0|0:0|0:0,0:0:0:0:
185,127,104083,6,0,P|156:111|124:104,1,65,2|2,0:0|0:0,0:0:0:0:
64,168,104404,2,0,P|92:183|124:190,1,65,8|0,0:0|0:0,0:0:0:0:
185,127,104725,1,2,0:0:0:0:
245,64,104885,1,2,0:0:0:0:
323,23,105046,2,0,P|355:20|386:26,1,65,8|0,0:0|0:0,0:0:0:0:
445,92,105367,6,0,L|458:168,2,65,2|2|8,0:0|0:0|0:0,0:0:0:0:
358,110,105848,1,0,0:0:0:0:
290,166,106008,2,0,L|210:173,1,65,2|8,0:0|0:0,0:0:0:0:
200,164,106249,1,0,0:0:0:0:
176,155,106329,2,0,L|132:155,3,32.5,8|8|8|8,0:0|0:0|0:0|0:0,0:0:0:0:
117,143,106650,6,0,P|107:233|133:262,1,130,6|8,0:0|0:0,0:0:0:0:
209,293,107131,1,0,0:0:0:0:
296,283,107292,2,0,L|323:348,2,65,2|2|8,0:0|0:0|0:0,0:0:0:0:
247,209,107773,1,0,0:0:0:0:
247,209,107933,6,0,L|274:144,2,65,2|2|8,0:0|0:0|0:0,0:0:0:0:
189,142,108415,1,0,0:0:0:0:
242,72,108575,2,0,P|273:65|305:68,1,65,2|2,0:0|0:0,0:0:0:0:
381,112,108896,1,8,0:0:0:0:
189,142,109217,6,0,L|157:79,2,65,2|2|12,0:0|0:0|0:0,0:0:0:0:
180,229,109698,1,0,0:0:0:0:
180,229,109859,2,0,L|105:228,2,65,2|2|8,0:0|0:0|0:0,0:0:0:0:
251,279,110340,1,0,0:0:0:0:
251,279,110500,6,0,L|229:354,1,65,2|2,0:0|0:0,0:0:0:0:
320,334,110821,2,0,L|342:263,1,65,8|0,0:0|0:0,0:0:0:0:
427,266,111142,2,0,L|405:341,1,65,2|2,0:0|0:0,0:0:0:0:
346,264,111463,1,8,0:0:0:0:
315,88,111784,6,0,P|311:120|315:152,1,65,2|2,0:0|0:0,0:0:0:0:
397,119,112105,2,0,P|400:86|396:54,1,65,12|0,0:0|0:0,0:0:0:0:
328,0,112425,2,0,P|295:1|267:15,2,65,2|2|8,0:0|0:0|0:0,0:0:0:0:
315,88,112907,1,0,0:0:0:0:
227,80,113067,6,0,P|204:56|195:25,2,65,2|2|8,0:0|0:0|0:0,0:0:0:0:
264,159,113548,1,0,0:0:0:0:
289,243,113709,2,0,L|290:322,1,65,2|2,0:0|0:0,0:0:0:0:
236,378,114030,1,8,0:0:0:0:
118,247,114351,6,0,P|113:292|121:325,1,65,2|2,0:0|0:0,0:0:0:0:
198,278,114671,2,0,P|197:215|154:168,1,130,12|2,0:0|0:0,0:0:0:0:
65,173,115153,2,0,L|-8:172,2,65,2|8|0,0:0|0:0|0:0,0:0:0:0:
154,168,115634,5,2,0:0:0:0:
194,90,115794,1,2,0:0:0:0:
273,52,115955,1,8,0:0:0:0:
167,192,116276,5,8,0:0:0:0:
207,114,116436,1,8,0:0:0:0:
286,76,116597,1,8,0:0:0:0:
178,213,116917,6,0,P|144:235|48:231,1,116.999996429443,6|2,0:0|0:0,0:0:0:0:
69,239,117559,2,0,L|75:304,1,58.4999982147217,8|2,0:0|0:0,0:0:0:0:
130,352,117880,2,0,L|190:333,1,58.4999982147217,8|8,0:3|0:3,0:0:0:0:
339,372,118361,2,0,L|283:354,2,58.4999982147217,8|4|4,0:3|0:3|0:3,0:0:0:0:
334,292,118843,2,0,P|326:249|354:170,1,116.999996429443,8|4,0:0|0:3,0:0:0:0:
346,180,119484,6,0,L|430:169,2,65,6|2|8,0:0|0:0|0:0,0:0:0:0:
259,200,119966,1,0,0:0:0:0:
287,117,120126,2,0,L|365:84,2,65,2|2|8,0:0|0:0|0:0,0:0:0:0:
225,179,120607,1,0,0:0:0:0:
207,93,120768,6,0,L|258:25,2,65,2|2|8,0:0|0:0|0:0,0:0:0:0:
190,180,121249,1,0,0:0:0:0:
102,176,121409,1,2,0:0:0:0:
156,342,121730,1,8,0:0:0:0:
269,206,122051,6,0,P|322:184|380:186,1,116.999996429443,6|2,0:0|0:0,0:0:0:0:
380,186,122693,1,8,0:0:0:0:
264,293,123014,1,6,0:0:0:0:
219,141,123335,2,0,P|241:87|283:47,1,116.999996429443,2|2,0:0|0:0,0:0:0:0:
283,47,123976,2,0,P|301:69|315:101,2,58.4999982147217,8|2|8,0:0|0:0|0:0,0:0:0:0:
155,187,124618,6,0,L|72:190,2,65,6|2|8,0:0|0:0|0:0,0:0:0:0:
239,162,125099,1,0,0:0:0:0:
216,247,125260,2,0,L|136:271,2,65,2|2|8,0:0|0:0|0:0,0:0:0:0:
278,184,125741,1,0,0:0:0:0:
300,269,125901,6,0,L|243:329,2,65,2|2|8,0:0|0:0|0:0,0:0:0:0:
317,182,126383,1,0,0:0:0:0:
404,188,126543,1,2,0:0:0:0:
321,33,126864,1,8,0:0:0:0:
228,187,127185,6,0,P|249:240|299:268,1,116.999996429443,6|2,0:0|0:0,0:0:0:0:
299,268,127827,1,8,0:0:0:0:
173,131,128147,2,0,P|149:183|165:238,1,116.999996429443,6|2,0:0|0:0,0:0:0:0:
165,238,128789,1,6,0:0:0:0:
215,57,129110,2,0,P|234:79|246:105,1,58.4999982147217,8|2,0:0|0:0,0:0:0:0:
259,183,129431,2,0,P|271:209|290:231,1,58.4999982147217,8|0,0:0|0:0,0:0:0:0:
372,259,129752,5,6,0:0:0:0:
372,259,129914,1,2,0:0:0:0:
322,331,130076,2,0,L|174:339,1,130,8|2,0:0|0:0,0:0:0:0:
112,301,130562,1,2,0:0:0:0:
112,301,130724,2,0,L|81:238,1,65,8|2,0:0|0:0,0:0:0:0:
141,175,131049,2,0,L|169:233,1,65,12|8,0:0|0:3,0:0:0:0:
227,167,131373,6,0,L|196:104,1,65,8|8,0:0|0:0,0:0:0:0:
237,29,131697,1,8,0:0:0:0:
237,29,131860,1,8,0:0:0:0:
309,78,132022,1,8,0:0:0:0:
309,78,132184,1,8,0:0:0:0:
382,34,132346,5,6,0:0:0:0:
256,192,132428,12,0,134997,2:0:0:0:
389,345,137649,6,0,L|398:267,2,65,12|2|2,0:0|0:0|0:0,0:0:0:0:
318,264,138140,1,2,0:0:0:0:
318,264,138304,2,0,L|309:186,2,65,8|2|2,0:0|0:0|0:0,0:0:0:0:
389,181,138796,1,2,0:0:0:0:
389,181,138960,6,0,L|398:103,2,65,8|2|2,0:0|0:0|0:0,0:0:0:0:
321,88,139452,1,2,0:0:0:0:
321,88,139616,1,8,0:0:0:0:
220,232,139944,1,8,0:0:0:0:
130,83,140271,6,0,P|89:158|123:248,1,175.499994644165,6|2,0:0|0:0,0:0:0:0:
114,239,140927,1,8,0:0:0:0:
207,110,141255,2,0,P|220:84|241:64,1,58.4999982147217,0|0,0:0|0:0,0:0:0:0:
285,130,141583,2,0,P|337:126|394:80,1,116.999996429443,2|0,0:0|0:0,0:0:0:0:
415,14,142075,1,2,0:0:0:0:
464,75,142239,1,8,0:0:0:0:
433,229,142567,2,0,L|432:169,1,58.4999982147217,2|0,0:0|0:0,0:0:0:0:
354,239,142894,6,0,L|364:371,1,116.999996429443,6|0,0:0|0:0,0:0:0:0:
285,339,143386,1,2,0:0:0:0:
211,368,143550,1,8,0:0:0:0:
101,254,143878,2,0,P|96:226|97:185,1,58.4999982147217,0|0,0:0|0:0,0:0:0:0:
173,213,144206,2,0,P|172:167|156:94,1,116.999996429443,2|0,0:0|0:0,0:0:0:0:
191,25,144698,1,2,0:0:0:0:
191,25,144862,2,0,P|242:31|320:17,1,116.999996429443,8|2,0:0|0:0,0:0:0:0:
306,21,145517,6,0,P|308:64|325:100,2,65,12|2|2,0:0|0:0|0:0,0:0:0:0:
398,96,146009,1,2,0:0:0:0:
398,96,146173,2,0,P|396:139|379:175,2,65,8|2|2,0:0|0:0|0:0,0:0:0:0:
320,198,146665,1,2,0:0:0:0:
320,198,146829,6,0,P|322:241|339:277,2,65,8|2|2,0:0|0:0|0:0,0:0:0:0:
248,146,147321,1,2,0:0:0:0:
178,199,147485,1,8,0:0:0:0:
249,358,147812,1,8,0:0:0:0:
319,198,148140,6,0,P|327:134|300:75,1,130,6|0,0:0|0:0,0:0:0:0:
215,53,148632,2,0,L|76:55,1,130,8|2,0:0|0:0,0:0:0:0:
55,138,149124,2,0,L|125:137,1,65,8|2,0:0|0:0,0:0:0:0:
103,223,149452,6,0,L|38:223,2,65,8|2|2,0:0|0:0|0:0,0:0:0:0:
183,187,149944,1,8,0:0:0:0:
175,274,150108,2,0,P|174:306|186:336,1,65,2|2,0:0|0:0,0:0:0:0:
262,291,150435,2,0,P|274:261|273:228,1,65,8|0,0:0|0:0,0:0:0:0:
295,122,150763,6,0,P|296:57|334:5,1,130,6|8,0:0|0:0,0:0:0:0:
380,86,151255,1,0,0:0:0:0:
380,86,151419,2,0,L|452:80,2,65,2|2|8,0:0|0:0|0:0,0:0:0:0:
218,156,152075,5,2,0:0:0:0:
218,156,152239,1,2,0:0:0:0:
135,125,152403,1,8,0:0:0:0:
265,241,152730,1,2,0:0:0:0:
265,241,152894,1,2,0:0:0:0:
348,210,153058,2,0,L|421:209,1,65,8|0,0:0|0:0,0:0:0:0:
458,284,153386,6,0,L|470:135,1,130,6|8,0:0|0:0,0:0:0:0:
421,79,153878,1,0,0:0:0:0:
421,79,154042,2,0,L|486:55,2,65,2|2|8,0:0|0:0|0:0,0:0:0:0:
250,34,154698,5,2,0:0:0:0:
250,34,154862,1,2,0:0:0:0:
288,112,155026,1,8,0:0:0:0:
165,236,155353,1,2,0:0:0:0:
165,236,155517,1,2,0:0:0:0:
203,158,155681,2,0,L|168:86,1,65,8|0,0:0|0:0,0:0:0:0:
150,14,156009,6,0,L|104:156,1,130,6|8,0:0|0:0,0:0:0:0:
86,222,156501,1,0,0:0:0:0:
86,222,156665,2,0,L|13:230,2,65,2|2|8,0:0|0:0|0:0,0:0:0:0:
242,301,157321,5,2,0:0:0:0:
242,301,157485,1,2,0:0:0:0:
222,216,157648,1,8,0:0:0:0:
314,66,157976,1,2,0:0:0:0:
314,66,158140,1,2,0:0:0:0:
294,151,158304,2,0,P|263:137|237:109,1,65,8|0,0:0|0:0,0:0:0:0:
248,6,158632,6,0,L|408:0,1,130,6|0,0:0|0:0,0:0:0:0:
431,71,159124,2,0,P|454:49|465:18,2,65,8|0|2,0:0|0:0|0:0,0:0:0:0:
343,79,159616,1,8,0:0:0:0:
387,248,159944,2,0,L|400:317,2,65,8|2|2,0:0|0:0|0:0,0:0:0:0:
327,183,160435,1,8,0:0:0:0:
259,238,160599,6,0,L|167:247,1,65,2|8,0:0|0:0,0:0:0:0:
168,233,160845,1,8,0:0:0:0:
142,222,160927,2,0,L|101:242,3,32.5,8|8|8|8,0:0|0:0|0:0|0:0,0:0:0:0:
94,258,161255,6,0,L|22:242,1,65,6|2,0:0|0:0,0:0:0:0:
22,155,161583,2,0,L|180:131,1,130,8|2,0:0|0:0,0:0:0:0:
220,81,162075,1,2,0:0:0:0:
232,167,162239,1,8,0:0:0:0:
335,308,162567,5,2,0:0:0:0:
335,308,162730,1,2,0:0:0:0:
347,221,162894,1,8,0:0:0:0:
300,51,163222,1,2,0:0:0:0:
300,51,163386,1,2,0:0:0:0:
315,137,163550,2,0,P|283:153|243:158,1,65,8|0,0:0|0:0,0:0:0:0:
166,161,163878,6,0,P|96:173|35:229,1,130,6|8,0:0|0:0,0:0:0:0:
112,269,164370,1,8,0:0:0:0:
193,235,164534,2,0,L|269:230,1,65,2|2,0:0|0:0,0:0:0:0:
330,280,164862,1,8,0:0:0:0:
435,140,165189,5,2,0:0:0:0:
435,140,165353,1,2,0:0:0:0:
422,226,165517,1,8,0:0:0:0:
312,88,165845,1,2,0:0:0:0:
312,88,166009,1,2,0:0:0:0:
323,175,166173,2,0,P|282:206|253:210,1,65,8|0,0:0|0:0,0:0:0:0:
198,156,166501,6,0,L|171:78,2,65,12|2|2,0:0|0:0|0:0,0:0:0:0:
181,242,166993,1,2,0:0:0:0:
116,182,167157,2,0,L|89:104,2,65,8|2|2,0:0|0:0|0:0,0:0:0:0:
99,268,167648,1,2,0:0:0:0:
34,209,167812,6,0,L|7:131,2,65,8|2|2,0:0|0:0|0:0,0:0:0:0:
17,295,168304,1,2,0:0:0:0:
99,268,168468,2,0,P|142:286|164:306,1,65,8|2,0:0|0:0,0:0:0:0:
213,364,168796,2,0,P|248:334|288:320,1,65,8|2,0:0|0:0,0:0:0:0:
356,348,169124,5,6,0:0:0:0:
363,331,170464,5,6,0:0:0:0:
359,309,171843,5,6,0:0:0:0:
256,192,171929,12,0,177360,0:0:0:0:
