osu file format v14

[General]
AudioFilename: where.mp3
AudioLeadIn: 0
PreviewTime: 31719
Countdown: 0
SampleSet: Normal
StackLeniency: 0.7
Mode: 0
LetterboxInBreaks: 0
WidescreenStoryboard: 0

[Editor]
Bookmarks: 4605,25104,31289,53342,64181,80360,83057,95197,98957,101523,116924,119491,122058,124625,127192,132353,137656,140296,148159,150780,158644,161265,166507,169128,171837,189654,197597
DistanceSpacing: 1.1
BeatDivisor: 2
GridSize: 32
TimelineZoom: 0.8000009

[Metadata]
Title:Whereabouts Unknown
TitleUnicode:Whereabouts Unknown
Artist:Rise Against
ArtistUnicode:Rise Against
Creator:Milan-
Version:Easy
Source:
Tags:pishifat metal punk hardcore Appeal to Reason
BeatmapID:733477
BeatmapSetID:327188

[Difficulty]
HPDrainRate:2
CircleSize:3
OverallDifficulty:2
ApproachRate:3
SliderMultiplier:0.799999999999999
SliderTickRate:1

[Events]
//Background and Video events
0,0,"what.png",0,0
//Break Periods
2,83246,86969
2,135197,136209
//Storyboard Layer 0 (Background)
//Storyboard Layer 1 (Fail)
//Storyboard Layer 2 (Pass)
//Storyboard Layer 3 (Foreground)
//Storyboard Sound Samples

[TimingPoints]
4589,427.046263345196,4,1,1,59,1,0
25087,413.793103448276,4,1,1,50,1,0
25087,-100,4,1,1,50,0,0
25914,-100,4,1,1,55,0,0
26742,405.405405405405,4,1,1,40,1,0
27147,-100,4,1,1,45,0,0
27552,-100,4,1,1,50,0,0
27958,-100,4,1,1,55,0,0
28363,365.296803652968,4,1,1,65,1,0
30006,-100,4,1,1,60,0,0
31285,344.580043072505,4,1,1,65,1,0
31285,-100,4,1,1,65,0,0
52648,338.743824982357,4,1,1,65,1,0
52648,-100,4,1,1,65,0,0
53325,338.743824982357,4,1,1,70,1,0
61624,-100,4,1,1,50,0,0
62132,-100,4,1,1,55,0,0
62471,-100,4,1,1,60,0,0
62809,-100,4,1,1,65,0,0
63487,341.880341880342,4,1,1,65,1,0
64170,337.078651685393,4,1,1,70,1,1
64170,-100,4,1,1,70,0,1
69563,-100,4,1,1,70,0,1
72259,-100,4,1,1,70,0,1
77653,-100,4,1,1,70,0,1
83046,335.195530726257,4,1,1,70,1,0
88409,333.333333333333,4,3,1,50,1,0
88409,-100,4,3,1,50,0,0
91075,329.67032967033,4,3,1,50,1,0
91075,-100,4,3,1,50,0,0
93053,-100,4,3,1,59,0,0
93712,327.421555252387,4,3,1,40,1,0
93712,-100,4,3,1,40,0,0
94039,-100,4,3,1,50,0,0
95349,-100,4,3,1,55,0,0
96331,-100,4,1,1,40,0,0
96413,-100,4,3,1,50,0,0
97968,-100,4,3,1,55,0,0
98295,-100,4,3,1,60,0,0
98623,-100,4,3,1,65,0,0
98950,320.855614973262,4,1,1,65,1,0
98950,-100,4,1,1,65,0,0
101516,-100,4,1,1,65,0,0
106169,-100,4,1,1,50,0,0
106650,-100,4,1,1,65,0,0
116917,-100,4,1,1,65,0,0
119484,-100,4,1,1,65,0,0
122051,-100,4,1,1,65,0,0
124618,-100,4,1,1,65,0,0
127185,-100,4,1,1,65,0,0
129431,-100,4,1,1,65,0,0
129752,324.324324324324,4,1,1,65,1,0
131211,-100,4,1,1,50,0,0
131697,-100,4,1,1,55,0,0
132022,-100,4,1,1,60,0,0
132346,331.491712707182,4,1,1,65,1,0
137649,327.868852459016,4,1,1,70,1,1
137730,-100,4,1,1,70,0,0
140271,-100,4,1,1,70,0,1
145517,-100,4,1,1,70,0,1
150763,-100,4,1,1,70,0,0
160763,-100,4,1,1,55,0,0
161255,-100,4,1,1,70,0,1
161337,-100,4,1,1,70,0,0
166501,-100,4,1,1,70,0,1
169124,335.195530726257,4,1,1,59,1,0
170464,344.827586206897,4,1,1,49,1,0
171929,-100,4,1,1,5,0,0

[Colours]
Combo1 : 104,119,155
Combo2 : 203,138,67
Combo3 : 104,166,141

[HitObjects]
427,310,25087,6,0,L|267:313,1,160,2|2,0:0|0:0,0:0:0:0:
98,250,26742,2,0,L|105:171,1,79.9999999999999,8|8,0:0|0:0,0:0:0:0:
186,137,27552,2,0,L|193:216,1,79.9999999999999,8|8,0:0|0:0,0:0:0:0:
236,304,28363,1,8,0:0:0:0:
236,304,30006,6,0,L|358:299,1,120,8|8,0:0|0:0,0:0:0:0:
442,282,30920,1,2,0:3:0:0:
381,211,31285,6,0,L|376:124,1,79.9999999999999,6|2,0:0|0:0,0:0:0:0:
310,71,31974,2,0,P|361:42|421:52,2,120,8|2|2,0:0|0:0|0:0,0:0:0:0:
277,153,33352,1,8,0:0:0:0:
116,80,34041,6,0,L|118:183,1,79.9999999999999,6|2,0:0|0:0,0:0:0:0:
182,219,34730,2,0,L|52:224,2,120,8|2|2,0:0|0:0|0:0,0:0:0:0:
260,178,36109,1,8,0:0:0:0:
353,326,36798,6,0,L|436:324,1,79.9999999999999,6|2,0:0|0:0,0:0:0:0:
482,251,37487,2,0,B|486:198|486:198|480:113,2,120,8|2|2,0:0|0:0|0:0,0:0:0:0:
394,238,38865,1,8,0:0:0:0:
280,103,39554,6,0,L|296:9,2,79.9999999999999,6|2|8,0:0|0:0|0:0,0:0:0:0:
192,202,40760,2,0,L|178:123,1,79.9999999999999,2|8,0:0|0:0,0:0:0:0:
80,33,41622,1,8,0:0:0:0:
55,117,41966,1,8,0:0:0:0:
30,200,42311,6,0,P|31:240|53:279,1,79.9999999999999,6|2,0:0|0:0,0:0:0:0:
115,218,43000,2,0,L|252:211,2,120,8|2|2,0:0|0:0|0:0,0:0:0:0:
134,304,44379,1,8,0:0:0:0:
305,264,45068,6,0,P|320:227|318:187,1,79.9999999999999,6|2,0:0|0:0,0:0:0:0:
280,110,45757,2,0,P|239:153|233:211,2,120,8|2|2,0:0|0:0|0:0,0:0:0:0:
368,113,47135,1,8,0:0:0:0:
433,276,47824,6,0,L|433:355,1,79.9999999999999,6|2,0:0|0:0,0:0:0:0:
349,327,48514,2,0,L|350:193,2,120,8|2|2,0:0|0:0|0:0,0:0:0:0:
268,362,49892,1,8,0:0:0:0:
192,202,50581,6,0,L|283:194,2,79.9999999999999,6|2|8,0:0|0:0|0:0,0:0:0:0:
116,310,51787,2,0,L|36:302,1,79.9999999999999,2|8,0:0|0:0,0:0:0:0:
46,168,52648,1,8,0:0:0:0:
121,120,52986,1,8,0:0:0:0:
193,66,53325,6,0,P|232:62|272:66,1,79.9999999999999,6|8,0:0|0:0,0:0:0:0:
354,96,54002,2,0,P|393:99|433:95,1,79.9999999999999,2|8,0:0|0:0,0:0:0:0:
391,17,54679,1,0,0:0:0:0:
315,175,55357,2,0,L|316:281,1,79.9999999999999,2|8,0:0|0:0,0:0:0:0:
361,329,56034,6,0,P|284:336|231:280,2,160,6|2|6,0:0|0:0|0:0,0:0:0:0:
456,179,58067,1,6,0:0:0:0:
280,200,58744,6,0,L|190:185,1,79.9999999999999,6|8,0:0|0:0,0:0:0:0:
152,113,59422,2,0,L|61:128,1,79.9999999999999,2|8,0:0|0:0,0:0:0:0:
26,201,60099,2,0,P|22:240|35:277,1,79.9999999999999,2|8,0:0|0:0,0:0:0:0:
113,317,60777,2,0,L|191:303,1,79.9999999999999,2|8,0:0|0:0,0:0:0:0:
262,250,61454,6,0,P|385:273|282:346,1,320,8|8,0:0|0:0,0:0:0:0:
113,317,63487,1,8,0:3:0:0:
214,170,64170,6,0,B|216:109|216:109|207:10,1,160,6|8,0:0|0:0,0:0:0:0:
56,100,65518,1,2,0:0:0:0:
108,267,66192,2,0,P|147:275|186:272,1,79.9999999999999,8|2,0:0|0:0,0:0:0:0:
268,240,66866,2,0,P|345:224|418:254,1,160,6|8,0:0|0:0,0:0:0:0:
281,364,68214,1,2,0:0:0:0:
181,218,68889,1,8,0:0:0:0:
150,300,69226,1,2,0:0:0:0:
94,231,69563,6,0,B|86:129|86:129|97:60,2,160,12|8|8,0:0|0:0|0:0,0:0:0:0:
150,300,71248,1,2,0:0:0:0:
236,284,71585,2,0,L|315:290,1,79.9999999999999,8|8,0:0|0:0,0:0:0:0:
376,356,72259,6,0,P|400:282|362:215,1,160,6|8,0:0|0:0,0:0:0:0:
193,164,73608,1,2,0:0:0:0:
331,55,74282,2,0,P|344:92|343:132,1,79.9999999999999,8|2,0:0|0:0,0:0:0:0:
259,104,74956,2,0,L|98:119,1,160,6|8,0:0|0:0,0:0:0:0:
49,287,76304,1,2,0:0:0:0:
205,205,76978,1,8,0:0:0:0:
270,264,77316,1,2,0:0:0:0:
340,317,77653,6,0,B|402:315|402:315|512:285,2,160,12|8|8,0:0|0:0|0:0,0:0:0:0:
355,230,79338,1,2,0:0:0:0:
313,152,79675,2,0,L|328:56,1,79.9999999999999,8|8,0:0|0:0,0:0:0:0:
397,21,80349,5,12,0:0:0:0:
444,190,81023,2,0,P|451:229|446:268,1,79.9999999999999,8|2,0:0|0:0,0:0:0:0:
409,348,81698,1,8,0:0:0:0:
251,266,82372,2,0,P|212:261|173:266,1,79.9999999999999,2|8,0:0|0:0,0:0:0:0:
97,312,83046,5,6,0:0:0:0:
46,106,88409,6,0,B|123:102|123:102|252:104,1,200,0|8,0:0|0:0,0:0:0:0:
350,185,89742,2,0,L|362:328,2,120,8|8|4,0:0|0:0|0:0,0:0:0:0:
261,188,91075,2,0,B|187:211|187:211|68:241,1,200,8|8,0:0|0:0,0:0:0:0:
22,118,92393,1,8,0:0:0:0:
177,35,93053,2,0,L|256:31,1,79.9999999999999,4|8,0:0|0:0,0:0:0:0:
325,87,93712,6,0,B|402:83|402:83|450:109|472:182,1,200,6|8,0:1|0:0,0:0:0:0:
450,265,94857,1,8,0:0:0:0:
367,230,95185,2,0,P|309:224|256:250,1,120,4|8,0:0|0:0,0:0:0:0:
202,319,96003,1,8,0:0:0:0:
167,238,96331,6,0,B|154:177|154:177|145:68,1,160,6|8,0:0|0:0,0:0:0:0:
321,61,97641,1,8,0:0:0:0:
382,123,97968,2,0,P|402:89|407:49,2,79.9999999999999,8|4|8,0:0|0:0|0:0,0:0:0:0:
296,150,98950,6,0,L|136:156,1,160,6|8,0:0|0:0,0:0:0:0:
59,200,99912,1,2,0:0:0:0:
136,242,100233,2,0,L|295:235,1,160,6|8,0:0|0:0,0:0:0:0:
377,202,101195,1,8,0:0:0:0:
430,272,101516,6,0,L|436:363,2,79.9999999999999,2|8|2,0:0|0:0|0:0,0:0:0:0:
466,191,102479,1,8,0:0:0:0:
411,122,102800,2,0,L|416:42,2,79.9999999999999,2|8|2,0:0|0:0|0:0,0:0:0:0:
377,202,103762,1,12,0:0:0:0:
315,139,104083,6,0,P|288:211|329:277,1,160,2|2,0:0|0:0,0:0:0:0:
415,299,105046,1,8,0:0:0:0:
486,247,105367,2,0,P|499:284|499:324,2,79.9999999999999,2|8|2,0:0|0:0|0:0,0:0:0:0:
422,186,106329,1,8,0:0:0:0:
473,115,106650,6,0,P|471:53|373:17,1,160,6|2,0:0|0:0,0:0:0:0:
323,68,107613,1,8,0:0:0:0:
240,38,107933,2,0,B|175:32|175:32|135:42|78:40,2,160,2|2|2,0:0|0:0|0:0,0:0:0:0:
256,124,109538,6,0,L|258:216,2,79.9999999999999,12|2|8,0:0|0:0|0:0,0:0:0:0:
323,67,110500,2,0,P|362:62|454:148,1,160,2|2,0:0|0:0,0:0:0:0:
439,219,111463,1,8,0:0:0:0:
380,284,111784,6,0,L|398:364,2,79.9999999999999,2|12|2,0:0|0:0|0:0,0:0:0:0:
353,200,112746,1,8,0:0:0:0:
292,263,113067,2,0,P|225:278|145:231,1,160,2|2,0:0|0:0,0:0:0:0:
170,149,114030,1,8,0:0:0:0:
84,173,114351,6,0,L|-7:173,2,79.9999999999999,2|12|2,0:0|0:0|0:0,0:0:0:0:
170,149,115313,1,8,0:0:0:0:
237,204,115634,2,0,L|245:289,1,79.9999999999999,2|8,0:0|0:0,0:0:0:0:
324,321,116276,2,0,L|331:241,1,79.9999999999999,8|8,0:0|0:0,0:0:0:0:
364,158,116917,6,0,P|430:120|502:149,1,160,6|8,0:0|0:0,0:0:0:0:
436,206,117880,2,0,P|389:242|331:241,2,120,8|8|8,0:3|0:3|0:0,0:0:0:0:
364,158,119163,1,4,0:3:0:0:
276,169,119484,6,0,L|189:135,2,79.9999999999999,6|8|2,0:0|0:0|0:0,0:0:0:0:
330,240,120447,1,8,0:0:0:0:
243,256,120768,2,0,L|150:245,2,79.9999999999999,2|8|2,0:0|0:0|0:0,0:0:0:0:
299,323,121730,1,8,0:0:0:0:
385,307,122051,6,0,P|417:237|381:168,1,160,6|8,0:0|0:0,0:0:0:0:
306,122,123014,1,6,0:0:0:0:
247,188,123335,1,2,0:0:0:0:
130,55,123976,2,0,L|68:123,1,79.9999999999999,8|8,0:0|0:0,0:0:0:0:
24,184,124618,6,0,P|24:276|76:324,1,160,6|2,0:0|0:0,0:0:0:0:
154,298,125581,1,8,0:0:0:0:
229,342,125901,2,0,L|307:328,1,79.9999999999999,2|8,0:0|0:0,0:0:0:0:
343,247,126543,2,0,L|264:233,1,79.9999999999999,2|8,0:0|0:0,0:0:0:0:
207,166,127185,6,0,B|190:67|190:67|171:11,1,160,6|8,0:0|0:0,0:0:0:0:
83,22,128147,1,6,0:0:0:0:
35,96,128468,1,2,0:0:0:0:
67,177,128789,2,0,L|57:280,2,79.9999999999999,6|8|8,0:0|0:0|0:0,0:0:0:0:
139,128,129752,5,6,0:0:0:0:
210,178,130076,2,0,P|287:173|338:114,1,160,8|8,0:0|0:0,0:0:0:0:
371,32,131049,2,0,L|401:194,1,160,12|8,0:0|0:0,0:0:0:0:
434,358,132346,5,6,0:0:0:0:
256,192,132511,12,0,134997,2:0:0:0:
352,79,137649,5,12,0:0:0:0:
255,226,138304,1,8,0:0:0:0:
177,68,138960,1,8,0:0:0:0:
352,79,139616,1,8,0:0:0:0:
365,166,139944,1,8,0:0:0:0:
379,252,140271,6,0,B|361:306|361:306|271:373,1,160,6|8,0:0|0:0,0:0:0:0:
132,268,141583,1,2,0:0:0:0:
275,157,142239,2,0,L|270:47,1,79.9999999999999,8|2,0:0|0:0,0:0:0:0:
348,34,142894,2,0,L|183:37,1,160,6|8,0:0|0:0,0:0:0:0:
40,133,144206,1,2,0:0:0:0:
184,234,144862,1,8,0:0:0:0:
262,194,145189,1,2,0:0:0:0:
337,148,145517,6,0,B|399:150|399:150|502:183,2,160,12|8|8,0:0|0:0|0:0,0:0:0:0:
320,234,147157,1,2,0:0:0:0:
244,190,147485,2,0,L|153:231,1,79.9999999999999,8|8,0:0|0:0,0:0:0:0:
91,262,148140,6,0,L|79:142,2,120,6|8|8,0:0|0:0|0:0,0:0:0:0:
146,332,149452,2,0,B|107:356|61:347|61:347|23:351,2,120,8|8|8,0:0|0:0|0:0,0:0:0:0:
203,265,150763,6,0,P|252:239|369:260,1,160,6|2,0:0|0:0,0:0:0:0:
415,311,151747,1,8,0:0:0:0:
331,337,152075,2,0,P|293:344|242:341,2,79.9999999999999,2|8|2,0:0|0:0|0:0,0:0:0:0:
352,249,153058,1,8,0:0:0:0:
283,191,153386,6,0,P|256:119|295:53,1,160,6|2,0:0|0:0,0:0:0:0:
343,127,154370,1,8,0:0:0:0:
412,181,154698,2,0,L|498:175,2,79.9999999999999,2|8|2,0:0|0:0|0:0,0:0:0:0:
352,249,155681,1,8,0:0:0:0:
283,191,156009,6,0,L|91:203,1,160,6|2,0:0|0:0,0:0:0:0:
75,275,156993,1,8,0:0:0:0:
37,195,157321,2,0,L|30:106,1,79.9999999999999,2|8,0:0|0:0,0:0:0:0:
118,112,157976,2,0,L|111:32,1,79.9999999999999,2|8,0:0|0:0,0:0:0:0:
199,19,158632,6,0,B|262:11|262:11|349:8,2,120,6|8|8,0:0|0:0|0:0,0:0:0:0:
205,107,159944,2,0,L|220:248,1,120,8|8,0:0|0:0,0:0:0:0:
276,291,160763,2,0,B|326:288|326:288|352:280|352:280|423:273,1,120,8|6,0:0|0:0,0:0:0:0:
458,336,161583,6,0,P|477:261|431:199,1,160,8|8,0:0|0:0,0:0:0:0:
345,179,162567,2,0,L|251:174,1,79.9999999999999,2|8,0:0|0:0,0:0:0:0:
195,120,163222,1,2,0:0:0:0:
185,207,163550,6,0,B|194:311|194:311|209:367,2,160,8|8|8,0:0|0:0|0:0,0:0:0:0:
195,119,165189,2,0,P|189:80|170:45,1,79.9999999999999,2|8,0:0|0:0,0:0:0:0:
28,149,166173,1,8,0:0:0:0:
80,219,166501,6,0,B|142:223|142:223|267:213,1,160,12|8,0:0|0:0,0:0:0:0:
387,311,167812,2,0,B|325:307|325:307|200:317,1,160,8|8,0:0|0:0,0:0:0:0:
141,333,168796,1,8,0:0:0:0:
169,251,169124,5,6,0:0:0:0:
483,120,170464,5,6,0:0:0:0:
134,72,171843,5,6,0:0:0:0:
256,192,172015,12,0,177360,0:0:0:0:
