osu file format v14

[General]
AudioFilename: where.mp3
AudioLeadIn: 0
PreviewTime: 31719
Countdown: 0
SampleSet: Normal
StackLeniency: 0.5
Mode: 0
LetterboxInBreaks: 0
WidescreenStoryboard: 1

[Editor]
Bookmarks: 4605,25104,31289,53342,64181,80360,83057,95197,98957,101523,116924,119491,122058,124625,127192,132353,137656,140296,148159,150780,158644,161265,166507,169128,171837,189654,197597
DistanceSpacing: 1.3
BeatDivisor: 4
GridSize: 32
TimelineZoom: 3.1

[Metadata]
Title:Whereabouts Unknown
TitleUnicode:Whereabouts Unknown
Artist:Rise Against
ArtistUnicode:Rise Against
Creator:Milan-
Version:Another
Source:
Tags:pishifat metal punk hardcore Appeal to Reason
BeatmapID:730027
BeatmapSetID:327188

[Difficulty]
HPDrainRate:7
CircleSize:4
OverallDifficulty:8
ApproachRate:9
SliderMultiplier:1.8
SliderTickRate:1

[Events]
//Background and Video events
0,0,"what.png",0,0
//Break Periods
2,83246,87809
2,135197,137049
//Storyboard Layer 0 (Background)
//Storyboard Layer 1 (Fail)
//Storyboard Layer 2 (Pass)
//Storyboard Layer 3 (Foreground)
//Storyboard Sound Samples

[TimingPoints]
4589,427.046263345196,4,1,1,59,1,0
25087,413.793103448276,4,1,1,50,1,0
25087,-125,4,1,1,50,0,0
25914,-125,4,1,1,55,0,0
26742,405.405405405405,4,1,1,40,1,0
27147,-125,4,1,1,45,0,0
27552,-125,4,1,1,50,0,0
27958,-125,4,1,1,55,0,0
28363,365.296803652968,4,1,1,65,1,0
30006,-125,4,1,1,60,0,0
31285,344.580043072505,4,1,1,65,1,0
31285,-111.111111111111,4,1,1,65,0,0
52648,338.743824982357,4,1,1,65,1,0
52648,-111.111111111111,4,1,1,65,0,0
53325,338.743824982357,4,1,1,70,1,0
61624,-100,4,1,1,50,0,0
62132,-100,4,1,1,55,0,0
62471,-100,4,1,1,60,0,0
62809,-100,4,1,1,65,0,0
63487,341.880341880342,4,1,1,65,1,0
64170,337.078651685393,4,1,1,70,1,1
64170,-111.111111111111,4,1,1,70,0,1
69563,-100,4,1,1,70,0,1
72259,-111.111111111111,4,1,1,70,0,1
77653,-100,4,1,1,70,0,1
83046,335.195530726257,4,1,1,70,1,0
88409,333.333333333333,4,3,1,50,1,0
88409,-125,4,3,1,50,0,0
91075,329.67032967033,4,3,1,50,1,0
91075,-125,4,3,1,50,0,0
93053,-125,4,3,1,59,0,0
93712,327.421555252387,4,3,1,40,1,0
93712,-125,4,3,1,40,0,0
94039,-125,4,3,1,50,0,0
95349,-125,4,3,1,55,0,0
96331,-125,4,1,1,40,0,0
96413,-125,4,3,1,50,0,0
97968,-125,4,3,1,55,0,0
98295,-125,4,3,1,60,0,0
98623,-125,4,3,1,65,0,0
98950,320.855614973262,4,1,1,65,1,0
98950,-111.111111111111,4,1,1,65,0,0
101516,-100,4,1,1,65,0,0
106169,-100,4,1,1,50,0,0
106650,-100,4,1,1,65,0,0
116917,-111.111111111111,4,1,1,65,0,0
119484,-99.9999999999999,4,1,1,65,0,0
122051,-111.111111111111,4,1,1,65,0,0
124618,-100,4,1,1,65,0,0
127185,-111.111111111111,4,1,1,65,0,0
129431,-111.111111111111,4,1,1,65,0,0
129752,324.324324324324,4,1,1,65,1,0
131211,-100,4,1,1,50,0,0
131697,-100,4,1,1,55,0,0
132022,-100,4,1,1,60,0,0
132346,331.491712707182,4,1,1,65,1,0
137649,327.868852459016,4,1,1,70,1,1
137730,-100,4,1,1,70,0,0
140271,-111.111111111111,4,1,1,70,0,1
145517,-99.9999999999999,4,1,1,70,0,1
150763,-99.9999999999999,4,1,1,70,0,0
160763,-100,4,1,1,55,0,0
161255,-100,4,1,1,70,0,1
161337,-99.9999999999999,4,1,1,70,0,0
166501,-99.9999999999999,4,1,1,70,0,1
169124,335.195530726257,4,1,1,59,1,0
170464,344.827586206897,4,1,1,49,1,0
171929,-100,4,1,1,5,0,0

[Colours]
Combo1 : 104,119,155
Combo2 : 203,138,67
Combo3 : 104,166,141

[HitObjects]
130,66,24873,5,0,0:0:0:0:
120,92,24980,1,0,0:0:0:0:
111,113,25087,2,0,P|77:121|41:128,1,72,2|0,0:0|0:0,0:0:0:0:
186,186,25500,2,0,P|220:194|256:201,1,72,2|0,0:0|0:0,0:0:0:0:
135,343,25914,2,0,P|129:306|130:271,1,72,2|0,0:0|0:0,0:0:0:0:
186,186,26328,1,2,0:0:0:0:
213,318,26535,1,0,0:0:0:0:
51,258,26742,5,8,0:0:0:0:
185,154,26944,1,8,0:0:0:0:
223,341,27147,1,8,0:0:0:0:
32,266,27350,1,8,0:0:0:0:
184,118,27552,1,8,0:0:0:0:
232,361,27755,1,8,0:0:0:0:
8,276,27958,1,8,0:0:0:0:
184,82,28160,1,8,0:0:0:0:
385,269,28363,5,8,0:0:0:0:
373,255,30006,5,8,0:0:0:0:
222,372,30189,1,2,0:0:0:0:
246,248,30372,1,2,0:0:0:0:
101,384,30554,1,8,0:0:0:0:
257,272,30737,1,8,0:0:0:0:
95,147,30920,1,2,0:3:0:0:
103,162,31285,6,0,P|114:124|109:84,1,80.9999975280763,6|0,0:0|0:0,0:0:0:0:
34,239,31629,2,0,P|29:279|40:317,1,80.9999975280763,2|0,0:0|0:0,0:0:0:0:
169,126,31974,1,8,0:0:0:0:
188,274,32146,2,0,P|145:278|100:272,1,80.9999975280763,2|0,0:0|0:0,0:0:0:0:
265,188,32491,6,0,P|343:173|421:194,1,161.999995056153,2|0,0:0|0:0,0:0:0:0:
279,277,33007,1,2,0:0:0:0:
176,143,33180,1,2,0:0:0:0:
176,265,33352,1,8,0:0:0:0:
276,166,33524,2,0,P|281:126|270:82,1,80.9999975280763,0|0,0:0|0:0,0:0:0:0:
99,128,33869,1,0,0:0:0:0:
99,128,33955,1,0,0:0:0:0:
98,127,34041,6,0,P|135:141|175:142,1,80.9999975280763,6|0,0:0|0:0,0:0:0:0:
283,188,34386,2,0,P|323:188|360:203,1,80.9999975280763,2|0,0:0|0:0,0:0:0:0:
433,326,34730,1,8,0:0:0:0:
496,158,34903,1,2,0:0:0:0:
488,175,35247,6,0,P|448:177|409:167,1,80.9999975280763,2|0,0:0|0:0,0:0:0:0:
330,96,35592,2,0,P|290:86|250:88,1,80.9999975280763,0|2,0:0|0:0,0:0:0:0:
167,153,35936,1,2,0:0:0:0:
59,42,36109,1,8,0:0:0:0:
158,141,36281,1,0,0:0:0:0:
72,34,36453,1,0,0:0:0:0:
55,159,36625,1,0,0:0:0:0:
218,84,36798,6,0,P|245:120|252:159,1,80.9999975280763,6|0,0:0|0:0,0:0:0:0:
151,306,37142,2,0,P|160:266|185:235,1,80.9999975280763,2|0,0:0|0:0,0:0:0:0:
346,249,37487,1,8,0:0:0:0:
255,371,37659,2,0,P|234:337|228:297,1,80.9999975280763,2|0,0:0|0:0,0:0:0:0:
319,110,38004,6,0,P|335:188|305:262,1,161.999995056153,2|0,0:0|0:0,0:0:0:0:
185,235,38521,1,2,0:0:0:0:
251,154,38693,1,2,0:0:0:0:
252,311,38865,1,8,0:0:0:0:
104,233,39038,2,0,P|116:194|142:164,1,80.9999975280763,0|0,0:0|0:0,0:0:0:0:
251,154,39382,1,0,0:0:0:0:
149,307,39554,6,0,P|109:316|69:311,1,80.9999975280763,6|0,0:0|0:0,0:0:0:0:
241,247,39899,2,0,P|280:237|320:242,1,80.9999975280763,2|0,0:0|0:0,0:0:0:0:
231,329,40244,1,8,0:0:0:0:
154,171,40416,1,2,0:0:0:0:
145,192,40760,6,0,P|107:202|66:200,1,80.9999975280763,2|0,0:0|0:0,0:0:0:0:
201,97,41105,1,8,0:0:0:0:
241,247,41277,1,0,0:0:0:0:
275,147,41450,1,2,0:0:0:0:
284,322,41622,5,8,0:0:0:0:
145,192,41794,1,8,0:0:0:0:
325,80,41966,1,8,0:0:0:0:
297,305,42139,1,8,0:0:0:0:
78,153,42311,6,0,P|67:114|72:74,1,80.9999975280763,6|0,0:0|0:0,0:0:0:0:
193,77,42656,2,0,P|212:41|244:17,1,80.9999975280763,2|0,0:0|0:0,0:0:0:0:
296,158,43000,1,8,0:0:0:0:
173,239,43173,2,0,P|133:243|93:243,1,80.9999975280763,2|0,0:0|0:0,0:0:0:0:
266,143,43517,6,0,P|313:206|302:284,1,161.999995056153,2|0,0:0|0:0,0:0:0:0:
209,333,44034,1,2,0:0:0:0:
178,153,44206,1,2,0:0:0:0:
146,253,44379,1,8,0:0:0:0:
279,126,44551,2,0,P|284:86|273:42,1,80.9999975280763,0|0,0:0|0:0,0:0:0:0:
150,163,44895,1,0,0:0:0:0:
150,163,44982,1,0,0:0:0:0:
151,162,45068,6,0,P|114:176|74:177,1,80.9999975280763,6|0,0:0|0:0,0:0:0:0:
196,61,45412,2,0,P|233:47|273:46,1,80.9999975280763,2|0,0:0|0:0,0:0:0:0:
366,96,45757,1,8,0:0:0:0:
249,219,45929,1,2,0:0:0:0:
240,211,46274,6,0,P|230:249|235:289,1,80.9999975280763,2|0,0:0|0:0,0:0:0:0:
317,384,46618,2,0,P|327:345|322:305,1,80.9999975280763,0|2,0:0|0:0,0:0:0:0:
233,204,46963,1,2,0:0:0:0:
161,373,47135,1,8,0:0:0:0:
140,269,47307,1,0,0:0:0:0:
140,269,47480,1,0,0:0:0:0:
283,363,47652,1,0,0:0:0:0:
337,180,47824,6,0,P|345:144|340:99,1,80.9999975280763,6|0,0:0|0:0,0:0:0:0:
200,88,48169,2,0,P|191:52|196:7,1,80.9999975280763,2|0,0:0|0:0,0:0:0:0:
246,176,48514,1,8,0:0:0:0:
107,143,48686,2,0,P|75:123|47:88,1,80.9999975280763,2|0,0:0|0:0,0:0:0:0:
234,188,49030,6,0,P|250:266|220:340,1,161.999995056153,2|0,0:0|0:0,0:0:0:0:
154,257,49547,1,2,0:0:0:0:
256,165,49720,1,2,0:0:0:0:
320,338,49892,1,8,0:0:0:0:
388,229,50064,2,0,P|427:217|468:217,1,80.9999975280763,0|0,0:0|0:0,0:0:0:0:
331,326,50409,1,0,0:0:0:0:
268,174,50581,6,0,P|265:138|264:94,1,80.9999975280763,6|0,0:0|0:0,0:0:0:0:
398,233,50926,2,0,P|401:196|402:152,1,80.9999975280763,2|0,0:0|0:0,0:0:0:0:
355,32,51270,1,8,0:0:0:0:
259,190,51442,1,2,0:0:0:0:
268,174,51787,6,0,P|231:191|191:193,1,80.9999975280763,2|0,0:0|0:0,0:0:0:0:
119,78,52132,1,8,0:0:0:0:
211,28,52304,2,0,L|216:116,1,80.9999975280763,0|2,0:0|0:0,0:0:0:0:
174,289,52648,5,8,0:0:0:0:
268,174,52817,1,8,0:0:0:0:
284,190,52902,1,8,0:0:0:0:
307,199,52986,1,8,0:0:0:0:
461,95,53156,1,8,0:0:0:0:
444,120,53240,1,8,0:0:0:0:
433,156,53325,6,0,B|418:198|425:252|451:282|451:282|502:309,1,180,6|8,0:0|0:0,0:0:0:0:
395,352,53833,1,0,0:0:0:0:
282,217,54002,1,2,0:0:0:0:
274,324,54171,1,2,0:0:0:0:
137,150,54341,2,0,B|138:206|138:206|147:263,1,90,8|2,0:0|0:0,0:0:0:0:
229,114,54679,6,0,B|231:69|231:69|242:-5,2,90,0|2|8,0:0|0:0|0:0,0:0:0:0:
282,217,55188,1,0,0:0:0:0:
314,99,55357,1,2,0:0:0:0:
175,222,55526,2,0,P|131:230|88:218,1,90,2|8,0:0|0:0,0:0:0:0:
120,64,55865,1,0,0:0:0:0:
120,64,55950,1,0,0:0:0:0:
120,64,56034,6,0,P|140:121|135:155,1,90,6|2,0:0|0:0,0:0:0:0:
13,248,56373,2,0,P|11:203|29:162,1,90,8|0,0:0|0:0,0:0:0:0:
81,311,56712,1,2,0:0:0:0:
185,205,56881,1,2,0:0:0:0:
262,359,57051,2,0,P|332:348|317:292,1,135,8|0,0:0|0:0,0:0:0:0:
245,344,57389,5,6,0:0:0:0:
227,328,58067,5,6,0:0:0:0:
211,314,58744,5,6,0:0:0:0:
94,328,58914,1,2,0:0:0:0:
152,157,59083,2,0,P|168:198|166:243,1,90,8|0,0:0|0:0,0:0:0:0:
67,142,59422,1,2,0:0:0:0:
194,62,59591,1,2,0:0:0:0:
96,215,59761,2,0,P|51:222|6:224,1,90,8|0,0:0|0:0,0:0:0:0:
121,84,60099,5,2,0:0:0:0:
106,230,60269,1,2,0:0:0:0:
233,136,60438,2,0,P|277:128|322:126,1,90,8|0,0:0|0:0,0:0:0:0:
458,226,60777,1,2,0:0:0:0:
338,142,60946,1,2,0:0:0:0:
470,131,61116,1,8,0:0:0:0:
470,131,61285,1,2,0:0:0:0:
337,294,61454,5,8,0:0:0:0:
354,155,61624,1,8,0:0:0:0:
427,316,61793,1,8,0:0:0:0:
250,272,61962,1,8,0:0:0:0:
368,169,62132,1,8,0:0:0:0:
272,364,62301,1,8,0:0:0:0:
166,193,62471,1,8,0:0:0:0:
387,184,62640,1,8,0:0:0:0:
243,284,62809,5,8,0:0:0:0:
260,82,62979,1,8,0:0:0:0:
272,96,63063,1,8,0:0:0:0:
284,110,63148,1,8,0:0:0:0:
350,266,63317,1,8,0:3:0:0:
323,248,63402,1,8,0:3:0:0:
291,244,63487,1,8,0:3:0:0:
143,346,63657,1,8,0:3:0:0:
179,204,63828,5,4,0:3:0:0:
175,167,63914,1,4,0:3:0:0:
156,136,63999,1,4,0:3:0:0:
125,116,64085,1,4,0:3:0:0:
92,114,64170,6,0,P|169:105|202:35,1,161.999995056153,6|0,0:0|0:0,0:0:0:0:
74,27,64675,1,2,0:0:0:0:
23,155,64844,2,0,L|31:250,1,80.9999975280763,8|0,0:0|0:0,0:0:0:0:
123,366,65181,2,0,L|129:285,1,80.9999975280763,0|0,0:0|0:0,0:0:0:0:
151,255,65434,1,0,0:0:0:0:
151,255,65518,6,0,P|189:243|229:242,1,80.9999975280763,2|0,0:0|0:0,0:0:0:0:
322,293,65855,1,0,0:0:0:0:
274,174,66023,1,2,0:0:0:0:
389,52,66192,2,0,L|387:149,1,80.9999975280763,8|0,0:0|0:0,0:0:0:0:
285,184,66529,2,0,P|266:140|184:133,1,121.499996292114,2|0,0:0|0:0,0:0:0:0:
187,142,66866,6,0,P|134:157|41:101,1,161.999995056153,6|0,0:0|0:0,0:0:0:0:
134,51,67372,1,2,0:0:0:0:
210,221,67540,2,0,L|207:320,1,80.9999975280763,8|0,0:0|0:0,0:0:0:0:
110,148,67877,2,0,L|107:67,1,80.9999975280763,0|0,0:0|0:0,0:0:0:0:
223,211,68214,6,0,P|275:194|317:94,1,161.999995056153,2|0,0:0|0:0,0:0:0:0:
212,101,68720,1,2,0:0:0:0:
124,229,68889,2,0,P|84:226|50:203,1,80.9999975280763,8|0,0:0|0:0,0:0:0:0:
49,46,69226,2,0,P|105:58|122:113,1,121.499996292114,2|0,0:0|0:0,0:0:0:0:
110,148,69563,5,12,0:0:0:0:
189,35,69731,1,2,0:0:0:0:
223,211,69900,1,2,0:0:0:0:
268,14,70068,1,2,0:0:0:0:
392,160,70237,2,0,B|436:158|436:158|485:151,1,90,8|2,0:0|0:0,0:0:0:0:
276,22,70574,5,2,0:0:0:0:
276,22,70743,1,2,0:0:0:0:
383,148,70911,2,0,B|427:146|427:146|476:139,1,90,8|2,0:0|0:0,0:0:0:0:
356,266,71248,5,2,0:0:0:0:
277,144,71417,1,2,0:0:0:0:
223,337,71585,1,8,0:0:0:0:
233,220,71754,1,2,0:0:0:0:
92,346,71922,1,8,0:0:0:0:
166,143,72091,1,0,0:0:0:0:
166,143,72175,1,0,0:0:0:0:
166,143,72259,6,0,P|187:218|140:280,1,161.999995056153,6|0,0:0|0:0,0:0:0:0:
71,199,72765,1,2,0:0:0:0:
170,355,72934,2,0,P|130:359|92:346,1,80.9999975280763,8|0,0:0|0:0,0:0:0:0:
268,228,73271,2,0,P|305:214|345:219,1,80.9999975280763,0|0,0:0|0:0,0:0:0:0:
372,238,73523,1,0,0:0:0:0:
372,238,73608,6,0,P|410:250|449:241,1,80.9999975280763,2|0,0:0|0:0,0:0:0:0:
412,142,73945,1,0,0:0:0:0:
320,310,74113,1,2,0:0:0:0:
215,154,74282,2,0,P|210:115|219:75,1,80.9999975280763,8|0,0:0|0:0,0:0:0:0:
299,174,74619,2,0,P|267:224|210:241,1,121.499996292114,2|0,0:0|0:0,0:0:0:0:
183,230,74956,6,0,P|137:216|45:285,1,161.999995056153,6|0,0:0|0:0,0:0:0:0:
182,317,75462,1,2,0:0:0:0:
215,154,75630,2,0,L|210:69,1,80.9999975280763,8|0,0:0|0:0,0:0:0:0:
80,12,75967,2,0,L|75:92,1,80.9999975280763,0|0,0:0|0:0,0:0:0:0:
218,60,76304,5,2,0:0:0:0:
114,179,76473,2,0,L|119:268,1,80.9999975280763,8|0,0:0|0:0,0:0:0:0:
232,75,76810,1,2,0:0:0:0:
197,292,76978,2,0,L|192:211,1,80.9999975280763,8|0,0:0|0:0,0:0:0:0:
247,92,77316,2,0,P|293:137|361:106,1,121.499996292114,2|0,0:0|0:0,0:0:0:0:
361,103,77653,5,12,0:0:0:0:
488,205,77821,1,2,0:0:0:0:
321,245,77990,1,2,0:0:0:0:
373,89,78158,1,2,0:0:0:0:
474,221,78327,2,0,B|478:259|478:259|471:317,1,90,8|2,0:0|0:0,0:0:0:0:
381,97,78664,5,2,0:0:0:0:
381,97,78832,1,2,0:0:0:0:
457,244,79001,2,0,B|461:282|461:282|454:340,1,90,8|2,0:0|0:0,0:0:0:0:
321,245,79338,5,2,0:0:0:0:
349,358,79507,1,2,0:0:0:0:
244,202,79675,1,8,0:0:0:0:
213,315,79844,1,2,0:0:0:0:
119,143,80012,1,8,0:0:0:0:
144,257,80181,1,2,0:0:0:0:
21,353,80349,6,0,P|10:307|23:253,1,90,12|2,0:0|0:0,0:0:0:0:
157,360,80686,1,2,0:0:0:0:
157,360,80855,1,2,0:0:0:0:
273,222,81023,2,0,P|316:211|361:215,1,90,8|2,0:0|0:0,0:0:0:0:
243,322,81361,1,2,0:0:0:0:
243,322,81529,1,2,0:0:0:0:
198,151,81698,6,0,P|221:112|255:84,1,90,8|2,0:0|0:0,0:0:0:0:
278,243,82035,1,2,0:0:0:0:
112,240,82203,1,8,0:0:0:0:
282,162,82372,1,2,0:0:0:0:
236,320,82540,1,2,0:0:0:0:
119,158,82709,1,8,0:0:0:0:
315,87,82877,1,2,0:0:0:0:
424,288,83046,5,6,0:0:0:0:
417,127,88409,6,0,B|326:133|326:133|268:129,1,144,0|8,0:0|0:0,0:0:0:0:
273,129,89242,1,8,0:0:0:0:
316,54,89742,1,8,0:0:0:0:
311,210,90242,1,8,0:0:0:0:
185,126,90742,5,4,0:0:0:0:
135,289,90909,1,0,0:0:0:0:
135,289,90992,1,0,0:0:0:0:
135,289,91075,1,8,0:0:0:0:
209,237,91404,5,8,0:0:0:0:
274,353,91899,1,8,0:0:0:0:
130,373,92393,1,8,0:0:0:0:
294,275,93053,5,4,0:0:0:0:
235,202,93217,1,0,0:0:0:0:
261,112,93382,1,8,0:0:0:0:
349,80,93547,1,0,0:0:0:0:
233,213,93712,6,0,B|139:218|139:218|81:210,1,144,6|8,0:1|0:0,0:0:0:0:
89,211,94530,1,8,0:0:0:0:
250,116,94857,1,8,0:0:0:0:
251,303,95185,5,4,0:0:0:0:
206,220,95349,1,8,0:0:0:0:
206,220,95430,2,0,B|187:186|187:186|163:155,1,72,8|8,0:0|0:0,0:0:0:0:
143,149,95676,1,8,0:0:0:0:
40,300,95840,1,8,0:0:0:0:
40,300,95922,1,0,0:0:0:0:
40,300,96003,2,0,P|38:275|42:245,3,36,8|0|0|0,0:0|0:0|0:0|0:0,0:0:0:0:
62,229,96331,6,0,L|59:137,1,72,6|8,0:0|0:0,0:0:0:0:
88,52,96658,1,8,0:0:0:0:
88,52,96740,2,0,B|135:55|135:55|180:52,1,72,8|8,0:0|0:0,0:0:0:0:
194,37,96986,2,0,B|260:35|260:35|301:37,1,108,8|8,0:0|0:0,0:0:0:0:
334,58,97313,2,0,L|377:44,2,36,8|8|0,0:0|0:0|0:0,0:0:0:0:
279,152,97641,6,0,L|305:184,2,36,8|8|0,0:0|0:0|0:0,0:0:0:0:
399,215,97968,2,0,L|397:175,2,36,8|8|0,0:0|0:0|0:0,0:0:0:0:
330,294,98295,2,0,L|355:319,2,36,4|4|0,0:0|0:0|0:0,0:0:0:0:
225,318,98623,2,0,P|187:340|101:309,1,108,8|0,0:0|0:0,0:0:0:0:
117,302,98950,6,0,B|123:256|113:222|77:192|77:192|46:242,1,161.999995056153,6|2,0:0|0:0,0:0:0:0:
34,328,99431,1,2,0:0:0:0:
170,171,99591,1,8,0:0:0:0:
180,184,99912,6,0,P|178:137|196:99,1,80.9999975280763,2|0,0:0|0:0,0:0:0:0:
276,221,100233,2,0,L|112:223,1,161.999995056153,6|2,0:0|0:0,0:0:0:0:
109,238,100875,2,0,P|92:195|61:170,1,80.9999975280763,8|2,0:0|0:0,0:0:0:0:
76,337,101195,1,8,0:0:0:0:
89,321,101516,5,2,0:0:0:0:
191,378,101677,1,2,0:0:0:0:
276,221,101837,2,0,P|319:208|363:208,1,90,8|0,0:0|0:0,0:0:0:0:
100,330,102158,5,2,0:0:0:0:
213,358,102318,1,2,0:0:0:0:
263,191,102479,2,0,P|301:167|344:156,1,90,8|0,0:0|0:0,0:0:0:0:
111,339,102800,5,2,0:0:0:0:
227,337,102960,1,2,0:0:0:0:
241,163,103121,2,0,P|271:130|310:108,1,90,8|0,0:0|0:0,0:0:0:0:
477,191,103441,5,2,0:0:0:0:
408,95,103602,1,2,0:0:0:0:
277,238,103762,2,0,P|235:243|183:226,1,90,12|0,0:0|0:0,0:0:0:0:
68,78,104083,5,2,0:0:0:0:
52,194,104244,1,2,0:0:0:0:
206,85,104404,2,0,P|248:80|300:97,1,90,8|0,0:0|0:0,0:0:0:0:
64,94,104725,5,2,0:0:0:0:
78,210,104885,1,2,0:0:0:0:
199,65,105046,2,0,P|238:49|292:52,1,90,8|0,0:0|0:0,0:0:0:0:
61,112,105367,5,2,0:0:0:0:
104,220,105527,1,2,0:0:0:0:
183,49,105687,2,0,P|216:23|270:12,1,90,8|0,0:0|0:0,0:0:0:0:
383,54,106008,5,2,0:0:0:0:
426,194,106169,1,8,0:0:0:0:
426,234,106249,1,8,0:0:0:0:
402,266,106329,1,8,0:0:0:0:
364,273,106409,1,8,0:0:0:0:
329,253,106490,1,8,0:0:0:0:
320,214,106570,1,8,0:0:0:0:
338,178,106650,6,0,P|328:134|300:100,1,90,6|2,0:0|0:0,0:0:0:0:
158,140,106971,1,8,0:0:0:0:
187,252,107131,1,0,0:0:0:0:
351,144,107292,6,0,P|329:104|294:78,1,90,2|2,0:0|0:0,0:0:0:0:
167,153,107613,1,8,0:0:0:0:
224,254,107773,1,0,0:0:0:0:
352,108,107933,6,0,P|321:74|280:59,1,90,2|2,0:0|0:0,0:0:0:0:
176,164,108254,1,8,0:0:0:0:
257,247,108414,1,0,0:0:0:0:
348,78,108575,5,2,0:0:0:0:
372,257,108736,1,2,0:0:0:0:
371,257,108896,2,0,P|326:265|282:259,1,90,8|0,0:0|0:0,0:0:0:0:
167,209,109217,6,0,P|122:203|78:211,1,90,2|2,0:0|0:0,0:0:0:0:
103,384,109538,1,12,0:0:0:0:
209,335,109698,1,0,0:0:0:0:
128,195,109859,6,0,P|82:200|42:219,1,90,2|2,0:0|0:0,0:0:0:0:
111,380,110179,1,8,0:0:0:0:
201,305,110340,1,0,0:0:0:0:
87,193,110500,6,0,P|45:210|10:239,1,90,2|2,0:0|0:0,0:0:0:0:
118,376,110821,1,8,0:0:0:0:
185,280,110982,1,0,0:0:0:0:
328,365,111142,6,0,P|372:367|413:349,1,90,2|2,0:0|0:0,0:0:0:0:
490,236,111463,1,8,0:0:0:0:
490,236,111623,1,0,0:0:0:0:
357,294,111784,5,2,0:0:0:0:
494,334,111944,1,2,0:0:0:0:
453,160,112105,2,0,P|427:123|387:103,1,90,12|0,0:0|0:0,0:0:0:0:
344,323,112425,5,2,0:0:0:0:
486,326,112586,1,2,0:0:0:0:
402,168,112746,2,0,P|368:139|324:129,1,90,8|0,0:0|0:0,0:0:0:0:
342,353,113067,5,2,0:0:0:0:
479,319,113228,1,2,0:0:0:0:
357,188,113388,2,0,P|316:168|272:171,1,90,8|0,0:0|0:0,0:0:0:0:
175,237,113709,5,2,0:0:0:0:
89,157,113869,1,2,0:0:0:0:
27,315,114030,2,0,P|70:325|113:315,1,90,8|0,0:0|0:0,0:0:0:0:
166,161,114351,5,2,0:0:0:0:
245,280,114511,1,2,0:0:0:0:
296,134,114671,2,0,L|299:43,1,90,12|0,0:0|0:0,0:0:0:0:
177,172,114992,5,2,0:0:0:0:
260,281,115153,1,2,0:0:0:0:
313,105,115313,2,0,L|316:14,1,90,8|0,0:0|0:0,0:0:0:0:
163,60,115634,5,2,0:0:0:0:
188,183,115794,1,2,0:0:0:0:
321,113,115955,1,8,0:0:0:0:
330,120,116276,5,8,0:0:0:0:
180,73,116436,1,8,0:0:0:0:
193,246,116597,1,8,0:0:0:0:
194,226,116917,6,0,B|166:272|166:272|174:336|232:348,1,161.999995056153,6|2,0:0|0:0,0:0:0:0:
232,348,117559,5,8,0:0:0:0:
311,278,117720,1,2,0:0:0:0:
170,158,117880,1,8,0:3:0:0:
132,261,118040,2,0,P|86:260|46:251,1,80.9999975280763,8|0,0:3|0:0,0:0:0:0:
182,169,118361,5,8,0:3:0:0:
222,336,118522,1,4,0:3:0:0:
305,259,118682,1,4,0:3:0:0:
144,271,118843,2,0,B|91:278|29:257|29:257|92:204,1,161.999995056153,8|4,0:0|0:3,0:0:0:0:
60,219,119484,6,0,P|59:262|66:308,1,90,6|2,0:0|0:0,0:0:0:0:
103,128,119805,1,8,0:0:0:0:
103,128,119966,1,0,0:0:0:0:
177,249,120126,2,0,P|171:293|160:337,1,90,2|2,0:0|0:0,0:0:0:0:
182,95,120447,5,8,0:0:0:0:
182,95,120607,1,0,0:0:0:0:
70,197,120768,2,0,P|67:240|76:286,1,90,2|2,0:0|0:0,0:0:0:0:
116,50,121089,1,8,0:0:0:0:
116,50,121249,1,0,0:0:0:0:
191,227,121409,2,0,P|191:266|174:315,1,90,2|2,0:0|0:0,0:0:0:0:
112,134,121730,1,8,0:0:0:0:
213,233,121891,1,0,0:0:0:0:
311,70,122051,6,0,B|375:50|434:77|434:77|426:89|400:97,1,161.999995056153,6|2,0:0|0:0,0:0:0:0:
299,81,122693,1,8,0:0:0:0:
290,91,123014,2,0,B|283:135|283:135|281:182,1,80.9999975280763,6|0,0:0|0:0,0:0:0:0:
339,324,123335,6,0,B|347:267|347:267|358:209|358:209|361:143,1,161.999995056153,2|2,0:0|0:0,0:0:0:0:
360,163,123976,1,8,0:0:0:0:
270,253,124137,1,2,0:0:0:0:
191,127,124297,2,0,P|180:165|180:206,1,80.9999975280763,8|0,0:0|0:0,0:0:0:0:
265,59,124618,5,6,0:0:0:0:
265,59,124778,1,2,0:0:0:0:
106,119,124939,2,0,P|55:119|17:94,1,90,8|0,0:0|0:0,0:0:0:0:
189,6,125260,1,2,0:0:0:0:
189,6,125420,1,2,0:0:0:0:
111,139,125581,2,0,P|97:188|112:231,1,90,8|0,0:0|0:0,0:0:0:0:
269,152,125901,5,2,0:0:0:0:
269,152,126062,1,2,0:0:0:0:
174,272,126222,2,0,P|137:297|93:303,1,90,8|0,0:0|0:0,0:0:0:0:
189,128,126543,1,2,0:0:0:0:
189,128,126704,1,2,0:0:0:0:
253,302,126864,1,8,0:0:0:0:
361,161,127024,1,0,0:0:0:0:
148,197,127185,6,0,B|108:226|92:304|92:304|126:290|143:274,1,161.999995056153,6|2,0:0|0:0,0:0:0:0:
163,197,127827,1,8,0:0:0:0:
179,194,128147,2,0,L|184:151|189:108,1,80.9999975280763,6|0,0:0|0:0,0:0:0:0:
309,266,128468,6,0,P|306:196|312:87,1,161.999995056153,2|6,0:0|0:0,0:0:0:0:
310,104,129110,1,8,0:0:0:0:
386,208,129270,1,2,0:0:0:0:
228,274,129431,2,0,P|188:275|118:270,1,80.9999975280763,8|0,0:0|0:0,0:0:0:0:
41,190,129752,5,6,0:0:0:0:
41,190,129914,1,2,0:0:0:0:
184,105,130076,2,0,P|193:150|193:195,1,90,8|0,0:0|0:0,0:0:0:0:
56,172,130400,1,2,0:0:0:0:
56,172,130562,1,2,0:0:0:0:
216,128,130724,2,0,P|212:172|201:216,1,90,8|2,0:0|0:0,0:0:0:0:
115,44,131049,5,12,0:0:0:0:
274,56,131211,1,8,0:3:0:0:
130,185,131373,1,8,0:0:0:0:
196,22,131535,1,8,0:0:0:0:
316,155,131697,1,8,0:0:0:0:
172,104,131860,1,8,0:0:0:0:
349,23,132022,1,8,0:0:0:0:
360,254,132184,1,8,0:0:0:0:
130,185,132346,5,6,0:0:0:0:
256,192,132428,12,0,134997,2:0:0:0:
343,103,137649,5,12,0:0:0:0:
204,211,137812,1,2,0:0:0:0:
238,99,137976,2,0,P|233:54|212:14,1,90,2|2,0:0|0:0,0:0:0:0:
12,123,138304,5,8,0:0:0:0:
119,263,138468,1,2,0:0:0:0:
115,146,138632,2,0,P|130:104|161:71,1,90,2|2,0:0|0:0,0:0:0:0:
324,232,138960,5,8,0:0:0:0:
184,339,139124,1,2,0:0:0:0:
218,227,139288,2,0,P|213:182|192:142,1,90,2|2,0:0|0:0,0:0:0:0:
92,348,139616,5,8,0:0:0:0:
143,204,139780,1,2,0:0:0:0:
261,362,139944,2,0,P|305:364|350:361,1,90,8|0,0:0|0:0,0:0:0:0:
512,274,140271,6,0,B|459:270|459:270|431:272|405:280|405:280|332:274,1,161.999995056153,6|0,0:0|0:0,0:0:0:0:
274,202,140763,1,2,0:0:0:0:
370,98,140927,2,0,L|374:181,1,80.9999975280763,8|0,0:0|0:0,0:0:0:0:
261,296,141255,2,0,L|264:215,1,80.9999975280763
177,64,141583,6,0,P|138:51|98:49,1,80.9999975280763,2|0,0:0|0:0,0:0:0:0:
30,186,141911,1,0,0:0:0:0:
116,126,142075,1,2,0:0:0:0:
199,241,142239,2,0,B|235:243|235:243|304:235,1,80.9999975280763,8|0,0:0|0:0,0:0:0:0:
381,184,142567,2,0,P|436:167|486:209,1,121.499996292114,2|0,0:0|0:0,0:0:0:0:
500,221,142894,6,0,B|458:263|403:272|403:272|342:258,1,161.999995056153,6|0,0:0|0:0,0:0:0:0:
287,178,143386,1,2,0:0:0:0:
214,283,143550,2,0,L|209:363,1,80.9999975280763,8|0,0:0|0:0,0:0:0:0:
128,194,143878,2,0,L|123:104,1,80.9999975280763
47,225,144206,6,0,P|103:278|180:263,1,161.999995056153,2|0,0:0|0:0,0:0:0:0:
229,169,144698,1,2,0:0:0:0:
312,282,144862,2,0,B|347:281|347:281|404:275,1,80.9999975280763,8|0,0:0|0:0,0:0:0:0:
241,161,145189,2,0,B|196:155|196:155|160:155,1,80.9999975280763,2|0,0:0|0:0,0:0:0:0:
36,233,145517,5,12,0:0:0:0:
104,107,145681,1,2,0:0:0:0:
186,234,145845,1,2,0:0:0:0:
264,75,146009,1,2,0:0:0:0:
389,218,146173,2,0,B|433:216|433:216|482:209,1,90,8|2,0:0|0:0,0:0:0:0:
271,82,146501,5,2,0:0:0:0:
271,82,146665,1,2,0:0:0:0:
399,202,146829,2,0,B|443:200|443:200|492:193,1,90,8|2,0:0|0:0,0:0:0:0:
278,88,147157,5,2,0:0:0:0:
272,219,147321,1,2,0:0:0:0:
352,134,147485,1,8,0:0:0:0:
315,295,147649,1,2,0:0:0:0:
225,153,147812,1,8,0:0:0:0:
157,295,147976,1,0,0:0:0:0:
56,143,148140,6,0,L|58:53,1,90,6|0,0:0|0:0,0:0:0:0:
210,153,148468,1,0,0:0:0:0:
155,285,148632,1,8,0:0:0:0:
73,127,148796,6,0,L|75:37,1,90,0|2,0:0|0:0,0:0:0:0:
197,155,149124,1,8,0:0:0:0:
305,18,149288,1,2,0:0:0:0:
448,169,149452,6,0,P|406:181|361:177,1,90,8|2,0:0|0:0,0:0:0:0:
223,73,149780,1,2,0:0:0:0:
375,103,149944,1,8,0:0:0:0:
256,248,150108,1,2,0:0:0:0:
215,58,150271,1,2,0:0:0:0:
395,95,150435,2,0,B|438:135|439:183|439:183|392:203,1,135,8|0,0:0|0:0,0:0:0:0:
398,227,150763,6,0,B|360:196|360:196|320:175,1,90,6|2,0:0|0:0,0:0:0:0:
182,192,151091,2,0,B|138:187|138:187|86:171,1,90,8|0,0:0|0:0,0:0:0:0:
243,126,151419,1,2,0:0:0:0:
256,248,151583,1,2,0:0:0:0:
163,108,151747,2,0,B|158:66|158:66|160:5,1,90,8|0,0:0|0:0,0:0:0:0:
326,108,152075,5,2,0:0:0:0:
263,238,152239,1,2,0:0:0:0:
104,173,152403,2,0,B|88:133|88:133|74:74,1,90,8|0,0:0|0:0,0:0:0:0:
269,51,152730,1,2,0:0:0:0:
268,230,152894,1,2,0:0:0:0:
446,80,153058,2,0,B|497:118|492:169|492:169|468:162|458:131,1,135,8|0,0:0|0:0,0:0:0:0:
432,77,153386,6,0,P|391:69|332:75,1,90,6|2,0:0|0:0,0:0:0:0:
277,224,153714,2,0,P|321:227|365:219,1,90,8|0,0:0|0:0,0:0:0:0:
193,169,154042,1,2,0:0:0:0:
250,316,154206,1,2,0:0:0:0:
325,152,154370,2,0,P|334:97|322:48,1,90,8|0,0:0|0:0,0:0:0:0:
119,143,154698,5,2,0:0:0:0:
241,300,154862,1,2,0:0:0:0:
373,226,155026,2,0,P|408:182|422:134,1,90,8|0,0:0|0:0,0:0:0:0:
215,91,155353,1,2,0:0:0:0:
234,289,155517,1,2,0:0:0:0:
73,211,155681,2,0,B|28:178|28:129|28:129|34:111|63:89,1,135,8|0,0:0|0:0,0:0:0:0:
79,97,156009,6,0,P|129:75|156:28,1,90,6|2,0:0|0:0,0:0:0:0:
293,53,156337,2,0,P|337:49|377:67,1,90,8|0,0:0|0:0,0:0:0:0:
397,232,156665,1,2,0:0:0:0:
322,126,156829,1,2,0:0:0:0:
226,275,156993,2,0,P|181:280|139:266,1,90,8|0,0:0|0:0,0:0:0:0:
329,135,157321,5,2,0:0:0:0:
340,296,157485,1,2,0:0:0:0:
186,197,157648,2,0,P|168:155|171:111,1,90,8|0,0:0|0:0,0:0:0:0:
336,144,157976,1,2,0:0:0:0:
243,282,158140,1,2,0:0:0:0:
419,342,158304,2,0,B|459:338|499:297|499:297|483:286|457:283,1,135,8|0,0:0|0:0,0:0:0:0:
401,337,158632,6,0,P|356:338|311:335,1,90,6|0,0:0|0:0,0:0:0:0:
271,202,158960,1,0,0:0:0:0:
271,202,159124,1,8,0:0:0:0:
184,340,159288,2,0,P|164:285|178:230,1,90,0|2,0:0|0:0,0:0:0:0:
334,143,159616,2,0,P|354:198|340:253,1,90,8|2,0:0|0:0,0:0:0:0:
203,143,159944,5,8,0:0:0:0:
326,65,160108,1,2,0:0:0:0:
290,281,160271,1,2,0:0:0:0:
129,167,160435,1,8,0:0:0:0:
328,161,160599,5,2,0:0:0:0:
167,319,160763,1,8,0:0:0:0:
131,326,160845,1,8,0:0:0:0:
101,304,160927,1,8,0:0:0:0:
93,268,161009,1,8,0:0:0:0:
115,239,161091,1,8,0:0:0:0:
150,234,161173,1,8,0:0:0:0:
185,239,161255,6,0,P|242:225|274:181,1,90,6|2,0:0|0:0,0:0:0:0:
346,80,161583,2,0,P|380:51|424:44,1,90,8|0,0:0|0:0,0:0:0:0:
411,188,161911,1,2,0:0:0:0:
411,188,162075,1,2,0:0:0:0:
260,120,162239,2,0,P|251:76|265:33,1,90,8|0,0:0|0:0,0:0:0:0:
411,188,162567,5,2,0:0:0:0:
346,80,162730,1,2,0:0:0:0:
205,191,162894,2,0,P|138:194|100:175,1,90,8|0,0:0|0:0,0:0:0:0:
265,33,163222,1,2,0:0:0:0:
336,202,163386,1,2,0:0:0:0:
164,122,163550,2,0,P|114:76|101:36,1,90,8|0,0:0|0:0,0:0:0:0:
265,33,163878,5,6,0:0:0:0:
261,176,164042,1,2,0:0:0:0:
433,135,164206,1,8,0:0:0:0:
382,291,164370,1,8,0:0:0:0:
246,164,164534,2,0,P|191:155|140:173,1,90,2|2,0:0|0:0,0:0:0:0:
35,260,164862,2,0,B|88:294|128:279|128:279|123:257|102:237,1,135,8|0,0:0|0:0,0:0:0:0:
34,237,165189,5,2,0:0:0:0:
112,363,165353,1,2,0:0:0:0:
240,237,165517,2,0,P|296:217|335:225,1,90,8|0,0:0|0:0,0:0:0:0:
210,335,165845,1,2,0:0:0:0:
153,189,166009,1,2,0:0:0:0:
272,52,166173,2,0,P|283:95|282:140,1,90,8|0,0:0|0:0,0:0:0:0:
168,269,166501,5,12,0:0:0:0:
211,108,166665,1,2,0:0:0:0:
360,209,166829,1,2,0:0:0:0:
360,209,166993,1,2,0:0:0:0:
188,280,167157,5,8,0:0:0:0:
226,123,167321,1,2,0:0:0:0:
335,290,167485,1,2,0:0:0:0:
335,290,167648,1,2,0:0:0:0:
144,177,167812,6,0,P|95:179|37:204,1,90,8|2,0:0|0:0,0:0:0:0:
205,290,168140,1,2,0:0:0:0:
238,137,168304,1,2,0:0:0:0:
398,240,168468,2,0,P|412:282|406:326,1,90,8|2,0:0|0:0,0:0:0:0:
332,152,168796,2,0,P|325:107|340:65,1,90,8|2,0:0|0:0,0:0:0:0:
495,223,169124,5,6,0:0:0:0:
475,239,170464,5,6,0:0:0:0:
446,238,171843,5,6,0:0:0:0:
256,192,171929,12,0,177360,0:0:0:0:
