osu file format v5

[General]
AudioFilename: Rise Against - Re-Education (Through Labor).mp3
AudioLeadIn: 0
PreviewTime: -1
Countdown: 1
SampleSet: Normal
StackLeniency: 0.7
Mode: 0
LetterboxInBreaks: 1
EditorBookmarks: 10676

[Metadata]
Title:Re-Education (Through Labor)
Artist:Rise Against
Creator:Tri-Edge
Version:Normal
Source:Guitar Hero World Tour
Tags:Punk Guitar Hero World Tour

[Difficulty]
HPDrainRate:5
CircleSize:4
OverallDifficulty:5
SliderMultiplier:1.4
SliderTickRate:1

[Events]
//Background and Video events
//Break Periods
2,79071,80983
2,136730,165793
//Storyboard Layer 0 (Background)
//Storyboard Layer 1 (Failing)
//Storyboard Layer 2 (Passing)
//Storyboard Layer 3 (Foreground)
//Storyboard Sound Samples
//Background Colour Transformations
3,100,163,162,255

[TimingPoints]
13538,415.651536494145,4,1,0,100,1
27335,418.790829592301,4,1,0,100,1
40316,410.708469455785,4,1,0,100,1
53492,404.412668463612,4,1,0,100,1
66430,401.343388229853,4,1,0,100,1
79273,415.8471680275,4,1,0,100,1
102554,414.176548287168,4,1,0,100,1
109180,405.241118465487,4,1,0,100,1
122134,399.910914,4,1,0,100,1
138133,393.959290873276,4,1,0,100,1
154285,389.180113436102,4,1,0,100,1
160511,405.830165880361,4,1,0,100,1
166796,395.677936554275,4,1,0,100,1
179457,393.097908103021,4,1,0,100,1
192036,394.619880177652,4,1,0,100,1

[HitObjects]
64,64,13538,1,0
64,160,13953,1,0
128,160,14161,1,0
64,256,14577,1,0
64,256,14784,1,0
64,256,14992,1,0
128,256,15200,1,0
128,160,15616,1,0
192,160,15824,1,0
288,160,16239,1,0
288,160,16447,1,0
288,160,16655,1,0
288,224,16863,1,0
160,224,17278,1,0
160,288,17486,1,0
256,288,17902,1,0
256,288,18110,1,0
256,288,18317,1,0
320,288,18525,1,0
320,160,18941,1,0
384,160,19149,1,0
480,160,19564,1,0
480,160,19772,1,8
480,32,20188,1,0
368,32,20604,1,0
312,32,20811,1,0
200,32,21227,1,0
200,88,21435,1,0
200,144,21643,1,0
256,144,21851,1,0
144,144,22266,1,0
144,144,22474,1,0
144,256,22890,1,0
200,256,23097,1,0
256,256,23305,1,0
312,256,23513,1,0
312,144,23929,1,0
368,144,24137,1,0
256,144,24552,1,0
200,144,24760,1,0
200,200,24968,1,0
256,200,25176,1,0
256,88,25591,1,0
256,88,25799,1,0
144,80,26215,1,0
88,80,26423,1,0
144,80,26631,1,0
88,80,26838,1,8
80,192,27254,1,0
80,192,27439,1,0
80,192,27649,1,0
216,192,28172,1,0
216,192,28381,1,0
216,248,28591,1,0
328,248,29010,1,0
328,136,29428,1,0
328,192,29638,1,0
328,248,29847,1,0
328,304,30057,1,8
328,360,30266,1,0
216,360,30685,1,0
216,304,30894,1,0
216,192,31313,1,0
216,248,31522,1,0
216,192,31732,1,0
216,24,32360,1,0
272,24,32569,1,0
160,24,32988,1,0
160,24,33198,1,0
160,24,33407,1,0
160,80,33616,1,8
160,192,34035,1,0
160,248,34245,1,0
216,248,34454,1,0
272,248,34663,1,0
328,248,34873,1,0
384,248,35082,1,0
440,248,35292,1,0
440,136,35710,1,0
440,24,36129,1,0
440,80,36339,1,0
440,24,36548,1,0
440,80,36757,1,0
440,24,36967,1,0
328,24,37385,1,0
272,24,37595,1,0
160,24,38014,1,0
160,80,38223,1,0
160,24,38432,1,0
160,80,38642,1,0
48,80,39061,1,0
104,80,39270,1,0
216,80,39689,1,0
216,136,39898,1,0
216,192,40108,1,0
272,192,40317,1,8
368,192,40726,1,0
368,80,41137,1,0
256,80,41548,1,0
144,80,41958,1,0
144,192,42369,1,0
144,192,42574,1,0
144,304,42985,1,0
312,304,43601,1,0
200,304,44012,1,0
312,304,44423,1,0
200,304,44833,1,0
200,248,45039,1,0
200,192,45244,1,0
200,304,45655,1,0
200,304,45860,1,0
312,304,46271,1,0
472,200,47298,1,0
360,200,47708,1,0
248,200,48119,1,0
136,200,48530,1,0
136,200,48735,1,0
136,312,49146,1,0
136,200,49556,1,0
128,32,50583,1,0
248,32,50994,1,0
248,144,51405,1,0
248,144,51610,1,0
360,144,52021,1,0
248,144,52431,1,0
256,256,52842,1,0
144,256,53253,1,0
144,80,53896,1,0
144,80,54300,1,0
368,80,55109,1,0
368,80,55311,1,0
368,192,55716,1,0
200,192,56322,1,0
200,192,56525,1,0
200,360,57131,1,0
312,360,57536,1,0
456,360,58344,1,0
456,360,58547,1,0
456,248,58951,1,0
456,80,59558,1,0
456,80,59760,1,0
288,80,60367,1,0
176,80,60771,1,0
160,304,61580,1,0
160,304,61782,1,0
48,304,62186,1,0
32,352,62793,1,0
32,352,62995,2,0,B|32:160|128:32|128:32|192:0|288:32|320:32|448:160|448:352|160:352,1,980
168,128,66630,1,0
168,128,66831,1,0
168,240,67232,1,0
392,240,68035,1,0
280,240,68436,1,0
280,240,68637,1,0
168,240,69038,1,0
168,128,69440,1,0
168,296,70042,1,0
168,184,70443,1,0
168,72,70844,1,0
280,72,71246,1,0
280,184,71647,1,0
280,184,71848,1,0
168,184,72249,1,0
168,296,72650,1,0
336,296,73252,1,0
336,184,73654,1,0
488,24,74456,1,0
480,136,74858,1,0
488,136,75058,1,0
480,248,75460,1,0
480,352,75861,2,0,B|480:160|384:32|384:32|320:0|224:32|192:32|64:160|64:352|352:352,1,980
344,296,78871,1,0
56,48,82183,5,0
168,48,82599,1,0
168,160,83015,1,0
168,160,83223,1,0
168,272,83639,1,0
224,272,83847,1,0
168,272,84055,1,0
224,272,84263,1,0
336,272,84679,1,0
392,272,84886,1,0
392,160,85302,1,0
392,104,85510,1,0
392,160,85718,1,0
392,104,85926,1,0
280,96,86342,1,0
224,96,86550,1,0
224,208,86966,1,0
216,264,87174,1,0
224,208,87382,1,0
216,264,87589,1,0
224,208,87797,1,0
280,216,88005,1,0
224,208,88213,1,0
280,216,88421,1,0
224,208,88629,1,0
224,152,88837,1,0
224,208,89045,1,0
224,152,89253,1,0
216,40,89669,1,0
272,40,89877,1,0
328,40,90085,1,0
384,40,90292,1,0
440,40,90500,1,0
440,96,90708,1,0
440,40,90916,1,0
328,40,91332,1,0
336,152,91748,1,0
336,208,91956,1,0
336,264,92164,1,0
336,320,92372,1,0
288,288,92580,1,0
176,288,92995,1,0
176,288,93203,1,0
176,176,93619,1,0
176,120,93827,1,0
176,64,94035,1,0
232,64,94243,1,0
240,176,94659,1,0
240,232,94867,1,0
352,232,95283,1,0
352,176,95491,1,0
352,120,95698,1,0
296,120,95906,1,8
256,224,96322,1,0
256,224,96530,1,0
256,224,96738,1,0
256,224,97154,1,0
256,224,97362,1,0
256,224,97570,1,0
256,224,97986,1,0
256,224,98401,1,0
256,224,98609,1,0
256,224,98817,1,0
256,224,99025,1,0
256,224,99649,1,0
256,224,99857,1,0
256,224,100273,1,0
256,224,100481,1,0
256,224,100689,1,0
256,224,100897,1,0
256,224,101312,1,0
256,224,101520,1,0
256,224,101936,1,0
256,224,102144,1,0
256,224,102352,1,0
256,224,102554,1,8
256,224,102968,1,0
256,224,103382,1,0
256,224,103796,1,0
256,224,104210,1,0
256,224,104624,1,0
256,224,104831,1,0
256,224,105246,1,0
256,224,106281,1,0
256,224,106695,1,0
256,224,107109,1,0
256,224,107317,1,0
256,224,107731,1,0
256,224,108145,1,0
256,224,108559,1,0
256,224,108973,1,0
256,224,109585,1,0
256,224,109990,1,0
256,224,110800,1,0
256,224,111003,1,0
256,224,111408,1,0
256,224,112016,1,0
256,224,112219,1,0
256,224,112827,1,0
256,224,113232,1,0
256,224,114042,1,0
256,224,114245,1,0
256,224,114650,1,0
256,224,115258,1,0
256,224,115461,1,0
256,224,116069,1,0
256,224,116474,1,0
256,224,117284,1,0
256,224,117487,1,0
256,224,117892,1,0
256,224,118500,1,0
480,32,118703,2,0,B|480:224|384:352|384:352|320:384|224:352|192:352|64:224|64:32|352:32,1,980
256,192,122333,1,0
256,192,122533,1,0
256,192,122933,1,0
256,192,123733,1,0
256,192,124133,1,0
256,192,124333,1,0
256,192,124733,1,0
256,192,125133,1,0
256,192,125733,1,0
256,192,126133,1,0
256,192,126533,1,0
256,192,126932,1,0
256,192,127332,1,0
256,192,127532,1,0
256,192,127932,1,0
256,192,128332,1,0
256,192,128932,1,0
256,192,129332,1,0
256,192,130132,1,0
256,192,130332,1,0
256,192,130732,1,0
256,192,131131,1,0
32,352,131731,2,0,B|480:352,1,420
256,192,133331,1,0
256,192,133731,1,0
256,192,134531,1,0
256,192,134931,1,0
256,192,136130,1,0
256,192,136530,1,0
256,192,166993,5,0
256,192,167191,1,0
256,192,167587,1,0
256,192,168378,1,0
256,192,168576,1,0
256,192,168972,1,0
256,192,169565,1,0
256,192,169763,1,0
256,192,170159,1,0
256,192,170357,1,0
256,192,170752,1,0
256,192,171148,1,0
256,192,171346,1,0
256,192,171741,1,0
256,192,172137,1,0
256,192,172731,1,0
256,192,172929,1,0
256,192,173324,1,0
256,192,173522,1,0
256,192,173918,1,0
256,192,174709,1,0
256,192,174907,1,0
256,192,175303,1,0
256,192,175698,1,0
32,32,176094,2,0,B|32:224|128:352|128:352|192:384|288:352|320:352|448:224|448:32|160:32,1,980
256,192,179653,1,0
256,192,179850,1,0
256,192,180243,1,0
256,192,180832,1,0
256,192,181029,1,0
256,192,181422,1,0
256,192,181619,1,0
256,192,182012,1,0
256,192,182405,1,0
256,192,182994,1,0
256,192,183387,1,0
256,192,183781,1,0
256,192,183977,1,0
256,192,184370,1,0
256,192,184763,1,0
256,192,185156,1,0
256,192,185550,1,0
256,192,186139,1,0
256,192,186532,1,0
256,192,187712,1,0
256,192,188105,1,0
256,192,189284,1,0
256,192,189677,1,0
256,192,190856,1,0
256,192,191249,1,0
256,192,191643,1,0
256,192,191839,1,0
256,192,192430,1,0
256,192,192825,1,0
256,192,193614,1,0
256,192,194009,1,0
256,192,194206,1,0
256,192,194601,1,0
256,192,194995,1,0
256,192,195587,1,0
256,192,195982,1,0
256,192,196376,1,0
256,192,196771,1,0
256,192,196968,1,0
256,192,197363,1,0
256,192,197757,1,0
256,192,198152,1,0
256,192,198744,1,0
256,192,199139,1,0
224,192,199928,1,0
224,192,200323,1,0
224,192,200520,1,0
224,192,200914,1,0
32,352,201309,2,0,B|32:160|128:32|128:32|192:0|288:32|320:32|448:160|448:352|160:352,1,980
224,192,205058,1,0
224,192,205453,1,0
224,192,205847,1,0
224,192,206242,1,0
224,192,206636,1,0
224,192,206834,1,0
224,192,207228,1,0
224,192,207623,1,0
224,192,208215,1,0
224,192,208610,1,0
224,192,209004,1,0
224,192,209201,1,0
224,192,209596,1,0
224,192,209991,1,0
224,192,210385,1,0
224,192,210780,1,0
224,192,211372,1,0
224,192,211766,1,0
224,192,212950,1,0
224,192,213345,1,0
224,192,214529,1,0
224,192,214923,1,0
224,192,216107,1,0
224,192,216502,1,0
224,192,216897,1,0
256,192,217094,12,0,218475
