osu file format v7

[General]
AudioFilename: Rise Against - Prayer of the Refugee.mp3
AudioLeadIn: 0
PreviewTime: 83725
Countdown: 1
SampleSet: Normal
StackLeniency: 0.7
Mode: 0
LetterboxInBreaks: 0

[Editor]
Bookmarks: 7280,31060,59700,83846,115070,136193,154436,174027
DistanceSpacing: 0.800000011920929
BeatDivisor: 4
GridSize: 8

[Metadata]
Title:Prayer of the Refugee
Artist:Rise Against
Creator:bLaTzK
Version:Normal
Source:
Tags:Guitar Hero Aqua92

[Difficulty]
HPDrainRate:4
CircleSize:4
OverallDifficulty:5
SliderMultiplier:1.1
SliderTickRate:1

[Events]
//Background and Video events
0,0,"199563374_2f926c9049_o.jpg"
//Break Periods
2,26183,29860
2,53530,58497
2,77182,82646
2,104555,113870
2,149556,153236
//Storyboard Layer 0 (Background)
Sprite,Background,Centre,"SB\BGVanish.PNG",320,240 F,0,196833,199863,1 F,0,203107,,1
//Storyboard Layer 1 (Fail)
//Storyboard Layer 2 (Pass)
//Storyboard Layer 3 (Foreground)
Sprite,Foreground,Centre,"SB\Boom1.png",320,240 L,155364,32 S,0,0,306,1.07168,1.21504 S,0,0,612,1.07168 L,155517,32 F,0,0,153,1,0 F,0,0,459,0 F,0,0,612,1 L,174951,16 S,0,0,306,1.07168,1.21504 S,0,0,612,1.07168 L,175104,16 F,0,0,153,1,0 F,0,0,459,0 F,0,0,612,1 L,184744,32 S,0,0,153,1.07168,1.21504 S,0,0,306,1.07168 L,184820,32 F,0,0,76,1,0 F,0,0,228,0 F,0,0,306,1 F,0,155364,155517,0,1 S,0,174948,,1.07168 F,0,175101,,1 F,0,194537,194690,1 S,0,194537,195762,1.07168,1.21504 F,0,194690,195762,1,0 S,0,195762,196833,1.21504,1.07168 S,0,196833,,1.07168 F,0,196833,199863,1,0 S,0,196833,199863,1.07168,0.5356963
Sprite,Foreground,Centre,"SB\quote3-1.png",320,146 F,0,196833,198058,0,1 F,0,203107,,0
Sprite,Foreground,Centre,"SB\quote3-2.png",320,186 F,0,198058,199282,0,1 F,0,203107,,0
Sprite,Foreground,Centre,"SB\quote3-3.png",320,225 F,0,199282,200506,0,1 F,0,203107,,0
Sprite,Foreground,Centre,"SB\quote-rise.png",470,250 F,0,200506,201730,0,1 F,0,203107,,0
//Storyboard Sound Samples
//Background Colour Transformations
3,100,163,162,255

[TimingPoints]
6882,398.671096345515,4,1,0,70,1,0
19630,397.088021178028,4,1,0,70,1,0
30754,306.122448979592,4,1,0,70,1,0
31978,-100,4,1,0,70,0,1
40549,-100,4,1,0,70,0,0
41774,-100,4,1,0,70,0,1
53340,397.350993377483,4,1,0,70,1,0
83540,306.122448979592,4,1,0,70,1,0
84764,-100,4,1,0,70,0,1
93335,-100,4,1,0,70,0,0
94560,-100,4,1,0,70,0,1
104356,-100,4,1,0,70,0,0
136193,-100,4,1,0,70,0,1
136346,-100,4,1,0,70,0,0
149356,397.851601352695,4,1,0,70,1,0
154130,306.122448979592,4,1,0,70,1,0
155354,-100,4,1,0,70,0,1
163925,-100,4,1,0,70,0,0
165150,-100,4,1,0,70,0,1
174946,-100,4,1,0,70,0,0
192089,-100,4,1,0,70,0,1
194385,-100,4,1,0,70,0,0
194538,-100,4,1,0,0,0,1
196834,-100,4,1,0,70,0,0

[Colours]
Combo1 : 3,7,154
Combo2 : 5,152,38
Combo3 : 187,0,0
Combo4 : 255,227,32

[HitObjects]
256,192,7280,6,0,B|264:232|224:256,2,55,8|0|0
256,104,8078,1,8
320,160,8476,1,0
296,200,8676,2,0,B|296:240|344:240,1,55,0|8
160,192,9672,5,8
160,104,10071,2,0,B|192:128|224:104,1,55
256,192,10669,1,2
256,192,11068,1,2
256,192,11466,1,2
208,192,13460,5,0
256,192,13659,1,8
344,192,14058,1,0
432,192,14456,1,8
432,104,14855,1,0
432,56,15054,1,0
384,56,15254,1,8
256,56,15852,6,0,B|192:56,2,55,0|8|0
256,144,16649,1,0
256,232,17048,1,2
256,320,17446,1,2
256,232,17845,1,2
152,88,18642,5,2
183,119,18842,1,2
245,181,19240,1,8
307,243,19630,1,4
264,243,19828,6,0,B|208:243,1,55,0|8
177,275,20225,2,0,B|121:275,1,55,0|0
91,243,20622,2,0,B|91:179,1,55,0|8
122,157,21019,2,0,B|176:104,1,55
104,48,21615,2,0,B|160:16|224:56,1,110,8|0
224,136,22409,6,0,B|224:192,1,55,8|0
256,272,23005,2,0,B|288:320|312:208|368:288,3,110,0|2|2|2
256,192,24395,12,4,25983
392,192,31060,5,8
304,192,31366,1,0
216,192,31672,1,8
128,192,31978,1,4
256,72,32590,1,2
256,248,33202,5,0
344,248,33509,1,8
344,160,33815,1,0
256,160,34121,2,0,B|208:208,2,55,8|0|0
376,40,35039,1,2
256,160,35651,6,0,B|232:200|288:232|240:288,7,110,0|8|0|8|0|8|2|8
165,274,38100,5,0
103,212,38407,2,0,B|103:156|103:156|167:156,1,110,8|0
157,68,39019,1,8
216,128,39325,6,0,B|264:88|328:136,4,110,2|8|2|8|2
152,192,40856,5,8
240,192,41162,1,0
328,192,41468,1,8
416,192,41774,1,4
288,72,42386,1,2
288,248,42998,5,0
200,248,43305,1,8
200,160,43611,1,0
288,160,43917,2,0,B|336:208,2,55,8|0|0
168,40,44835,1,2
288,168,45447,6,0,B|312:208|256:240|304:296,7,110,0|8|0|8|0|8|2|8
379,274,47896,5,0
441,212,48202,2,0,B|441:156|441:156|377:156,1,110,8|0
387,68,48815,1,8
299,68,49121,5,2
210,68,49427,1,8
273,130,49733,1,2
184,130,50039,1,8
247,192,50345,1,2
309,254,50651,1,8
256,192,50958,12,0,53330
256,192,59697,5,4
168,192,60094,1,8
105,129,60492,1,0
167,67,60889,1,8
255,67,61287,1,0
318,129,61684,1,8
408,280,62479,6,0,B|384:296|352:280,1,55,8|0
267,281,63075,1,0
179,281,63472,1,2
241,219,63869,1,2
179,157,64267,1,2
448,171,66253,6,0,B|416:147|384:171,2,55,0|8|0
448,216,66849,2,0,B|416:240|384:216,2,55,0|0|8
360,192,67644,2,0,B|304:192,1,55,2|2
256,192,68240,12,2,70624
152,88,71419,5,2
183,119,71618,1,2
245,181,72015,1,8
307,243,72412,1,4
304,288,72611,6,0,B|280:320|240:320,4,55,0|8|0|0|0
272,256,73604,2,0,B|208:256,1,55,8|0
240,216,74002,2,0,B|280:144|184:128,2,110,0|8|0
152,192,75194,5,8
104,192,75392,1,0
56,192,75591,1,0
56,280,75989,1,8
104,280,76187,1,2
192,280,76585,1,2
280,280,76982,1,2
120,192,83846,5,8
208,192,84152,1,0
296,192,84458,2,0,B|312:152|384:192,1,96.25,8|4
256,312,85376,1,2
256,136,85988,5,0
168,136,86295,1,8
168,224,86601,1,0
256,224,86907,2,0,B|304:176,2,55,8|0|0
136,344,87825,1,2
256,224,88437,6,0,B|280:184|224:152|272:96,7,110,0|8|0|8|0|8|2|8
347,110,90886,5,0
409,172,91193,2,0,B|409:228|409:228|345:228,1,110,8|0
355,316,91805,1,8
296,256,92111,6,0,B|248:296|184:248,4,110,2|8|2|8|2
360,192,93642,5,8
272,192,93948,1,0
184,192,94254,2,0,B|160:128|88:200,1,110,8|4
224,312,95172,1,2
224,136,95784,5,0
312,136,96091,1,8
312,224,96397,1,0
224,224,96703,2,0,B|176:176,2,55,8|0|0
344,344,97621,1,2
224,224,98233,6,0,B|200:184|256:152|208:96,7,110,0|8|0|8|0|8|2|8
133,110,100682,5,0
71,172,100988,2,0,B|71:228|71:228|135:228,1,110,8|0
128,312,101601,1,8
213,316,101907,5,2
302,316,102213,1,8
240,256,102519,1,2
328,256,102825,1,8
265,193,103131,2,0,B|178:193|178:89|353:169|225:49,2,220,2|8|4
256,192,115070,5,8
168,192,115376,1,2
256,288,115835,1,0
168,192,116295,1,8
104,128,116601,1,2
8,32,117060,1,0
136,32,117519,5,8
224,32,117825,1,2
224,160,118284,1,0
360,160,118744,1,8
448,160,119050,1,2
256,192,119815,12,2,123182
168,192,123948,5,4
256,192,124254,1,8
344,192,124560,1,0
256,192,124866,1,8
168,192,125172,1,0
256,192,125478,1,8
344,192,125784,1,0
256,192,126091,1,8
256,279,126397,5,0
343,279,126703,1,8
432,280,127009,2,0,B|488:280,3,55,0|0|8|0
487,280,127621,1,0
488,192,127927,1,8
400,192,128233,2,0,B|344:192,3,55,0|0|8|0
345,192,128846,5,0
256,192,129152,1,8
176,224,129458,1,0
136,304,129764,1,8
104,224,130070,1,0
24,192,130376,1,8
104,160,130682,1,0
120,120,130835,1,0
136,80,130988,1,8
176,160,131295,6,0,B|232:160,2,55,0|0|8
264,160,131907,1,0
264,160,132213,1,8
352,160,132519,2,0,B|352:216,2,55,0|0|8
352,248,133131,1,0
352,248,133437,1,8
424,192,133744,5,2
384,176,133897,1,2
344,160,134050,1,8
256,160,134356,1,0
168,160,134662,1,8
88,192,134968,1,2
128,208,135121,1,2
168,224,135274,1,8
256,208,135580,1,0
344,192,135886,1,8
344,280,136193,5,4
264,304,136499,1,8
232,272,136652,1,0
201,304,136805,1,0
112,304,137111,2,0,B|80:272|96:248,2,55,8|0|0
176,240,137723,2,0,B|208:208|192:184,2,55,8|0|0
120,176,138335,1,8
168,104,138642,5,4
248,80,138948,1,8
279,111,139101,1,0
310,80,139254,1,0
400,80,139560,2,8,B|432:112|416:136,2,55,8|0|0
336,144,140172,2,0,B|304:176|320:200,2,55,8|0|0
392,208,140784,1,8
315,192,141091,6,0,B|259:152|187:208,3,110,4|8|0|8
144,128,142315,6,0,B|104:88|168:64,4,55,2|0|8|0|2
144,40,143233,1,8
232,40,143540,5,4
294,102,143846,1,8
294,145,143999,2,0,B|214:145,1,55,0|4
176,207,144458,5,8
176,250,144611,2,0,B|256:250,1,55,0|4
293,312,145070,5,8
293,355,145223,2,0,B|237:355,1,55,0|4
256,192,145682,12,4,149356
256,128,154436,5,8
318,190,154742,1,0
256,252,155048,1,8
193,190,155354,1,4
368,192,155966,1,2
256,56,156578,5,0
344,56,156885,1,8
256,56,157191,1,0
344,56,157497,1,8
344,56,157650,1,0
344,56,157803,2,0,B|384:128|384:128|272:168|392:248,1,220,0|2
192,192,159027,5,0
104,192,159334,1,8
166,129,159640,1,0
228,67,159946,1,8
316,67,160252,1,0
316,243,160864,1,2
191,119,161476,6,0,B|135:71|63:135,2,110,0|8|0
192,120,162395,1,8
248,192,162701,5,2
336,192,163007,1,8
424,192,163313,1,2
424,104,163619,1,8
336,104,163925,1,2
256,128,164232,5,8
194,190,164538,1,0
256,252,164844,1,8
319,190,165150,1,4
144,192,165762,1,2
256,56,166374,5,0
168,56,166681,1,8
256,56,166987,1,0
168,56,167293,1,8
168,56,167446,1,0
168,56,167599,2,0,B|128:128|128:128|240:168|120:248,1,220,0|2
320,192,168823,5,0
408,192,169130,1,8
345,129,169436,1,0
283,67,169742,1,8
195,67,170048,1,0
195,243,170660,1,2
320,119,171272,6,0,B|376:71|448:135,2,110,0|8|0
320,120,172191,1,8
232,120,172497,5,2
232,120,172803,1,8
144,120,173109,1,2
144,120,173415,1,8
144,208,173721,1,2
144,296,174027,5,8
144,296,174334,1,0
144,296,174640,1,8
144,296,174946,2,0,B|256:200|344:296|344:296|264:192|344:104|344:104|256:184|136:104|136:104|248:192|56:272|272:184,1,880,0|2
245,194,178007,1,4
368,296,178925,5,8
368,296,179232,1,0
368,296,179538,1,8
368,296,179844,2,0,B|152:296|152:296|64:192|152:88|152:88|368:88|368:88|296:184,1,770,0|8
238,239,182293,2,0,B|342:199|462:239,2,220,2|2|2
256,192,183823,5,8
256,192,184130,1,0
256,192,184436,1,8
256,192,184742,2,0,B|256:248|256:248|320:248|320:248|320:128|320:128|192:128|192:128|192:304|192:304|384:304|384:304|384:152,1,880,4|2
384,336,187803,1,4
256,192,188721,5,8
256,192,189027,1,0
256,192,189334,1,8
256,192,189640,2,0,B|256:248|256:248|192:248|192:248|192:128|192:128|320:128|320:128|320:208,1,440,4|2
336,112,191170,2,0,B|416:80|480:128,2,110,8|2|8
264,168,192089,6,0,B|264:58,1,110,2|8
264,168,192701,2,0,B|374:168,1,110,2|8
264,168,193313,2,0,B|264:280,1,110,2|8
264,168,193925,2,0,B|152:168,1,110,2|8
256,192,194538,12,4,196834
