osu file format v7

[General]
AudioFilename: Rise Against - Prayer of the Refugee.mp3
AudioLeadIn: 0
PreviewTime: 83725
Countdown: 0
SampleSet: Normal
StackLeniency: 0.7
Mode: 0
LetterboxInBreaks: 0

[Editor]
Bookmarks: 6283,31060,59104,83884,104356,123948,154436,174946
DistanceSpacing: 1
BeatDivisor: 4
GridSize: 8

[Metadata]
Title:Prayer of the Refugee
Artist:Rise Against
Creator:bLaTzK
Version:Hard
Source:
Tags:Guitar Hero Aqua92

[Difficulty]
HPDrainRate:6
CircleSize:5
OverallDifficulty:8
SliderMultiplier:1.4
SliderTickRate:2

[Events]
//Background and Video events
0,0,"199563374_2f926c9049_o.jpg"
//Break Periods
2,53540,58351
2,114352,123198
2,149556,153686
//Storyboard Layer 0 (Background)
Sprite,Background,Centre,"SB\BGVanish.PNG",320,240 F,0,196833,199863,1 F,0,203107,,1
//Storyboard Layer 1 (Fail)
//Storyboard Layer 2 (Pass)
//Storyboard Layer 3 (Foreground)
Sprite,Foreground,Centre,"SB\Boom1.png",320,240 L,155364,32 S,0,0,306,1.07168,1.21504 S,0,0,612,1.07168 L,155517,32 F,0,0,153,1,0 F,0,0,459,0 F,0,0,612,1 L,174951,16 S,0,0,306,1.07168,1.21504 S,0,0,612,1.07168 L,175104,16 F,0,0,153,1,0 F,0,0,459,0 F,0,0,612,1 L,184744,32 S,0,0,153,1.07168,1.21504 S,0,0,306,1.07168 L,184820,32 F,0,0,76,1,0 F,0,0,228,0 F,0,0,306,1 F,0,155364,155517,0,1 S,0,174948,,1.07168 F,0,175101,,1 F,0,194537,194690,1 S,0,194537,195762,1.07168,1.21504 F,0,194690,195762,1,0 S,0,195762,196833,1.21504,1.07168 S,0,196833,,1.07168 F,0,196833,199863,1,0 S,0,196833,199863,1.07168,0.5356963
Sprite,Foreground,Centre,"SB\quote3-1.png",320,146 F,0,196833,198058,0,1 F,0,203107,,0
Sprite,Foreground,Centre,"SB\quote3-2.png",320,186 F,0,198058,199282,0,1 F,0,203107,,0
Sprite,Foreground,Centre,"SB\quote3-3.png",320,225 F,0,199282,200506,0,1 F,0,203107,,0
Sprite,Foreground,Centre,"SB\quote-rise.png",470,250 F,0,200506,201730,0,1 F,0,203107,,0
Sprite,Foreground,Centre,"SB\warning-arrow.png",320,240 F,0,111723,,0 R,0,111723,,4.7104 S,0,111726,,0.6108801 F,0,111879,112032,0,1 S,0,112032,112108,0.8464001,0.6108801 S,0,112338,112414,0.8464001,0.6108801 S,0,112642,112718,0.8464001,0.6108801 S,0,112948,113024,0.8464001,0.6108801 S,0,113254,113330,0.8464001,0.6108801 R,0,113407,113866,4.7104,10.99776 M,0,113866,,65,141 M,0,113866,113943,65,141,120,178 M,0,113943,114019,120,178,185,146 M,0,114019,114096,185,146,247,175 M,0,114096,114172,247,175,312,148 M,0,114172,,312,148 F,0,114172,114555,1,0
Sprite,Foreground,Centre,"SB\Speed.PNG",320,240 F,0,111726,,0 S,0,111800,,1 F,0,111879,112032,0,1 S,0,112029,112032,1.2,1.280735 S,0,112032,112106,1.2,1 S,0,112335,112412,1.2,1 M,0,112491,,211,209 S,0,112642,112718,1.2,1 S,0,112948,113024,1.2,1 S,0,113254,113330,1.2,1 S,0,113560,113637,1.2,1 S,0,113868,113944,1.2,1 S,0,114174,114250,1.2,1 F,0,114174,114556,1,0
//Storyboard Sound Samples
//Background Colour Transformations
3,100,163,162,255

[TimingPoints]
6882,398.671096345515,4,1,0,70,1,0
19630,397.088021178028,4,1,0,70,1,0
30754,306.122448979592,4,1,0,70,1,0
31978,-100,4,1,0,70,0,1
40549,-100,4,1,0,70,0,0
41774,-100,4,1,0,70,0,1
53340,397.350993377483,4,1,0,70,1,0
83540,306.122448979592,4,1,0,70,1,0
84764,-100,4,1,0,70,0,1
93335,-100,4,1,0,70,0,0
94560,-100,4,1,0,70,0,1
104356,-100,4,1,0,70,0,0
113846,-50,4,1,0,70,0,1
114152,-100,4,1,0,70,0,0
136193,-100,4,1,0,70,0,1
136346,-100,4,1,0,70,0,0
149356,397.850993377484,4,1,0,70,1,0
154130,306.122448979592,4,1,0,70,1,0
155354,-100,4,1,0,70,0,1
163925,-100,4,1,0,70,0,0
165150,-100,4,1,0,70,0,1
174946,-100,4,1,0,70,0,0
192089,-100,4,1,0,70,0,1
194385,-100,4,1,0,70,0,0
194538,-100,4,1,0,0,0,1
196834,-100,4,1,0,70,0,0

[Colours]
Combo1 : 252,111,16
Combo2 : 5,152,38
Combo3 : 187,0,0
Combo4 : 255,227,32
Combo5 : 3,7,154

[HitObjects]
256,192,6283,5,0
328,192,6483,1,8
400,192,6682,1,0
472,192,6882,1,4
400,72,7280,5,8
328,72,7480,1,0
256,72,7679,1,0
400,72,8078,1,8
400,144,8277,1,0
360,200,8476,1,0
296,224,8676,1,0
225,224,8875,1,8
456,64,9672,5,8
384,64,9872,1,0
320,40,10071,1,0
304,104,10270,2,0,B|376:136|456:128,3,140,0|2|2|2
240,192,12064,6,0,B|312:192,2,70,8|0|0
310,192,12662,2,0,B|350:192|376:144,1,70,0|8
328,96,13061,1,0
303,120,13161,1,0
278,144,13260,1,4
208,144,13460,6,0,B|208:216,1,70,0|8
208,144,13858,2,0,B|136:144,1,70,0|0
208,144,14257,2,0,B|208:72,1,70,0|8
208,144,14656,1,0
208,144,14855,2,0,B|288:144,1,70,0|0
278,73,15254,1,8
448,192,15852,5,0
392,232,16051,1,8
392,160,16250,1,0
256,192,16649,6,0,B|216:232|192:112|136:192,1,140,0|2
256,192,17446,2,0,B|296:232|320:112|376:192,1,140,2|2
96,192,18642,5,2
128,192,18742,1,0
160,192,18842,1,2
232,192,19041,1,0
304,192,19240,1,8
373,192,19440,1,0
440,192,19630,1,4
448,122,19828,5,0
376,124,20027,1,8
376,192,20225,1,0
376,263,20424,1,0
305,263,20622,1,0
305,333,20821,1,8
374,333,21019,1,0
444,333,21218,1,0
444,193,21615,1,8
444,52,22012,1,0
320,128,22409,5,8
248,144,22608,1,0
160,256,23005,1,0
288,200,23402,1,2
200,312,23799,1,2
328,256,24196,1,2
256,256,24395,5,0
157,157,24792,1,8
255,58,25189,1,0
320,88,25387,1,0
384,120,25586,1,8
392,192,25784,1,0
360,192,25884,1,0
328,192,25983,1,4
256,192,26181,5,0
206,142,26380,1,8
256,192,26579,1,0
305,241,26777,1,0
256,192,26976,2,0,B|240:240|264:272,2,70,0|8|0
305,142,27571,1,2
206,241,27968,1,2
400,192,28564,5,0
328,192,28763,1,8
256,192,28961,1,0
112,192,29358,1,0
256,192,29755,1,2
400,192,30152,1,2
256,192,30549,1,2
426,362,31060,5,8
327,263,31366,1,0
228,164,31672,1,8
129,65,31978,2,0,B|272:64,1,140,0|8
408,64,32590,2,0,B|272:136,1,140,2|8
128,192,33202,5,0
288,192,33509,1,8
448,192,33815,1,0
360,304,34121,1,8
288,304,34274,1,0
215,301,34427,2,0,B|121:183,1,140,0|8
48,80,35039,2,0,B|208:80,1,140,2|8
327,80,35651,5,0
463,80,35958,1,8
327,80,36264,1,0
184,80,36570,1,8
48,80,36876,2,0,B|48:224,1,140,0|8
48,360,37488,2,0,B|192:312,1,140,2|8
320,315,38100,5,0
256,192,38407,2,0,B|296:168|296:168|320:232|376:192,1,140,8|0
512,192,39019,1,8
392,192,39325,5,2
256,192,39631,1,8
120,192,39937,1,2
256,192,40243,1,8
256,48,40549,1,2
120,56,40856,5,8
219,155,41162,1,0
318,254,41468,1,8
417,353,41774,2,0,B|274:354,1,140,0|8
138,354,42386,2,0,B|274:282,1,140,2|8
418,226,42998,5,0
258,226,43305,1,8
98,226,43611,1,0
186,114,43917,1,8
258,114,44070,1,0
331,117,44223,2,0,B|425:235,1,140,0|8
498,338,44835,2,0,B|338:338,1,140,2|8
219,338,45447,5,0
83,338,45753,1,8
219,338,46060,1,0
362,338,46366,1,8
498,338,46672,2,0,B|498:194,1,140,0|8
498,58,47284,2,0,B|354:106,1,140,2|8
232,152,47896,6,0,B|168:104|232:16,1,140,0|8
364,27,48509,2,0,B|428:75|364:163,1,140,0|8
372,290,49121,6,0,B|292:290,1,70,2|0
232,290,49427,1,8
330,191,49733,2,0,B|250:191,1,70,2|0
190,191,50039,1,8
292,93,50345,1,2
222,93,50498,1,0
152,93,50651,1,8
256,192,50958,12,0,53340
296,128,59101,5,0
224,128,59300,1,8
256,256,59697,1,4
256,328,59896,5,0
192,304,60094,1,8
160,240,60293,1,0
168,168,60492,1,0
232,136,60690,1,0
296,168,60889,1,8
312,240,61088,1,0
352,296,61287,2,0,B|248:288|224:216,1,140,0|8
512,192,62479,5,8
440,192,62677,1,0
304,192,63075,1,0
160,192,63472,1,2
256,296,63869,1,2
352,192,64267,2,0,B|288:128,1,70,2|0
200,48,64863,5,8
56,48,65260,1,0
56,120,65459,1,0
104,176,65657,1,8
160,224,65856,1,0
184,200,65955,1,0
208,176,66055,1,4
256,120,66253,5,0
256,192,66452,1,8
256,264,66651,1,0
312,224,66849,1,0
312,160,67048,1,0
256,120,67247,1,8
256,264,67644,1,2
200,224,67843,1,2
64,192,68240,5,0
88,128,68439,1,8
152,104,68638,1,0
152,244,69035,1,0
248,144,69432,1,0
344,48,69830,1,2
344,192,70227,1,2
200,192,70624,2,0,B|256:304|256:40|355:208,1,210,2|8
416,192,71419,5,2
448,128,71618,1,2
344,224,72015,1,8
296,168,72214,1,0
256,112,72412,1,4
328,112,72611,5,0
368,168,72810,1,8
320,224,73008,1,0
248,224,73207,1,0
192,176,73406,1,0
120,168,73604,1,8
152,232,73803,1,0
104,280,74002,2,0,B|32:232,1,70,2|0
40,168,74399,2,0,B|80:96,1,70,8|0
136,80,74796,1,2
224,192,75194,5,8
296,192,75392,1,0
336,136,75591,1,0
464,192,75989,1,8
408,240,76187,2,0,B|480:192|408:112,2,140,0|2|2
360,192,77181,6,0,B|352:232|288:192,1,70
256,152,77578,2,0,B|232:104|200:160,1,70,8|0
160,192,77975,2,0,B|160:112,2,70,0|0|8
160,264,78571,2,0,B|208:264,2,35,0|0|4
24,264,79167,5,8
73,214,79366,1,0
122,164,79565,1,0
72,114,79763,1,0
22,64,79962,1,8
22,133,80161,1,0
22,202,80359,1,0
120,300,80757,1,8
120,369,80955,1,0
256,328,81353,5,0
384,280,81750,1,0
424,144,82147,1,0
344,32,82545,1,0
208,56,82942,1,0
176,120,83141,1,0
160,192,83340,1,2
334,17,83846,6,0,B|336:64|448:64|448:16,2,140,8|0|8
232,80,84764,2,0,B|176:136|248:232,1,140,0|8
231,348,85376,2,0,B|363:256,1,140,2|8
464,192,85988,5,0
336,192,86295,1,8
200,192,86601,1,0
101,93,86907,1,8
150,142,87060,1,0
200,192,87213,2,0,B|344:240,1,140,0|8
472,232,87825,2,0,B|472:176|344:176,1,140,2|8
224,144,88437,5,0
320,40,88744,1,8
416,144,89050,1,0
320,240,89356,1,8
224,336,89662,2,0,B|108:220,1,140,0|8
24,136,90274,2,0,B|176:200,1,140,2|8
256,288,90886,5,0
256,152,91193,2,0,B|224:176|224:176|192:112|136:152,1,140,8|0
144,288,91805,1,8
48,192,92111,5,2
184,192,92417,1,8
320,192,92723,1,2
413,295,93029,2,0,B|262:265,1,140,8|2
178,367,93642,6,0,B|176:320|64:320|64:368,2,140,8|0|8
280,304,94560,2,0,B|336:248|264:152,1,140,0|8
281,36,95172,2,0,B|149:128,1,140,2|8
48,192,95784,5,0
176,192,96091,1,8
312,192,96397,1,0
411,291,96703,1,8
362,242,96856,1,0
312,192,97009,2,0,B|168:144,1,140,0|8
40,152,97621,2,0,B|40:208|168:208,1,140,2|8
288,240,98233,5,0
192,344,98539,1,8
96,240,98846,1,0
192,144,99152,1,8
288,48,99458,2,0,B|404:164,1,140,0|8
488,248,100070,2,0,B|336:184,1,140,2|8
296,320,100682,6,0,B|232:272|296:184,1,140,0|8
147,195,101295,2,0,B|211:243|147:331,1,140,0|8
96,192,101907,5,2
96,56,102213,1,8
240,56,102519,1,2
240,192,102825,1,8
96,192,103131,5,2
256,352,103437,1,8
416,192,103744,1,0
256,32,104050,1,8
256,192,104356,5,4
40,192,105274,5,8
176,192,105580,1,0
384,192,106039,1,0
176,192,106499,2,0,B|112:144|240:88,1,140,8|2
434,94,107264,5,0
286,243,107723,1,8
146,243,108029,1,0
146,32,108488,1,0
294,181,108948,2,0,B|238:125|222:229|158:149,1,140,8|2
448,192,109866,5,0
376,72,110172,1,8
344,208,110478,1,0
256,16,110937,1,0
256,224,111397,1,8
344,120,111703,2,0,B|344:32|344:32|424:56|400:144,1,210,2|0
344,328,112621,5,8
232,248,112927,1,0
24,208,113386,1,0
0,0,113846,2,0,B|56:40|56:40|120:8|120:8|184:40|184:40|248:8,1,280,8|2
120,192,123948,5,0
256,192,124254,1,8
392,192,124560,1,0
292,291,124866,1,8
193,192,125172,1,0
292,93,125478,2,8,B|260:13|164:53,2,140,8|0|8
392,192,126397,5,0
320,192,126550,1,0
248,192,126703,1,8
176,192,126856,1,0
104,192,127009,2,0,B|34:192,3,70,0|0|8|0
34,261,127621,1,0
104,264,127774,1,0
176,264,127927,1,8
248,264,128080,1,0
320,264,128233,2,0,B|320:344,3,70,0|0|8|0
320,264,128846,6,0,B|390:264,7,70,0|0|8|0|0|0|8|0
390,263,130070,2,0,B|390:193,7,70,0|0|8|0|0|0|8|0
390,193,131295,6,0,B|320:193,1,70
320,192,131601,2,0,B|320:264,1,70,8|0
320,261,131907,2,0,B|320:333,1,70,0|0
320,332,132213,2,0,B|248:332,1,70,8|0
249,332,132519,1,0
179,332,132672,1,0
109,332,132825,1,8
39,332,132978,1,0
39,332,133131,2,0,B|39:262,3,70,0|0|8|0
256,192,133744,12,8,135886
256,192,136193,5,4
376,112,136499,1,8
384,184,136652,1,0
352,248,136805,1,0
224,296,137111,1,8
168,248,137264,1,0
208,192,137417,6,0,B|256:144|256:144|312:192,1,140,0|8
208,192,138029,2,0,B|255:240|255:240|313:188,1,140,0|8
256,192,138642,5,4
136,112,138948,1,8
128,184,139101,1,0
160,248,139254,1,0
288,296,139560,1,8
344,248,139713,1,0
304,192,139866,6,0,B|256:144|256:144|200:192,1,140,0|8
304,192,140478,2,0,B|256:240|256:240|199:188,1,140,0|8
256,192,141091,5,4
256,48,141397,1,8
256,48,141550,1,0
256,48,141703,1,0
120,48,142009,5,8
120,192,142315,1,0
120,192,142468,1,0
120,192,142621,1,8
120,192,142774,2,0,B|152:160|192:192,2,70
120,264,143233,1,8
240,192,143540,5,4
376,192,143846,1,8
445,192,143999,2,0,B|365:192,1,70,0|4
240,192,144458,5,8
170,192,144611,2,0,B|250:192,1,70,0|4
256,56,145070,5,8
256,88,145147,1,0
256,120,145223,2,0,B|312:176,1,70,0|4
256,192,145529,12,0,149356
464,192,154436,5,8
324,192,154742,1,0
184,192,155048,1,8
44,192,155354,2,0,B|116:128|116:264|116:264|184:232|260:272,1,280,4|2
352,176,156272,1,8
464,88,156578,5,0
323,88,156885,1,8
183,88,157191,1,0
43,88,157497,1,8
113,88,157650,1,0
184,88,157803,2,0,B|344:88,1,140,0|8
464,88,158415,2,0,B|360:192,1,140,2|8
256,280,159027,5,0
144,192,159333,1,8
256,104,159639,1,0
368,192,159945,1,8
368,56,160252,2,0,B|256:168,1,140,0|8
352,264,160864,2,0,B|470:147,1,140,2|8
352,66,161476,5,0
252,165,161782,2,0,B|289:192|289:192|321:128|367:169,1,140,8|0
263,264,162395,1,8
144,192,162701,5,2
242,93,163008,1,8
381,93,163314,2,0,B|424:152|364:194|307:193,1,140,2|8
184,192,163926,1,2
48,192,164232,5,8
187,192,164538,1,0
327,192,164844,1,8
467,192,165150,2,0,B|395:128|395:264|395:264|328:232|251:272,1,280,4|2
160,176,166068,1,8
48,88,166374,5,0
188,88,166681,1,8
329,88,166987,1,0
469,88,167293,1,8
399,88,167446,1,0
328,88,167599,2,0,B|168:88,1,140,0|8
48,88,168211,2,0,B|152:192,1,140,2|8
256,280,168823,5,0
368,192,169129,1,8
256,104,169435,1,0
144,192,169741,1,8
144,56,170047,2,0,B|256:168,1,140,0|8
336,256,170660,2,0,B|272:192|208:192,1,140,2|8
72,192,171272,6,0,B|8:144|72:56,1,140,0|8
72,192,171885,2,0,B|136:240|72:328,1,140,0|8
268,316,172497,5,2
268,176,172803,1,8
169,275,173109,1,2
309,275,173415,1,8
211,176,173721,1,2
211,316,174027,5,8
309,217,174334,1,0
169,217,174640,1,8
32,192,174946,5,4
104,192,175099,1,0
248,192,175405,1,0
320,192,175558,1,0
392,192,175711,1,0
392,328,176017,1,0
320,328,176171,1,0
248,328,176323,1,0
208,192,176630,1,0
232,128,176783,1,0
304,128,176936,1,0
336,192,177089,1,8
408,192,177242,1,0
480,192,177395,5,0
408,192,177548,1,0
264,192,177854,1,0
192,192,178007,1,0
120,192,178161,1,0
120,328,178467,1,0
192,328,178620,1,0
264,328,178773,1,0
304,192,179079,1,0
280,128,179232,1,0
208,128,179385,1,0
176,192,179538,1,8
104,192,179691,1,0
32,192,179844,5,4
104,192,179997,1,0
248,192,180303,1,0
320,192,180456,1,0
392,192,180610,1,0
392,56,180916,1,0
320,56,181069,1,0
248,56,181221,1,0
208,192,181527,1,0
232,256,181681,1,0
304,256,181834,1,0
336,192,181987,1,8
408,192,182140,1,0
480,192,182293,5,0
408,192,182446,1,0
264,192,182752,1,0
192,192,182905,1,0
120,192,183058,1,0
120,56,183364,1,0
192,56,183517,1,0
264,56,183670,1,0
304,192,183976,1,0
280,256,184129,1,0
208,256,184282,1,0
176,192,184436,1,8
104,192,184589,1,0
32,192,184742,5,4
32,52,185048,1,8
172,52,185354,1,0
172,192,185660,1,8
312,192,185966,1,0
312,52,186272,1,8
452,52,186578,1,0
452,192,186884,1,8
452,331,187191,5,2
312,331,187497,1,8
172,331,187803,1,0
32,331,188109,1,8
32,192,188415,1,0
172,192,188721,1,8
312,192,189027,1,0
452,192,189333,1,8
353,92,189640,5,4
253,190,189946,1,8
155,290,190252,1,0
56,191,190558,1,8
56,51,190864,1,0
196,51,191170,1,8
196,191,191476,1,0
97,290,191782,1,8
256,224,192089,6,0,B|318:270|262:346,1,140,2|8
224,288,192548,1,0
256,160,192701,6,0,B|193:113|249:37,1,140,2|8
288,96,193160,1,0
288,192,193313,6,0,B|334:129|410:185,1,140,2|8
352,224,193772,1,0
224,192,193925,6,0,B|177:254|101:198,1,140,2|8
160,160,194385,1,0
256,192,194538,12,4,196834
