osu file format v7

[General]
AudioFilename: Rise Against - Prayer of the Refugee.mp3
AudioLeadIn: 0
PreviewTime: 83725
Countdown: 1
SampleSet: Normal
StackLeniency: 0.7
Mode: 0
LetterboxInBreaks: 0

[Editor]
Bookmarks: 7280,31060,59700,83846,115070,126091,136193
DistanceSpacing: 0.800000011920929
BeatDivisor: 4
GridSize: 8

[Metadata]
Title:Prayer of the Refugee
Artist:Rise Against
Creator:bLaTzK
Version:Easy
Source:
Tags:Guitar Hero Aqua92

[Difficulty]
HPDrainRate:3
CircleSize:4
OverallDifficulty:4
SliderMultiplier:0.8
SliderTickRate:1

[Events]
//Background and Video events
0,0,"199563374_2f926c9049_o.jpg"
//Break Periods
2,24991,29740
2,53540,58377
2,77381,82526
2,104556,113750
2,121699,124771
//Storyboard Layer 0 (Background)
//Storyboard Layer 1 (Fail)
//Storyboard Layer 2 (Pass)
//Storyboard Layer 3 (Foreground)
//Storyboard Sound Samples
//Background Colour Transformations
3,100,163,162,255

[TimingPoints]
6882,398.671096345515,4,1,0,70,1,0
19630,397.088021178028,4,1,0,70,1,0
30754,306.122448979592,4,1,0,70,1,0
31978,-100,4,1,0,70,0,1
32131,-100,4,1,0,70,0,0
41774,-100,4,1,0,70,0,1
41927,-100,4,1,0,70,0,0
53340,397.350993377483,4,1,0,70,1,0
83540,306.122448979592,4,1,0,70,1,0
84764,-100,4,1,0,70,0,1
84917,-100,4,1,0,70,0,0
94560,-100,4,1,0,70,0,1
94713,-100,4,1,0,70,0,0
136193,-100,4,1,0,70,0,1
136346,-100,4,1,0,70,0,0
145682,-100,4,1,0,0,0,1
149356,397.851601352695,4,1,0,70,1,0
154130,306.122448979592,4,1,0,70,1,0

[Colours]
Combo1 : 255,227,32
Combo2 : 5,152,38
Combo3 : 187,0,0

[HitObjects]
256,192,7280,1,8
192,192,7679,1,0
128,192,8078,1,8
64,192,8476,1,0
0,192,8875,1,8
128,192,9672,5,8
128,128,10071,2,0,B|128:80,1,40
192,88,10669,2,0,B|312:208,1,160,2|2
16,224,13260,6,0,B|112:224,1,80,4|8
96,160,14058,1,0
96,96,14456,1,8
96,32,14855,1,0
160,32,15254,1,8
256,56,15852,6,0,B|344:56,1,80,8|0
336,120,16649,1,8
381,165,17048,1,2
336,210,17446,1,2
290,165,17845,1,2
56,328,19630,5,4
56,264,20027,1,8
120,264,20424,1,0
120,328,20821,1,8
184,328,21218,1,0
184,264,21615,2,0,B|184:208|184:208|72:208,4,160,8|8|8|8|8
290,165,31060,6,0,B|258:141|258:141|218:165,1,80,8|0
224,225,31672,2,0,B|256:249|256:249|296:225,1,80,8|4
192,304,32590,1,2
128,192,33202,5,0
128,128,33509,1,8
192,128,33815,1,0
256,128,34121,1,8
320,128,34427,2,0,B|360:200|416:32|448:136,1,160,0|2
456,256,35651,5,0
410,301,35958,1,8
365,256,36264,1,0
320,301,36570,1,8
272,256,36876,2,0,B|104:256,1,160,0|2
80,136,38100,6,0,B|128:104|168:152,3,80,0|8|0|8
153,201,39325,2,0,B|153:289,1,80,2|8
153,344,39937,1,2
222,165,40856,6,0,B|254:141|254:141|294:165,1,80,8|0
288,225,41468,2,0,B|256:249|256:249|216:225,1,80,8|4
320,304,42386,1,2
384,192,42998,5,0
384,128,43305,1,8
320,128,43611,1,0
256,128,43917,1,8
192,128,44223,2,0,B|152:200|96:32|64:136,1,160,0|2
56,256,45447,5,0
101,301,45753,1,8
146,256,46060,1,0
191,301,46366,1,8
240,256,46672,2,0,B|408:256,1,160,0|2
456,144,47896,6,0,B|408:112|368:160,3,80,0|8|0|8
336,192,49121,6,0,B|240:192,6,80,2|8|2|8|2|8|2
256,192,51111,12,0,53340
256,192,59697,5,4
192,192,60094,1,8
128,192,60492,1,0
128,256,60889,1,8
82,210,61287,1,0
37,165,61684,1,8
136,88,62479,6,0,B|136:144,1,40,8|0
136,192,63075,1,0
200,192,63472,1,2
264,192,63869,1,2
328,192,64267,1,2
72,64,66055,5,4
72,128,66452,1,8
72,192,66849,1,0
136,192,67247,1,8
200,192,67644,2,0,B|248:192,1,40,2|2
256,192,68240,12,2,70624
192,192,72810,5,8
224,136,73207,1,0
288,136,73604,1,8
320,192,74002,1,0
288,248,74399,1,8
224,248,74796,1,0
160,248,75194,6,0,B|96:248,2,40,8|0|0
160,184,75989,2,0,B|160:96,3,80,8|0|8|0
256,192,83846,5,8
192,192,84152,1,0
128,192,84458,1,8
64,192,84764,2,0,B|64:256|64:256|168:256,1,160,4|2
288,256,85988,5,0
288,192,86295,2,0,B|216:160|192:216,1,80,8|0
144,192,86907,2,0,B|144:280,1,80,8|0
271,272,87825,1,2
180,181,88437,6,0,B|156:149|132:205|92:165,2,80,0|8|0
244,181,89356,1,8
244,117,89662,2,0,B|244:21|164:21|164:109,1,160,0|2
48,48,90886,5,0
48,112,91193,2,0,B|57:156|57:156|112:168,2,80,8|0|8
112,104,92111,1,2
168,72,92417,1,8
232,72,92723,1,2
296,72,93029,1,8
256,128,93335,1,2
256,192,93642,5,8
320,192,93948,1,0
384,192,94254,1,8
448,192,94560,2,0,B|448:256|448:256|344:256,1,160,4|2
224,256,95784,5,0
224,192,96091,2,0,B|296:160|320:216,1,80,8|0
368,192,96703,2,0,B|368:280,1,80,8|0
241,272,97621,1,2
332,181,98233,6,0,B|356:149|380:205|420:165,2,80,0|8|0
268,181,99152,1,8
268,117,99458,2,0,B|303:48|368:44|421:59,1,160,0|2
344,168,100682,5,0
376,224,100988,2,0,B|410:216|410:216|419:172,2,80,8|0|8
376,288,101907,1,2
376,352,102213,1,8
312,352,102519,1,2
312,288,102825,1,8
256,192,103131,12,4,104356
256,192,115070,5,8
256,256,115376,2,0,B|308:301|368:256,1,120,2|0
433,189,116295,1,8
433,125,116601,2,0,B|377:77|321:125,1,120,2|0
256,192,117519,5,8
256,256,117825,2,0,B|204:301|144:256,1,120,2|0
78,189,118744,1,8
126,140,119050,2,0,B|152:32|224:288|256:32,1,240,2|8
320,40,120274,6,0,B|320:72|320:72|368:72|368:72|368:120,2,120,0|2|8
256,40,121499,1,2
256,192,126091,5,4
256,256,126397,5,0
192,256,126703,2,0,B|112:152|144:312|48:248,1,160,8|8
64,192,127621,1,0
64,128,127927,2,0,B|96:48|144:96,2,80,8|0|8
128,128,128846,5,0
192,128,129152,2,0,B|271:182|239:22|319:126,1,160,8|8
314,184,130070,1,0
314,247,130376,2,0,B|346:327|394:279,2,80,8|0|8
314,183,131295,5,0
250,183,131601,1,8
121,183,132213,2,0,B|33:183,2,80,8|0|8
121,246,133131,1,0
121,309,133437,1,8
256,192,133744,12,4,136193
384,192,136805,5,8
384,64,137417,1,0
320,64,137723,1,8
256,64,138029,1,0
256,128,138335,1,8
256,192,138642,5,4
128,192,139254,1,8
128,320,139866,1,0
192,320,140172,1,8
256,320,140478,1,0
256,256,140784,1,8
256,192,141091,5,4
384,192,141703,1,8
384,64,142315,1,0
320,64,142621,1,8
256,64,142927,1,0
192,64,143233,1,8
128,64,143540,5,4
128,128,143846,2,0,B|32:128,1,80,8|4
48,191,144458,2,0,B|128:191,1,80,8|4
128,256,145070,2,0,B|128:352,1,80,8|4
256,192,145682,12,4,149356
