osu file format v12

[General]
AudioFilename: Rise Against - Prayer of the Refugee.mp3
AudioLeadIn: 2000
PreviewTime: 83725
Countdown: 0
SampleSet: Normal
StackLeniency: 0.7
Mode: 1
LetterboxInBreaks: 0
WidescreenStoryboard: 0

[Editor]
DistanceSpacing: 0.9
BeatDivisor: 4
GridSize: 8

[Metadata]
Title:Prayer of the Refugee
TitleUnicode:Prayer of the Refugee
Artist:Rise Against
ArtistUnicode:Rise Against
Creator:Nashmun
Version:Oni
Source:
Tags:LZD The Sufferer & the Witness Punk
BeatmapID:287969
BeatmapSetID:110554

[Difficulty]
HPDrainRate:5
CircleSize:5
OverallDifficulty:6
ApproachRate:5
SliderMultiplier:1.4
SliderTickRate:1

[Events]
//Background and Video events
0,0,"bg.jpg",0,0
//Break Periods
//Storyboard Layer 0 (Background)
//Storyboard Layer 1 (Fail)
//Storyboard Layer 2 (Pass)
//Storyboard Layer 3 (Foreground)
//Storyboard Sound Samples
//Background Colour Transformations
3,100,163,162,255

[TimingPoints]
509,398.671096345515,4,1,0,80,1,0
19636,397.088021178028,4,1,0,80,1,0
30760,306.122448979592,4,1,0,80,1,8
31984,-100,4,1,0,80,0,1
50964,-100,4,1,0,80,0,0
53346,397.350993377483,4,1,0,80,1,8
83546,306.122448979592,4,1,0,80,1,8
84770,-100,4,1,0,80,0,1
104362,-100,4,1,0,80,0,0
149406,397.851601352695,4,1,0,80,1,8
154136,306.122448979592,4,1,0,80,1,8
155360,-100,4,1,0,80,0,1
184748,-100,4,1,0,80,0,0

[Colours]
Combo1 : 0,0,255
Combo2 : 255,128,0

[HitObjects]
296,192,3499,1,8,0:0:0:0:
296,192,3598,1,8,0:0:0:0:
296,192,3698,1,8,0:0:0:0:
216,192,6289,1,0,0:0:0:0:
216,192,6389,1,0,0:0:0:0:
296,192,6489,1,8,0:0:0:0:
216,192,6688,1,0,0:0:0:0:
216,192,6887,1,4,0:0:0:0:
296,192,7286,1,8,0:0:0:0:
216,192,7485,1,0,0:0:0:0:
216,192,7685,1,0,0:0:0:0:
296,192,8083,1,8,0:0:0:0:
216,192,8482,1,0,0:0:0:0:
296,192,8881,1,8,0:0:0:0:
216,192,9080,1,0,0:0:0:0:
216,192,9279,1,0,0:0:0:0:
296,192,9479,1,8,0:0:0:0:
296,192,9678,1,8,0:0:0:0:
216,192,9877,1,0,0:0:0:0:
216,192,10077,1,0,0:0:0:0:
296,192,10475,1,8,0:0:0:0:
216,192,10675,1,0,0:0:0:0:
216,192,10874,1,0,0:0:0:0:
296,192,11273,1,8,0:0:0:0:
216,192,11671,1,0,0:0:0:0:
296,192,12070,1,8,0:0:0:0:
216,192,12269,1,0,0:0:0:0:
216,192,12469,1,0,0:0:0:0:
296,192,12668,1,8,0:0:0:0:
296,192,13067,1,8,0:0:0:0:
216,192,13266,1,4,0:0:0:0:
296,192,13665,1,8,0:0:0:0:
216,192,13864,1,0,0:0:0:0:
216,192,14063,1,0,0:0:0:0:
296,192,14462,1,8,0:0:0:0:
216,192,14861,1,0,0:0:0:0:
296,192,15259,1,8,0:0:0:0:
216,192,15459,1,0,0:0:0:0:
216,192,15658,1,0,0:0:0:0:
296,192,15857,1,8,0:0:0:0:
296,192,16057,1,8,0:0:0:0:
216,192,16455,1,0,0:0:0:0:
296,192,16854,1,8,0:0:0:0:
216,192,17053,1,0,0:0:0:0:
216,192,17253,1,0,0:0:0:0:
296,192,17651,1,8,0:0:0:0:
216,192,18050,1,0,0:0:0:0:
296,192,18249,1,8,0:0:0:0:
296,192,18449,1,8,0:0:0:0:
216,192,18648,1,0,0:0:0:0:
296,192,18847,1,12,0:0:0:0:
216,192,19047,1,0,0:0:0:0:
296,192,19246,1,12,0:0:0:0:
216,192,19445,1,0,0:0:0:0:
216,192,19636,1,4,0:0:0:0:
216,192,19834,1,0,0:0:0:0:
296,192,20033,1,8,0:0:0:0:
216,192,20231,1,0,0:0:0:0:
216,192,20430,1,0,0:0:0:0:
296,192,20827,1,8,0:0:0:0:
216,192,21025,1,0,0:0:0:0:
216,192,21224,1,0,0:0:0:0:
296,192,21621,1,8,0:0:0:0:
216,192,21819,1,0,0:0:0:0:
216,192,22018,1,0,0:0:0:0:
296,192,22415,1,8,0:0:0:0:
216,192,22614,1,0,0:0:0:0:
216,192,22812,1,0,0:0:0:0:
296,192,23209,1,8,0:0:0:0:
216,192,23408,1,0,0:0:0:0:
216,192,23606,1,0,0:0:0:0:
296,192,24003,1,8,0:0:0:0:
216,192,24202,1,0,0:0:0:0:
216,192,24401,1,0,0:0:0:0:
296,192,24798,1,8,0:0:0:0:
216,192,24996,1,0,0:0:0:0:
216,192,25195,1,0,0:0:0:0:
296,192,25393,1,12,0:0:0:0:
216,192,25592,1,0,0:0:0:0:
296,192,25790,1,12,0:0:0:0:
216,192,25989,1,0,0:0:0:0:
296,192,26386,1,8,0:0:0:0:
216,192,26585,1,0,0:0:0:0:
216,192,26783,1,0,0:0:0:0:
296,192,27180,1,8,0:0:0:0:
216,192,27379,1,0,0:0:0:0:
216,192,27577,1,0,0:0:0:0:
296,192,27974,1,8,0:0:0:0:
216,192,28173,1,0,0:0:0:0:
216,192,28371,1,0,0:0:0:0:
296,192,28769,1,8,0:0:0:0:
216,192,28967,1,0,0:0:0:0:
216,192,29166,1,0,0:0:0:0:
296,192,29563,1,8,0:0:0:0:
216,192,29761,1,0,0:0:0:0:
216,192,29960,1,0,0:0:0:0:
216,192,30158,1,0,0:0:0:0:
216,192,30258,1,0,0:0:0:0:
296,192,30357,1,8,0:0:0:0:
296,192,30456,1,8,0:0:0:0:
296,192,30555,1,8,0:0:0:0:
216,192,30754,1,0,0:0:0:0:
216,192,31066,1,4,0:0:0:0:
216,192,31372,1,4,0:0:0:0:
296,192,31678,1,12,0:0:0:0:
216,192,31984,1,4,0:0:0:0:
216,192,32137,1,0,0:0:0:0:
296,192,32290,1,8,0:0:0:0:
216,192,32596,1,0,0:0:0:0:
216,192,32749,1,0,0:0:0:0:
296,192,32902,1,8,0:0:0:0:
216,192,33208,1,0,0:0:0:0:
216,192,33362,1,0,0:0:0:0:
296,192,33515,1,8,0:0:0:0:
216,192,33668,1,0,0:0:0:0:
216,192,33744,1,0,0:0:0:0:
216,192,33821,1,0,0:0:0:0:
216,192,33974,1,0,0:0:0:0:
296,192,34127,1,8,0:0:0:0:
216,192,34280,1,0,0:0:0:0:
216,192,34433,1,0,0:0:0:0:
216,192,34586,1,0,0:0:0:0:
296,192,34739,1,8,0:0:0:0:
216,192,35045,1,0,0:0:0:0:
216,192,35198,1,0,0:0:0:0:
296,192,35351,1,8,0:0:0:0:
216,192,35657,1,0,0:0:0:0:
216,192,35811,1,0,0:0:0:0:
296,192,35964,1,8,0:0:0:0:
216,192,36117,1,0,0:0:0:0:
216,192,36193,1,0,0:0:0:0:
296,192,36270,1,8,0:0:0:0:
216,192,36423,1,0,0:0:0:0:
296,192,36576,1,8,0:0:0:0:
296,192,36729,1,8,0:0:0:0:
216,192,36882,1,0,0:0:0:0:
216,192,37035,1,0,0:0:0:0:
296,192,37188,1,8,0:0:0:0:
216,192,37494,1,0,0:0:0:0:
216,192,37647,1,0,0:0:0:0:
296,192,37800,1,8,0:0:0:0:
216,192,38106,1,0,0:0:0:0:
216,192,38260,1,0,0:0:0:0:
296,192,38413,1,8,0:0:0:0:
216,192,38566,1,0,0:0:0:0:
216,192,38642,1,0,0:0:0:0:
216,192,38719,1,0,0:0:0:0:
216,192,38872,1,0,0:0:0:0:
296,192,39025,1,8,0:0:0:0:
216,192,39178,1,0,0:0:0:0:
216,192,39331,1,4,0:0:0:0:
216,192,39484,1,0,0:0:0:0:
296,192,39637,1,8,0:0:0:0:
216,192,39790,1,0,0:0:0:0:
216,192,39943,1,4,0:0:0:0:
216,192,40096,1,0,0:0:0:0:
296,192,40249,1,8,0:0:0:0:
216,192,40402,1,0,0:0:0:0:
216,192,40555,1,4,0:0:0:0:
296,192,40708,1,0,0:0:0:0:
296,192,40785,1,8,0:0:0:0:
296,192,40862,1,8,0:0:0:0:
216,192,40938,1,0,0:0:0:0:
296,192,41015,1,8,0:0:0:0:
216,192,41091,1,8,0:0:0:0:
216,192,41168,1,0,0:0:0:0:
296,192,41244,1,8,0:0:0:0:
216,192,41321,1,8,0:0:0:0:
296,192,41397,1,0,0:0:0:0:
296,192,41474,1,8,0:0:0:0:
216,192,41550,1,0,0:0:0:0:
296,192,41627,1,8,0:0:0:0:
296,192,41703,1,8,0:0:0:0:
216,192,41780,1,0,0:0:0:0:
216,192,41933,1,0,0:0:0:0:
296,192,42086,1,8,0:0:0:0:
216,192,42239,1,0,0:0:0:0:
216,192,42316,1,0,0:0:0:0:
216,192,42392,1,0,0:0:0:0:
296,192,42469,1,8,0:0:0:0:
216,192,42545,1,0,0:0:0:0:
296,192,42698,1,8,0:0:0:0:
216,192,42851,1,0,0:0:0:0:
216,192,43004,1,0,0:0:0:0:
216,192,43157,1,0,0:0:0:0:
296,192,43311,1,8,0:0:0:0:
296,192,43464,1,8,0:0:0:0:
296,192,43540,1,8,0:0:0:0:
216,192,43617,1,0,0:0:0:0:
296,192,43693,1,8,0:0:0:0:
216,192,43770,1,0,0:0:0:0:
296,192,43923,1,8,0:0:0:0:
216,192,44076,1,0,0:0:0:0:
216,192,44229,1,0,0:0:0:0:
216,192,44382,1,0,0:0:0:0:
296,192,44535,1,8,0:0:0:0:
216,192,44688,1,0,0:0:0:0:
296,192,44765,1,8,0:0:0:0:
216,192,44841,1,0,0:0:0:0:
216,192,44918,1,0,0:0:0:0:
216,192,44994,1,0,0:0:0:0:
296,192,45147,1,8,0:0:0:0:
216,192,45300,1,0,0:0:0:0:
216,192,45453,1,0,0:0:0:0:
216,192,45606,1,0,0:0:0:0:
296,192,45760,1,8,0:0:0:0:
216,192,45913,1,0,0:0:0:0:
216,192,45989,1,0,0:0:0:0:
296,192,46066,1,8,0:0:0:0:
216,192,46142,1,0,0:0:0:0:
296,192,46219,1,8,0:0:0:0:
296,192,46372,1,8,0:0:0:0:
216,192,46525,1,0,0:0:0:0:
216,192,46678,1,0,0:0:0:0:
216,192,46831,1,0,0:0:0:0:
216,192,46907,1,0,0:0:0:0:
296,192,46984,1,8,0:0:0:0:
216,192,47137,1,0,0:0:0:0:
216,192,47290,1,0,0:0:0:0:
216,192,47443,1,0,0:0:0:0:
216,192,47520,1,0,0:0:0:0:
296,192,47596,1,8,0:0:0:0:
216,192,47749,1,0,0:0:0:0:
216,192,47902,1,0,0:0:0:0:
216,192,47979,1,0,0:0:0:0:
216,192,48055,1,0,0:0:0:0:
216,192,48132,1,0,0:0:0:0:
296,192,48208,1,8,0:0:0:0:
216,192,48362,1,0,0:0:0:0:
216,192,48515,1,0,0:0:0:0:
216,192,48591,1,0,0:0:0:0:
216,192,48668,1,0,0:0:0:0:
216,192,48744,1,0,0:0:0:0:
296,192,48821,1,8,0:0:0:0:
216,192,48974,1,0,0:0:0:0:
296,192,49127,1,12,0:0:0:0:
296,192,49280,1,8,0:0:0:0:
296,192,49356,1,8,0:0:0:0:
296,192,49433,1,8,0:0:0:0:
216,192,49586,1,0,0:0:0:0:
296,192,49739,1,12,0:0:0:0:
296,192,49892,1,8,0:0:0:0:
296,192,49969,1,8,0:0:0:0:
296,192,50045,1,8,0:0:0:0:
216,192,50198,1,0,0:0:0:0:
296,192,50351,1,12,0:0:0:0:
296,192,50504,1,8,0:0:0:0:
296,192,50581,1,8,0:0:0:0:
296,192,50657,1,8,0:0:0:0:
216,192,50811,1,0,0:0:0:0:
256,192,50964,12,0,53336,0:0:0:0:
296,192,59107,5,8,0:0:0:0:
296,192,59306,1,8,0:0:0:0:
216,192,59703,1,4,0:0:0:0:
296,192,60100,1,8,0:0:0:0:
216,192,60299,1,0,0:0:0:0:
216,192,60498,1,0,0:0:0:0:
296,192,60895,1,8,0:0:0:0:
216,192,61094,1,0,0:0:0:0:
216,192,61293,1,0,0:0:0:0:
296,192,61690,1,8,0:0:0:0:
216,192,61889,1,0,0:0:0:0:
216,192,62087,1,0,0:0:0:0:
296,192,62485,1,8,0:0:0:0:
216,192,62683,1,0,0:0:0:0:
216,192,62882,1,0,0:0:0:0:
216,192,63081,1,0,0:0:0:0:
296,192,63279,1,8,0:0:0:0:
216,192,63478,1,0,0:0:0:0:
216,192,63677,1,0,0:0:0:0:
296,192,64074,1,8,0:0:0:0:
216,192,64273,1,0,0:0:0:0:
216,192,64471,1,0,0:0:0:0:
296,192,64869,1,8,0:0:0:0:
216,192,65067,1,0,0:0:0:0:
216,192,65266,1,0,0:0:0:0:
296,192,65465,1,12,0:0:0:0:
216,192,65663,1,0,0:0:0:0:
296,192,65862,1,12,0:0:0:0:
216,192,66061,1,0,0:0:0:0:
296,192,66458,1,8,0:0:0:0:
216,192,66657,1,0,0:0:0:0:
216,192,66855,1,0,0:0:0:0:
296,192,67253,1,8,0:0:0:0:
216,192,67451,1,0,0:0:0:0:
216,192,67650,1,0,0:0:0:0:
296,192,68047,1,8,0:0:0:0:
216,192,68246,1,0,0:0:0:0:
216,192,68445,1,0,0:0:0:0:
296,192,68842,1,8,0:0:0:0:
216,192,69041,1,0,0:0:0:0:
216,192,69240,1,0,0:0:0:0:
216,192,69438,1,0,0:0:0:0:
296,192,69637,1,8,0:0:0:0:
216,192,69836,1,0,0:0:0:0:
216,192,70034,1,0,0:0:0:0:
296,192,70432,1,8,0:0:0:0:
216,192,70630,1,0,0:0:0:0:
216,192,70829,1,0,0:0:0:0:
296,192,71028,1,8,0:0:0:0:
296,192,71127,1,8,0:0:0:0:
296,192,71226,1,8,0:0:0:0:
216,192,71425,1,0,0:0:0:0:
296,192,71624,1,8,0:0:0:0:
296,192,71723,1,8,0:0:0:0:
216,192,71822,1,0,0:0:0:0:
216,192,71922,1,0,0:0:0:0:
296,192,72021,1,8,0:0:0:0:
216,192,72120,1,0,0:0:0:0:
216,192,72220,1,0,0:0:0:0:
216,192,72319,1,0,0:0:0:0:
216,192,72418,1,0,0:0:0:0:
216,192,72617,1,0,0:0:0:0:
296,192,72816,1,8,0:0:0:0:
216,192,73014,1,0,0:0:0:0:
216,192,73213,1,0,0:0:0:0:
216,192,73412,1,0,0:0:0:0:
296,192,73610,1,8,0:0:0:0:
216,192,73809,1,0,0:0:0:0:
216,192,74008,1,0,0:0:0:0:
296,192,74405,1,8,0:0:0:0:
216,192,74604,1,0,0:0:0:0:
216,192,74802,1,0,0:0:0:0:
296,192,75200,1,8,0:0:0:0:
216,192,75597,1,0,0:0:0:0:
296,192,75995,1,8,0:0:0:0:
216,192,76193,1,0,0:0:0:0:
216,192,76392,1,0,0:0:0:0:
296,192,76789,1,8,0:0:0:0:
216,192,77187,1,0,0:0:0:0:
216,192,77385,1,0,0:0:0:0:
296,192,77584,1,8,0:0:0:0:
216,192,77783,1,0,0:0:0:0:
216,192,77981,1,0,0:0:0:0:
296,192,78180,1,12,0:0:0:0:
216,192,78379,1,0,0:0:0:0:
296,192,78577,1,12,0:0:0:0:
216,192,78776,1,0,0:0:0:0:
296,192,79173,1,8,0:0:0:0:
216,192,79372,1,0,0:0:0:0:
216,192,79571,1,0,0:0:0:0:
296,192,79968,1,8,0:0:0:0:
216,192,80365,1,0,0:0:0:0:
296,192,80763,1,8,0:0:0:0:
216,192,80961,1,0,0:0:0:0:
216,192,81160,1,0,0:0:0:0:
216,192,81359,1,0,0:0:0:0:
296,192,81557,1,8,0:0:0:0:
216,192,81756,1,0,0:0:0:0:
216,192,81955,1,0,0:0:0:0:
296,192,82352,1,8,0:0:0:0:
216,192,82551,1,0,0:0:0:0:
216,192,82749,1,0,0:0:0:0:
296,192,82948,1,8,0:0:0:0:
296,192,83147,1,8,0:0:0:0:
216,192,83345,1,0,0:0:0:0:
216,192,83544,1,0,0:0:0:0:
216,192,83852,1,4,0:0:0:0:
216,192,84158,1,4,0:0:0:0:
296,192,84464,1,12,0:0:0:0:
216,192,84770,1,4,0:0:0:0:
216,192,84923,1,0,0:0:0:0:
296,192,85076,1,8,0:0:0:0:
216,192,85382,1,0,0:0:0:0:
216,192,85535,1,0,0:0:0:0:
296,192,85688,1,8,0:0:0:0:
216,192,85994,1,0,0:0:0:0:
216,192,86148,1,0,0:0:0:0:
296,192,86301,1,8,0:0:0:0:
216,192,86454,1,0,0:0:0:0:
216,192,86607,1,0,0:0:0:0:
216,192,86760,1,0,0:0:0:0:
296,192,86913,1,8,0:0:0:0:
296,192,87066,1,8,0:0:0:0:
296,192,87142,1,8,0:0:0:0:
216,192,87219,1,0,0:0:0:0:
216,192,87372,1,0,0:0:0:0:
296,192,87525,1,8,0:0:0:0:
216,192,87831,1,0,0:0:0:0:
216,192,87984,1,0,0:0:0:0:
296,192,88137,1,8,0:0:0:0:
216,192,88443,1,0,0:0:0:0:
216,192,88597,1,0,0:0:0:0:
296,192,88750,1,8,0:0:0:0:
216,192,88903,1,0,0:0:0:0:
216,192,89056,1,0,0:0:0:0:
216,192,89209,1,0,0:0:0:0:
296,192,89362,1,8,0:0:0:0:
216,192,89515,1,0,0:0:0:0:
296,192,89591,1,8,0:0:0:0:
216,192,89668,1,0,0:0:0:0:
216,192,89821,1,0,0:0:0:0:
296,192,89974,1,8,0:0:0:0:
216,192,90127,1,0,0:0:0:0:
296,192,90204,1,8,0:0:0:0:
216,192,90280,1,0,0:0:0:0:
216,192,90433,1,0,0:0:0:0:
296,192,90586,1,8,0:0:0:0:
216,192,90892,1,0,0:0:0:0:
216,192,91046,1,0,0:0:0:0:
296,192,91199,1,8,0:0:0:0:
216,192,91352,1,0,0:0:0:0:
216,192,91505,1,0,0:0:0:0:
216,192,91658,1,0,0:0:0:0:
296,192,91811,1,8,0:0:0:0:
216,192,91964,1,0,0:0:0:0:
216,192,92117,1,4,0:0:0:0:
216,192,92270,1,0,0:0:0:0:
296,192,92423,1,8,0:0:0:0:
216,192,92576,1,0,0:0:0:0:
216,192,92729,1,4,0:0:0:0:
216,192,92882,1,0,0:0:0:0:
296,192,93035,1,8,0:0:0:0:
216,192,93188,1,0,0:0:0:0:
216,192,93341,1,4,0:0:0:0:
216,192,93494,1,0,0:0:0:0:
216,192,93571,1,0,0:0:0:0:
296,192,93648,1,8,0:0:0:0:
216,192,93724,1,0,0:0:0:0:
216,192,93801,1,0,0:0:0:0:
216,192,93877,1,0,0:0:0:0:
296,192,93954,1,8,0:0:0:0:
216,192,94030,1,0,0:0:0:0:
216,192,94107,1,0,0:0:0:0:
216,192,94183,1,0,0:0:0:0:
296,192,94260,1,8,0:0:0:0:
296,192,94336,1,8,0:0:0:0:
216,192,94413,1,0,0:0:0:0:
296,192,94489,1,8,0:0:0:0:
216,192,94566,1,0,0:0:0:0:
216,192,94719,1,0,0:0:0:0:
296,192,94872,1,8,0:0:0:0:
216,192,95025,1,0,0:0:0:0:
216,192,95102,1,0,0:0:0:0:
216,192,95178,1,0,0:0:0:0:
216,192,95255,1,0,0:0:0:0:
216,192,95331,1,0,0:0:0:0:
296,192,95484,1,8,0:0:0:0:
216,192,95637,1,0,0:0:0:0:
216,192,95790,1,0,0:0:0:0:
216,192,95943,1,0,0:0:0:0:
296,192,96097,1,8,0:0:0:0:
216,192,96250,1,0,0:0:0:0:
296,192,96326,1,8,0:0:0:0:
216,192,96403,1,0,0:0:0:0:
216,192,96479,1,0,0:0:0:0:
216,192,96556,1,0,0:0:0:0:
296,192,96709,1,8,0:0:0:0:
216,192,96862,1,0,0:0:0:0:
216,192,97015,1,0,0:0:0:0:
216,192,97168,1,0,0:0:0:0:
296,192,97321,1,8,0:0:0:0:
216,192,97474,1,0,0:0:0:0:
216,192,97551,1,0,0:0:0:0:
296,192,97627,1,8,0:0:0:0:
216,192,97704,1,0,0:0:0:0:
216,192,97780,1,0,0:0:0:0:
296,192,97933,1,8,0:0:0:0:
216,192,98086,1,0,0:0:0:0:
296,192,98239,1,8,0:0:0:0:
296,192,98316,1,8,0:0:0:0:
296,192,98392,1,8,0:0:0:0:
216,192,98546,1,0,0:0:0:0:
216,192,98622,1,0,0:0:0:0:
216,192,98699,1,0,0:0:0:0:
296,192,98852,1,8,0:0:0:0:
296,192,98928,1,8,0:0:0:0:
296,192,99005,1,8,0:0:0:0:
216,192,99158,1,0,0:0:0:0:
216,192,99234,1,0,0:0:0:0:
216,192,99311,1,0,0:0:0:0:
216,192,99464,1,0,0:0:0:0:
216,192,99617,1,0,0:0:0:0:
296,192,99770,1,8,0:0:0:0:
296,192,99923,1,8,0:0:0:0:
296,192,100000,1,8,0:0:0:0:
216,192,100076,1,0,0:0:0:0:
296,192,100153,1,8,0:0:0:0:
216,192,100229,1,0,0:0:0:0:
296,192,100382,1,8,0:0:0:0:
216,192,100535,1,0,0:0:0:0:
216,192,100688,1,0,0:0:0:0:
216,192,100841,1,0,0:0:0:0:
216,192,100918,1,0,0:0:0:0:
296,192,100994,1,8,0:0:0:0:
216,192,101148,1,0,0:0:0:0:
216,192,101301,1,0,0:0:0:0:
216,192,101454,1,0,0:0:0:0:
216,192,101530,1,0,0:0:0:0:
296,192,101607,1,8,0:0:0:0:
216,192,101760,1,0,0:0:0:0:
296,192,101913,1,12,0:0:0:0:
296,192,102066,1,8,0:0:0:0:
296,192,102142,1,8,0:0:0:0:
296,192,102219,1,8,0:0:0:0:
216,192,102372,1,0,0:0:0:0:
296,192,102525,1,12,0:0:0:0:
296,192,102678,1,8,0:0:0:0:
296,192,102755,1,8,0:0:0:0:
296,192,102831,1,8,0:0:0:0:
216,192,102984,1,0,0:0:0:0:
296,192,103137,1,12,0:0:0:0:
296,192,103290,1,8,0:0:0:0:
296,192,103367,1,8,0:0:0:0:
296,192,103443,1,8,0:0:0:0:
216,192,103597,1,0,0:0:0:0:
216,192,103750,1,0,0:0:0:0:
296,192,103903,1,8,0:0:0:0:
296,192,103979,1,8,0:0:0:0:
216,192,104056,1,8,0:0:0:0:
296,192,104132,1,8,0:0:0:0:
216,192,104209,1,0,0:0:0:0:
296,192,104285,1,8,0:0:0:0:
216,192,104362,1,0,0:0:0:0:
216,192,104515,1,0,0:0:0:0:
296,192,104668,1,8,0:0:0:0:
216,192,104821,1,0,0:0:0:0:
216,192,104974,1,0,0:0:0:0:
216,192,105127,1,0,0:0:0:0:
216,192,105280,1,0,0:0:0:0:
216,192,105433,1,0,0:0:0:0:
216,192,105586,1,0,0:0:0:0:
216,192,105739,1,0,0:0:0:0:
296,192,105892,1,8,0:0:0:0:
216,192,106046,1,0,0:0:0:0:
216,192,106199,1,0,0:0:0:0:
216,192,106352,1,0,0:0:0:0:
296,192,106505,1,8,0:0:0:0:
216,192,106658,1,0,0:0:0:0:
296,192,106811,1,12,0:0:0:0:
216,192,107117,1,0,0:0:0:0:
216,192,107270,1,0,0:0:0:0:
296,192,107423,1,8,0:0:0:0:
216,192,107576,1,0,0:0:0:0:
216,192,107729,1,0,0:0:0:0:
216,192,107882,1,0,0:0:0:0:
216,192,108035,1,0,0:0:0:0:
216,192,108188,1,0,0:0:0:0:
296,192,108341,1,12,0:0:0:0:
216,192,108494,1,0,0:0:0:0:
216,192,108801,1,0,0:0:0:0:
296,192,108954,1,12,0:0:0:0:
216,192,109260,1,4,0:0:0:0:
296,192,109566,1,8,0:0:0:0:
216,192,109719,1,0,0:0:0:0:
216,192,109872,1,0,0:0:0:0:
216,192,110025,1,0,0:0:0:0:
296,192,110178,1,8,0:0:0:0:
216,192,110331,1,0,0:0:0:0:
216,192,110484,1,0,0:0:0:0:
216,192,110637,1,0,0:0:0:0:
216,192,110790,1,0,0:0:0:0:
216,192,110943,1,0,0:0:0:0:
216,192,111097,1,0,0:0:0:0:
216,192,111250,1,0,0:0:0:0:
296,192,111403,1,8,0:0:0:0:
296,192,111709,1,12,0:0:0:0:
216,192,112015,1,0,0:0:0:0:
296,192,112168,1,8,0:0:0:0:
216,192,112321,1,0,0:0:0:0:
216,192,112474,1,0,0:0:0:0:
296,192,112627,1,8,0:0:0:0:
216,192,112780,1,0,0:0:0:0:
216,192,112933,1,0,0:0:0:0:
216,192,113086,1,0,0:0:0:0:
296,192,113239,1,12,0:0:0:0:
216,192,113392,1,0,0:0:0:0:
296,192,113546,1,8,0:0:0:0:
296,192,113699,1,8,0:0:0:0:
296,192,113775,1,8,0:0:0:0:
296,192,113852,1,8,0:0:0:0:
216,192,113928,1,0,0:0:0:0:
296,192,114005,1,8,0:0:0:0:
216,192,114081,1,0,0:0:0:0:
216,192,114158,1,0,0:0:0:0:
216,192,114311,1,0,0:0:0:0:
296,192,114464,1,8,0:0:0:0:
216,192,114617,1,0,0:0:0:0:
216,192,114770,1,0,0:0:0:0:
216,192,114923,1,0,0:0:0:0:
296,192,115076,1,8,0:0:0:0:
216,192,115229,1,0,0:0:0:0:
216,192,115382,1,0,0:0:0:0:
216,192,115535,1,0,0:0:0:0:
216,192,115688,1,0,0:0:0:0:
216,192,115841,1,0,0:0:0:0:
216,192,115994,1,0,0:0:0:0:
216,192,116148,1,0,0:0:0:0:
296,192,116301,1,8,0:0:0:0:
216,192,116454,1,0,0:0:0:0:
296,192,116607,1,12,0:0:0:0:
216,192,116913,1,0,0:0:0:0:
296,192,117066,1,8,0:0:0:0:
216,192,117219,1,0,0:0:0:0:
216,192,117372,1,0,0:0:0:0:
296,192,117525,1,8,0:0:0:0:
216,192,117678,1,0,0:0:0:0:
216,192,117831,1,0,0:0:0:0:
216,192,117984,1,0,0:0:0:0:
296,192,118137,1,12,0:0:0:0:
216,192,118290,1,0,0:0:0:0:
216,192,118443,1,0,0:0:0:0:
216,192,118597,1,0,0:0:0:0:
296,192,118750,1,12,0:0:0:0:
216,192,119056,1,4,0:0:0:0:
296,192,119362,1,8,0:0:0:0:
216,192,119515,1,0,0:0:0:0:
216,192,119668,1,0,0:0:0:0:
216,192,119821,1,0,0:0:0:0:
296,192,119974,1,8,0:0:0:0:
216,192,120127,1,0,0:0:0:0:
216,192,120280,1,0,0:0:0:0:
216,192,120433,1,0,0:0:0:0:
216,192,120586,1,0,0:0:0:0:
216,192,120739,1,0,0:0:0:0:
216,192,120892,1,0,0:0:0:0:
216,192,121046,1,0,0:0:0:0:
296,192,121199,1,8,0:0:0:0:
216,192,121352,1,0,0:0:0:0:
216,192,121505,1,0,0:0:0:0:
216,192,121811,1,0,0:0:0:0:
296,192,121964,1,8,0:0:0:0:
216,192,122270,1,0,0:0:0:0:
216,192,122423,1,0,0:0:0:0:
296,192,122576,1,8,0:0:0:0:
216,192,122729,1,0,0:0:0:0:
216,192,123035,1,0,0:0:0:0:
296,192,123188,1,8,0:0:0:0:
216,192,123341,1,0,0:0:0:0:
216,192,123494,1,0,0:0:0:0:
296,192,123648,1,8,0:0:0:0:
296,192,123801,1,8,0:0:0:0:
216,192,123954,1,0,0:0:0:0:
296,192,124260,1,8,0:0:0:0:
216,192,124566,1,0,0:0:0:0:
216,192,124719,1,0,0:0:0:0:
296,192,124872,1,8,0:0:0:0:
216,192,125178,1,0,0:0:0:0:
296,192,125484,1,8,0:0:0:0:
216,192,125790,1,0,0:0:0:0:
296,192,125943,1,8,0:0:0:0:
296,192,126097,1,8,0:0:0:0:
216,192,126403,1,0,0:0:0:0:
296,192,126709,1,8,0:0:0:0:
216,192,127015,1,0,0:0:0:0:
216,192,127168,1,0,0:0:0:0:
296,192,127321,1,8,0:0:0:0:
216,192,127474,1,0,0:0:0:0:
216,192,127780,1,0,0:0:0:0:
296,192,127933,1,8,0:0:0:0:
216,192,128239,1,0,0:0:0:0:
296,192,128392,1,8,0:0:0:0:
296,192,128546,1,8,0:0:0:0:
216,192,128699,1,0,0:0:0:0:
216,192,128852,1,0,0:0:0:0:
296,192,129158,1,8,0:0:0:0:
216,192,129464,1,0,0:0:0:0:
216,192,129617,1,0,0:0:0:0:
296,192,129770,1,8,0:0:0:0:
216,192,130076,1,0,0:0:0:0:
216,192,130229,1,0,0:0:0:0:
296,192,130382,1,8,0:0:0:0:
216,192,130535,1,0,0:0:0:0:
296,192,130841,1,8,0:0:0:0:
296,192,130994,1,8,0:0:0:0:
216,192,131301,1,0,0:0:0:0:
216,192,131454,1,0,0:0:0:0:
296,192,131607,1,8,0:0:0:0:
216,192,131913,1,0,0:0:0:0:
216,192,132066,1,0,0:0:0:0:
296,192,132219,1,8,0:0:0:0:
216,192,132525,1,0,0:0:0:0:
216,192,132678,1,0,0:0:0:0:
296,192,132831,1,8,0:0:0:0:
216,192,132984,1,0,0:0:0:0:
296,192,133290,1,8,0:0:0:0:
296,192,133443,1,8,0:0:0:0:
216,192,133750,1,0,0:0:0:0:
216,192,133903,1,0,0:0:0:0:
296,192,134056,1,12,0:0:0:0:
216,192,134362,1,0,0:0:0:0:
216,192,134515,1,0,0:0:0:0:
296,192,134668,1,12,0:0:0:0:
216,192,134974,1,0,0:0:0:0:
296,192,135127,1,8,0:0:0:0:
296,192,135204,1,8,0:0:0:0:
216,192,135280,1,0,0:0:0:0:
216,192,135357,1,0,0:0:0:0:
296,192,135433,1,8,0:0:0:0:
216,192,135510,1,0,0:0:0:0:
296,192,135586,1,8,0:0:0:0:
296,192,135663,1,8,0:0:0:0:
216,192,135739,1,0,0:0:0:0:
296,192,135816,1,8,0:0:0:0:
216,192,135892,1,0,0:0:0:0:
216,192,135969,1,0,0:0:0:0:
296,192,136046,1,8,0:0:0:0:
216,192,136122,1,0,0:0:0:0:
216,192,136199,1,8,0:0:0:0:
216,192,136352,1,0,0:0:0:0:
296,192,136505,1,8,0:0:0:0:
216,192,136811,1,0,0:0:0:0:
216,192,136964,1,0,0:0:0:0:
296,192,137117,1,8,0:0:0:0:
216,192,137423,1,0,0:0:0:0:
216,192,137576,1,0,0:0:0:0:
296,192,137729,1,8,0:0:0:0:
216,192,137882,1,0,0:0:0:0:
216,192,138035,1,0,0:0:0:0:
216,192,138188,1,0,0:0:0:0:
296,192,138341,1,8,0:0:0:0:
216,192,138494,1,0,0:0:0:0:
296,192,138648,1,8,0:0:0:0:
296,192,138801,1,8,0:0:0:0:
216,192,138954,1,0,0:0:0:0:
296,192,139260,1,8,0:0:0:0:
296,192,139413,1,8,0:0:0:0:
216,192,139566,1,0,0:0:0:0:
296,192,139872,1,8,0:0:0:0:
296,192,140025,1,8,0:0:0:0:
216,192,140178,1,0,0:0:0:0:
216,192,140331,1,0,0:0:0:0:
216,192,140484,1,0,0:0:0:0:
216,192,140637,1,0,0:0:0:0:
296,192,140790,1,8,0:0:0:0:
296,192,140943,1,8,0:0:0:0:
216,192,141097,1,0,0:0:0:0:
216,192,141250,1,0,0:0:0:0:
296,192,141403,1,8,0:0:0:0:
216,192,141709,1,0,0:0:0:0:
216,192,141862,1,0,0:0:0:0:
296,192,142015,1,8,0:0:0:0:
216,192,142321,1,0,0:0:0:0:
216,192,142474,1,0,0:0:0:0:
296,192,142627,1,8,0:0:0:0:
216,192,142780,1,0,0:0:0:0:
216,192,143086,1,0,0:0:0:0:
296,192,143239,1,8,0:0:0:0:
216,192,143392,1,0,0:0:0:0:
216,192,143546,1,0,0:0:0:0:
216,192,143699,1,0,0:0:0:0:
296,192,143852,1,12,0:0:0:0:
216,192,144158,1,0,0:0:0:0:
216,192,144311,1,0,0:0:0:0:
296,192,144464,1,12,0:0:0:0:
216,192,144770,1,0,0:0:0:0:
216,192,144923,1,0,0:0:0:0:
296,192,145076,1,12,0:0:0:0:
256,192,145382,12,0,149438,0:0:0:0:
216,192,154136,5,4,0:0:0:0:
216,192,154442,1,4,0:0:0:0:
216,192,154748,1,4,0:0:0:0:
296,192,155054,1,12,0:0:0:0:
216,192,155360,1,4,0:0:0:0:
216,192,155513,1,0,0:0:0:0:
296,192,155666,1,8,0:0:0:0:
216,192,155972,1,0,0:0:0:0:
216,192,156125,1,0,0:0:0:0:
296,192,156278,1,8,0:0:0:0:
216,192,156584,1,0,0:0:0:0:
216,192,156738,1,0,0:0:0:0:
296,192,156891,1,8,0:0:0:0:
216,192,157044,1,0,0:0:0:0:
216,192,157197,1,0,0:0:0:0:
216,192,157350,1,0,0:0:0:0:
296,192,157503,1,8,0:0:0:0:
296,192,157656,1,8,0:0:0:0:
296,192,157732,1,8,0:0:0:0:
216,192,157809,1,0,0:0:0:0:
216,192,157962,1,0,0:0:0:0:
296,192,158115,1,8,0:0:0:0:
216,192,158421,1,0,0:0:0:0:
216,192,158574,1,0,0:0:0:0:
296,192,158727,1,8,0:0:0:0:
216,192,159033,1,0,0:0:0:0:
216,192,159187,1,0,0:0:0:0:
296,192,159340,1,8,0:0:0:0:
216,192,159493,1,0,0:0:0:0:
216,192,159646,1,0,0:0:0:0:
216,192,159799,1,0,0:0:0:0:
296,192,159952,1,8,0:0:0:0:
296,192,160105,1,8,0:0:0:0:
296,192,160181,1,8,0:0:0:0:
216,192,160258,1,0,0:0:0:0:
216,192,160411,1,0,0:0:0:0:
296,192,160564,1,8,0:0:0:0:
296,192,160717,1,8,0:0:0:0:
296,192,160794,1,8,0:0:0:0:
216,192,160870,1,0,0:0:0:0:
216,192,161023,1,0,0:0:0:0:
296,192,161176,1,8,0:0:0:0:
216,192,161482,1,0,0:0:0:0:
216,192,161636,1,0,0:0:0:0:
296,192,161789,1,8,0:0:0:0:
216,192,161942,1,0,0:0:0:0:
216,192,162095,1,0,0:0:0:0:
216,192,162248,1,0,0:0:0:0:
296,192,162401,1,8,0:0:0:0:
216,192,162554,1,0,0:0:0:0:
216,192,162707,5,4,0:0:0:0:
216,192,162860,1,0,0:0:0:0:
296,192,163013,1,8,0:0:0:0:
216,192,163166,1,0,0:0:0:0:
216,192,163319,1,4,0:0:0:0:
216,192,163472,1,0,0:0:0:0:
296,192,163625,1,8,0:0:0:0:
216,192,163778,1,0,0:0:0:0:
216,192,163931,1,4,0:0:0:0:
216,192,164084,1,0,0:0:0:0:
216,192,164161,1,0,0:0:0:0:
296,192,164238,1,8,0:0:0:0:
216,192,164314,1,0,0:0:0:0:
296,192,164391,1,8,0:0:0:0:
216,192,164467,1,0,0:0:0:0:
216,192,164544,1,0,0:0:0:0:
296,192,164620,1,8,0:0:0:0:
216,192,164697,1,0,0:0:0:0:
296,192,164773,1,8,0:0:0:0:
296,192,164850,1,8,0:0:0:0:
216,192,164926,1,0,0:0:0:0:
296,192,165003,1,8,0:0:0:0:
296,192,165079,1,8,0:0:0:0:
216,192,165156,1,0,0:0:0:0:
216,192,165309,1,0,0:0:0:0:
296,192,165462,1,8,0:0:0:0:
216,192,165615,1,0,0:0:0:0:
216,192,165692,1,0,0:0:0:0:
216,192,165768,1,0,0:0:0:0:
216,192,165845,1,0,0:0:0:0:
216,192,165921,1,0,0:0:0:0:
296,192,166074,1,8,0:0:0:0:
216,192,166227,1,0,0:0:0:0:
216,192,166380,1,0,0:0:0:0:
216,192,166533,1,0,0:0:0:0:
296,192,166687,1,8,0:0:0:0:
216,192,166840,1,0,0:0:0:0:
296,192,166916,1,8,0:0:0:0:
216,192,166993,1,0,0:0:0:0:
216,192,167069,1,0,0:0:0:0:
216,192,167146,1,0,0:0:0:0:
296,192,167299,1,8,0:0:0:0:
216,192,167452,1,0,0:0:0:0:
216,192,167605,1,0,0:0:0:0:
216,192,167758,1,0,0:0:0:0:
296,192,167911,1,8,0:0:0:0:
216,192,168064,1,0,0:0:0:0:
216,192,168141,1,0,0:0:0:0:
296,192,168217,1,8,0:0:0:0:
216,192,168294,1,0,0:0:0:0:
216,192,168370,1,0,0:0:0:0:
296,192,168523,1,8,0:0:0:0:
216,192,168676,1,0,0:0:0:0:
296,192,168829,1,8,0:0:0:0:
296,192,168906,1,8,0:0:0:0:
296,192,168982,1,8,0:0:0:0:
216,192,169136,1,0,0:0:0:0:
216,192,169212,1,0,0:0:0:0:
216,192,169289,1,0,0:0:0:0:
296,192,169442,1,8,0:0:0:0:
296,192,169518,1,8,0:0:0:0:
296,192,169595,1,8,0:0:0:0:
216,192,169748,1,0,0:0:0:0:
216,192,169824,1,0,0:0:0:0:
216,192,169901,1,0,0:0:0:0:
216,192,170054,1,0,0:0:0:0:
216,192,170207,1,0,0:0:0:0:
296,192,170360,1,8,0:0:0:0:
296,192,170513,1,8,0:0:0:0:
296,192,170590,1,8,0:0:0:0:
216,192,170666,1,0,0:0:0:0:
296,192,170743,1,8,0:0:0:0:
216,192,170819,1,0,0:0:0:0:
296,192,170972,1,8,0:0:0:0:
216,192,171125,1,0,0:0:0:0:
216,192,171278,1,0,0:0:0:0:
216,192,171431,1,0,0:0:0:0:
216,192,171508,1,0,0:0:0:0:
296,192,171584,1,8,0:0:0:0:
216,192,171738,1,0,0:0:0:0:
216,192,171891,1,0,0:0:0:0:
216,192,172044,1,0,0:0:0:0:
216,192,172120,1,0,0:0:0:0:
296,192,172197,1,8,0:0:0:0:
216,192,172350,1,0,0:0:0:0:
296,192,172503,1,12,0:0:0:0:
296,192,172656,1,8,0:0:0:0:
296,192,172732,1,8,0:0:0:0:
296,192,172809,1,8,0:0:0:0:
216,192,172962,1,0,0:0:0:0:
296,192,173115,1,12,0:0:0:0:
296,192,173268,1,8,0:0:0:0:
296,192,173345,1,8,0:0:0:0:
296,192,173421,1,8,0:0:0:0:
216,192,173574,1,0,0:0:0:0:
296,192,173727,1,12,0:0:0:0:
296,192,173880,1,8,0:0:0:0:
296,192,173957,1,8,0:0:0:0:
296,192,174033,1,8,0:0:0:0:
216,192,174187,1,0,0:0:0:0:
216,192,174340,1,0,0:0:0:0:
296,192,174493,1,8,0:0:0:0:
296,192,174569,1,8,0:0:0:0:
216,192,174646,1,8,0:0:0:0:
296,192,174722,1,8,0:0:0:0:
216,192,174799,1,0,0:0:0:0:
296,192,174875,1,8,0:0:0:0:
216,192,174952,1,0,0:0:0:0:
216,192,175105,1,0,0:0:0:0:
296,192,175258,1,8,0:0:0:0:
216,192,175411,1,0,0:0:0:0:
216,192,175564,1,0,0:0:0:0:
296,192,175870,1,8,0:0:0:0:
216,192,176176,1,0,0:0:0:0:
216,192,176329,1,0,0:0:0:0:
296,192,176482,1,8,0:0:0:0:
216,192,176636,1,0,0:0:0:0:
216,192,176789,1,0,0:0:0:0:
296,192,176942,1,8,0:0:0:0:
296,192,177095,1,8,0:0:0:0:
216,192,177401,1,0,0:0:0:0:
216,192,177554,1,0,0:0:0:0:
296,192,177707,1,8,0:0:0:0:
216,192,177860,1,0,0:0:0:0:
216,192,178013,1,0,0:0:0:0:
216,192,178166,1,0,0:0:0:0:
296,192,178319,1,8,0:0:0:0:
216,192,178625,1,0,0:0:0:0:
216,192,178778,1,0,0:0:0:0:
296,192,178931,1,12,0:0:0:0:
216,192,179084,1,0,0:0:0:0:
216,192,179238,1,4,0:0:0:0:
216,192,179391,1,0,0:0:0:0:
296,192,179544,1,12,0:0:0:0:
216,192,179697,1,0,0:0:0:0:
216,192,179850,1,4,0:0:0:0:
296,192,180156,1,8,0:0:0:0:
216,192,180309,1,0,0:0:0:0:
216,192,180462,1,0,0:0:0:0:
216,192,180615,1,0,0:0:0:0:
296,192,180768,1,8,0:0:0:0:
216,192,180921,1,0,0:0:0:0:
216,192,181074,1,0,0:0:0:0:
296,192,181380,1,8,0:0:0:0:
216,192,181533,1,0,0:0:0:0:
216,192,181687,1,0,0:0:0:0:
216,192,181840,1,0,0:0:0:0:
296,192,181993,1,8,0:0:0:0:
296,192,182146,1,8,0:0:0:0:
216,192,182299,1,0,0:0:0:0:
216,192,182452,1,0,0:0:0:0:
296,192,182605,1,12,0:0:0:0:
216,192,182911,1,0,0:0:0:0:
216,192,183064,1,0,0:0:0:0:
296,192,183217,1,12,0:0:0:0:
216,192,183523,1,0,0:0:0:0:
216,192,183600,1,0,0:0:0:0:
296,192,183676,1,8,0:0:0:0:
216,192,183753,1,0,0:0:0:0:
216,192,183829,1,0,0:0:0:0:
296,192,183906,1,8,0:0:0:0:
216,192,183982,1,0,0:0:0:0:
296,192,184059,1,8,0:0:0:0:
216,192,184136,1,0,0:0:0:0:
296,192,184212,1,8,0:0:0:0:
296,192,184289,1,8,0:0:0:0:
216,192,184365,1,0,0:0:0:0:
296,192,184442,1,8,0:0:0:0:
216,192,184518,1,0,0:0:0:0:
216,192,184595,1,0,0:0:0:0:
296,192,184671,1,8,0:0:0:0:
296,192,184748,5,8,0:0:0:0:
216,192,184901,1,0,0:0:0:0:
296,192,185054,1,8,0:0:0:0:
216,192,185207,1,0,0:0:0:0:
216,192,185283,1,0,0:0:0:0:
296,192,185360,1,8,0:0:0:0:
216,192,185513,1,0,0:0:0:0:
296,192,185666,1,8,0:0:0:0:
216,192,185819,1,0,0:0:0:0:
296,192,185972,1,12,0:0:0:0:
216,192,186125,1,0,0:0:0:0:
296,192,186278,1,8,0:0:0:0:
216,192,186431,1,0,0:0:0:0:
216,192,186508,1,0,0:0:0:0:
296,192,186584,1,8,0:0:0:0:
216,192,186738,1,0,0:0:0:0:
296,192,186891,1,8,0:0:0:0:
216,192,187044,1,0,0:0:0:0:
296,192,187197,1,12,0:0:0:0:
216,192,187350,1,0,0:0:0:0:
296,192,187503,1,8,0:0:0:0:
216,192,187656,1,0,0:0:0:0:
216,192,187732,1,0,0:0:0:0:
296,192,187809,1,8,0:0:0:0:
216,192,187962,1,0,0:0:0:0:
296,192,188115,1,8,0:0:0:0:
216,192,188268,1,0,0:0:0:0:
296,192,188421,1,12,0:0:0:0:
216,192,188574,1,0,0:0:0:0:
296,192,188727,1,12,0:0:0:0:
216,192,188880,1,0,0:0:0:0:
216,192,188957,1,0,0:0:0:0:
296,192,189033,1,8,0:0:0:0:
216,192,189187,1,0,0:0:0:0:
296,192,189340,1,8,0:0:0:0:
216,192,189493,1,0,0:0:0:0:
216,192,189569,1,0,0:0:0:0:
296,192,189646,1,8,0:0:0:0:
216,192,189799,1,0,0:0:0:0:
296,192,189952,1,12,0:0:0:0:
216,192,190105,1,0,0:0:0:0:
216,192,190181,1,0,0:0:0:0:
296,192,190258,1,8,0:0:0:0:
216,192,190411,1,0,0:0:0:0:
296,192,190564,1,12,0:0:0:0:
216,192,190717,1,0,0:0:0:0:
216,192,190794,1,0,0:0:0:0:
296,192,190870,1,8,0:0:0:0:
216,192,191023,1,0,0:0:0:0:
296,192,191176,1,12,0:0:0:0:
216,192,191329,1,0,0:0:0:0:
216,192,191406,1,0,0:0:0:0:
296,192,191482,1,8,0:0:0:0:
216,192,191636,1,0,0:0:0:0:
296,192,191789,1,12,0:0:0:0:
216,192,191942,1,0,0:0:0:0:
216,192,192018,1,0,0:0:0:0:
296,192,192095,5,8,0:0:0:0:
216,192,192248,1,0,0:0:0:0:
216,192,192324,1,0,0:0:0:0:
296,192,192401,1,8,0:0:0:0:
216,192,192554,1,0,0:0:0:0:
216,192,192630,1,0,0:0:0:0:
296,192,192707,1,8,0:0:0:0:
216,192,192860,1,0,0:0:0:0:
216,192,192937,1,0,0:0:0:0:
296,192,193013,1,8,0:0:0:0:
216,192,193166,1,0,0:0:0:0:
216,192,193243,1,0,0:0:0:0:
296,192,193319,1,8,0:0:0:0:
216,192,193472,1,0,0:0:0:0:
216,192,193549,1,0,0:0:0:0:
296,192,193625,1,8,0:0:0:0:
216,192,193778,1,0,0:0:0:0:
216,192,193855,1,0,0:0:0:0:
296,192,193931,1,8,0:0:0:0:
216,192,194008,1,0,0:0:0:0:
296,192,194084,1,8,0:0:0:0:
296,192,194161,1,8,0:0:0:0:
216,192,194238,1,0,0:0:0:0:
216,192,194314,1,0,0:0:0:0:
296,192,194391,1,8,0:0:0:0:
296,192,194467,1,8,0:0:0:0:
216,192,194544,1,0,0:0:0:0:
256,192,194850,12,8,199748,0:0:0:0:
