osu file format v12

[General]
AudioFilename: Rise Against - Prayer of the Refugee.mp3
AudioLeadIn: 2000
PreviewTime: 83725
Countdown: 0
SampleSet: Normal
StackLeniency: 0.7
Mode: 1
LetterboxInBreaks: 0
WidescreenStoryboard: 1

[Editor]
DistanceSpacing: 0.9
BeatDivisor: 4
GridSize: 8

[Metadata]
Title:Prayer of the Refugee
TitleUnicode:Prayer of the Refugee
Artist:Rise Against
ArtistUnicode:Rise Against
Creator:Nashmun
Version:Futsuu
Source:
Tags:LZD The Sufferer & the Witness Punk
BeatmapID:287967
BeatmapSetID:110554

[Difficulty]
HPDrainRate:4
CircleSize:5
OverallDifficulty:4
ApproachRate:5
SliderMultiplier:1.2
SliderTickRate:1

[Events]
//Background and Video events
0,0,"bg.jpg",0,0
//Break Periods
//Storyboard Layer 0 (Background)
//Storyboard Layer 1 (Fail)
//Storyboard Layer 2 (Pass)
//Storyboard Layer 3 (Foreground)
//Storyboard Sound Samples
//Background Colour Transformations
3,100,163,162,255

[TimingPoints]
509,398.671096345515,4,1,0,80,1,0
19636,397.088021178028,4,1,0,80,1,0
30760,306.122448979592,4,1,0,80,1,8
31984,-100,4,1,0,80,0,1
50964,-100,4,1,0,80,0,0
53346,397.350993377483,4,1,0,80,1,8
83546,306.122448979592,4,1,0,80,1,8
84770,-100,4,1,0,80,0,1
104362,-100,4,1,0,80,0,0
149406,397.851601352695,4,1,0,80,1,8
154136,306.122448979592,4,1,0,80,1,8
155360,-100,4,1,0,80,0,1
184748,-100,4,1,0,80,0,0

[Colours]
Combo1 : 0,0,255
Combo2 : 255,128,0

[HitObjects]
216,192,6887,1,0,0:0:0:0:
216,192,7685,1,0,0:0:0:0:
216,192,8482,1,0,0:0:0:0:
296,192,8881,1,8,0:0:0:0:
216,192,9279,1,0,0:0:0:0:
216,192,10077,1,0,0:0:0:0:
216,192,10475,1,0,0:0:0:0:
408,144,10874,1,8,0:0:0:0:
408,144,11273,1,8,0:0:0:0:
408,144,12070,1,8,0:0:0:0:
408,144,12668,1,12,0:0:0:0:
408,144,13067,1,12,0:0:0:0:
216,192,13266,1,0,0:0:0:0:
408,144,13665,1,8,0:0:0:0:
216,192,14462,1,0,0:0:0:0:
408,144,15259,1,8,0:0:0:0:
408,144,15658,1,8,0:0:0:0:
408,144,16057,1,8,0:0:0:0:
216,192,16455,1,0,0:0:0:0:
408,144,16854,1,8,0:0:0:0:
408,144,17651,1,8,0:0:0:0:
408,144,18449,1,8,0:0:0:0:
216,192,18847,1,0,0:0:0:0:
408,144,19246,1,8,0:0:0:0:
216,192,19636,1,4,0:0:0:0:
216,192,20430,1,0,0:0:0:0:
408,144,20827,1,8,0:0:0:0:
216,192,21224,1,0,0:0:0:0:
408,144,22018,1,8,0:0:0:0:
408,144,22812,1,8,0:0:0:0:
216,192,23606,1,0,0:0:0:0:
408,144,24003,1,8,0:0:0:0:
408,144,24401,1,8,0:0:0:0:
216,192,25195,1,0,0:0:0:0:
408,144,25393,1,12,0:0:0:0:
408,144,25790,1,12,0:0:0:0:
216,192,25989,1,0,0:0:0:0:
408,144,26386,1,8,0:0:0:0:
216,192,26783,1,0,0:0:0:0:
408,144,27180,1,8,0:0:0:0:
408,144,27974,1,8,0:0:0:0:
216,192,28371,1,0,0:0:0:0:
216,192,28769,1,0,0:0:0:0:
408,144,29563,1,8,0:0:0:0:
216,192,29960,1,0,0:0:0:0:
408,144,30357,1,8,0:0:0:0:
216,192,30754,1,0,0:0:0:0:
216,192,31984,1,4,0:0:0:0:
408,144,32596,1,8,0:0:0:0:
216,192,33208,1,0,0:0:0:0:
216,192,33515,1,0,0:0:0:0:
408,144,33821,1,8,0:0:0:0:
216,192,34127,1,0,0:0:0:0:
216,192,34433,1,0,0:0:0:0:
408,144,35045,1,8,0:0:0:0:
216,192,35657,1,0,0:0:0:0:
408,144,35964,1,8,0:0:0:0:
408,144,36270,1,8,0:0:0:0:
216,192,36576,1,0,0:0:0:0:
216,192,36882,1,0,0:0:0:0:
408,144,37494,1,8,0:0:0:0:
224,192,38106,1,0,0:0:0:0:
224,192,38413,1,0,0:0:0:0:
408,144,38719,1,8,0:0:0:0:
408,144,39025,1,8,0:0:0:0:
224,192,39331,1,4,0:0:0:0:
224,192,39943,1,4,0:0:0:0:
224,192,40555,1,4,0:0:0:0:
224,192,40862,1,0,0:0:0:0:
224,192,41168,1,0,0:0:0:0:
408,144,41474,1,8,0:0:0:0:
224,192,41780,5,0,0:0:0:0:
408,144,42392,1,8,0:0:0:0:
224,192,43004,1,0,0:0:0:0:
224,192,43311,1,0,0:0:0:0:
408,144,43617,1,8,0:0:0:0:
408,144,43923,1,8,0:0:0:0:
224,192,44229,1,0,0:0:0:0:
408,144,44841,1,8,0:0:0:0:
224,192,45453,1,0,0:0:0:0:
408,144,45760,1,8,0:0:0:0:
224,192,46066,1,0,0:0:0:0:
224,192,46372,1,0,0:0:0:0:
408,144,46678,1,8,0:0:0:0:
408,144,47290,1,8,0:0:0:0:
224,192,47902,1,0,0:0:0:0:
224,192,48208,1,0,0:0:0:0:
408,144,48515,1,8,0:0:0:0:
224,192,48821,1,0,0:0:0:0:
224,192,49127,1,4,0:0:0:0:
224,192,49739,1,4,0:0:0:0:
224,192,50351,1,4,0:0:0:0:
256,192,50964,12,0,53346,0:0:0:0:
224,192,59703,5,0,0:0:0:0:
408,144,60100,1,8,0:0:0:0:
408,144,60895,1,8,0:0:0:0:
224,192,61293,1,0,0:0:0:0:
408,144,61690,1,8,0:0:0:0:
408,144,62485,1,8,0:0:0:0:
224,192,62882,1,0,0:0:0:0:
408,144,63279,1,8,0:0:0:0:
408,144,64074,1,8,0:0:0:0:
408,144,64869,1,8,0:0:0:0:
408,144,65465,1,12,0:0:0:0:
408,144,65862,1,12,0:0:0:0:
224,192,66061,1,0,0:0:0:0:
408,144,66458,1,8,0:0:0:0:
224,192,66855,1,0,0:0:0:0:
408,144,67253,1,8,0:0:0:0:
408,144,68047,1,8,0:0:0:0:
224,192,68445,1,0,0:0:0:0:
408,144,68842,1,8,0:0:0:0:
408,144,69637,1,8,0:0:0:0:
408,144,70432,1,8,0:0:0:0:
408,144,71226,1,8,0:0:0:0:
224,192,71624,1,0,0:0:0:0:
408,144,72021,1,8,0:0:0:0:
224,192,72418,1,4,0:0:0:0:
224,192,73213,1,0,0:0:0:0:
224,192,74008,1,0,0:0:0:0:
408,144,74405,1,8,0:0:0:0:
408,144,74802,1,8,0:0:0:0:
408,144,75597,1,8,0:0:0:0:
224,192,76392,1,0,0:0:0:0:
408,144,77187,1,8,0:0:0:0:
224,192,77981,1,0,0:0:0:0:
408,144,78180,1,12,0:0:0:0:
408,144,78577,1,12,0:0:0:0:
224,192,78776,1,0,0:0:0:0:
408,144,79173,1,8,0:0:0:0:
224,192,79571,1,0,0:0:0:0:
408,144,79968,1,8,0:0:0:0:
408,144,80763,1,8,0:0:0:0:
224,192,81557,1,0,0:0:0:0:
224,192,81955,1,0,0:0:0:0:
224,192,82352,1,0,0:0:0:0:
224,192,82948,1,8,0:0:0:0:
224,192,83147,1,8,0:0:0:0:
224,192,83544,1,4,0:0:0:0:
224,192,84770,1,0,0:0:0:0:
408,144,85382,1,8,0:0:0:0:
224,192,85994,1,0,0:0:0:0:
224,192,86301,1,0,0:0:0:0:
408,144,86607,1,8,0:0:0:0:
408,144,86913,1,8,0:0:0:0:
224,192,87219,1,0,0:0:0:0:
408,144,87831,1,8,0:0:0:0:
224,192,88443,1,0,0:0:0:0:
408,144,88750,1,8,0:0:0:0:
408,144,89056,1,8,0:0:0:0:
408,144,89362,1,8,0:0:0:0:
224,192,89668,1,0,0:0:0:0:
408,144,90280,1,8,0:0:0:0:
224,192,90892,1,0,0:0:0:0:
224,192,91199,1,0,0:0:0:0:
408,144,91505,1,8,0:0:0:0:
408,144,91811,1,8,0:0:0:0:
224,192,92117,1,4,0:0:0:0:
224,192,92729,1,4,0:0:0:0:
224,192,93341,1,4,0:0:0:0:
224,192,93648,1,0,0:0:0:0:
224,192,93954,1,0,0:0:0:0:
408,144,94260,1,8,0:0:0:0:
224,192,94566,1,0,0:0:0:0:
408,144,95178,1,8,0:0:0:0:
224,192,95790,1,0,0:0:0:0:
224,192,96097,1,0,0:0:0:0:
408,144,96403,1,8,0:0:0:0:
408,144,96709,1,8,0:0:0:0:
224,192,97015,1,0,0:0:0:0:
408,144,97627,1,8,0:0:0:0:
224,192,98239,1,0,0:0:0:0:
408,144,98546,1,8,0:0:0:0:
224,192,98852,1,0,0:0:0:0:
408,144,99158,1,8,0:0:0:0:
224,192,99464,1,0,0:0:0:0:
408,144,100076,1,8,0:0:0:0:
224,192,100688,1,0,0:0:0:0:
224,192,100994,1,0,0:0:0:0:
408,144,101301,1,8,0:0:0:0:
224,192,101607,1,0,0:0:0:0:
224,192,101913,5,4,0:0:0:0:
224,192,102525,1,4,0:0:0:0:
224,192,103137,1,4,0:0:0:0:
224,192,104362,1,4,0:0:0:0:
408,144,104974,1,8,0:0:0:0:
224,192,105280,1,0,0:0:0:0:
224,192,105586,1,0,0:0:0:0:
408,144,106199,1,8,0:0:0:0:
320,96,106505,1,8,0:0:0:0:
224,192,106811,1,4,0:0:0:0:
320,96,107423,1,8,0:0:0:0:
224,192,107729,1,0,0:0:0:0:
224,192,108035,1,0,0:0:0:0:
320,96,108341,5,12,0:0:0:0:
320,96,108954,1,12,0:0:0:0:
224,192,109260,1,0,0:0:0:0:
224,192,109872,1,0,0:0:0:0:
320,96,110178,1,8,0:0:0:0:
224,192,110484,1,0,0:0:0:0:
320,96,111097,1,8,0:0:0:0:
320,96,111403,1,8,0:0:0:0:
224,192,111709,1,0,0:0:0:0:
320,96,112321,1,8,0:0:0:0:
224,192,112933,1,0,0:0:0:0:
320,96,113239,5,12,0:0:0:0:
320,96,113852,1,12,0:0:0:0:
224,192,114158,1,0,0:0:0:0:
320,96,114770,1,8,0:0:0:0:
224,192,115382,1,0,0:0:0:0:
224,192,115688,1,0,0:0:0:0:
320,96,115994,1,8,0:0:0:0:
224,192,116607,1,4,0:0:0:0:
224,192,117219,1,0,0:0:0:0:
224,192,117831,1,0,0:0:0:0:
320,96,118137,5,12,0:0:0:0:
320,96,118750,1,12,0:0:0:0:
224,192,119056,1,0,0:0:0:0:
224,192,119668,1,0,0:0:0:0:
224,192,119974,1,0,0:0:0:0:
320,96,120280,1,8,0:0:0:0:
224,192,120892,1,0,0:0:0:0:
320,96,121199,1,8,0:0:0:0:
224,192,121505,1,4,0:0:0:0:
224,192,122117,1,0,0:0:0:0:
224,192,122729,1,4,0:0:0:0:
224,192,123188,1,4,0:0:0:0:
224,192,123648,1,4,0:0:0:0:
224,192,123954,1,0,0:0:0:0:
320,152,124260,1,8,0:0:0:0:
224,192,124566,1,0,0:0:0:0:
224,192,125178,1,0,0:0:0:0:
344,88,125484,1,8,0:0:0:0:
224,192,125790,1,0,0:0:0:0:
392,176,125943,1,8,0:0:0:0:
392,176,126097,1,8,0:0:0:0:
224,192,126403,1,0,0:0:0:0:
416,64,126709,1,8,0:0:0:0:
224,192,127015,1,0,0:0:0:0:
304,112,127627,1,8,0:0:0:0:
304,112,127933,1,8,0:0:0:0:
224,192,128239,1,0,0:0:0:0:
304,112,128546,1,8,0:0:0:0:
224,192,128852,1,0,0:0:0:0:
304,112,129158,1,8,0:0:0:0:
224,192,129464,1,0,0:0:0:0:
224,192,130076,1,0,0:0:0:0:
224,192,130382,1,0,0:0:0:0:
304,112,130688,1,8,0:0:0:0:
304,112,130841,1,8,0:0:0:0:
224,192,130994,1,0,0:0:0:0:
224,192,131301,1,0,0:0:0:0:
304,112,131607,1,8,0:0:0:0:
304,112,131913,1,0,0:0:0:0:
224,192,132525,1,0,0:0:0:0:
304,112,132831,1,8,0:0:0:0:
304,112,133137,1,8,0:0:0:0:
304,112,133750,1,0,0:0:0:0:
224,192,134362,1,0,0:0:0:0:
224,192,134974,1,0,0:0:0:0:
224,192,135280,1,0,0:0:0:0:
304,112,135586,1,8,0:0:0:0:
304,112,135739,1,8,0:0:0:0:
304,112,135892,1,8,0:0:0:0:
312,104,136199,1,8,0:0:0:0:
224,192,136811,1,0,0:0:0:0:
312,104,137423,1,8,0:0:0:0:
312,104,137729,1,8,0:0:0:0:
224,192,138035,1,0,0:0:0:0:
224,192,138188,1,0,0:0:0:0:
224,192,138341,1,0,0:0:0:0:
312,104,138648,1,8,0:0:0:0:
224,192,139260,1,0,0:0:0:0:
224,192,139872,1,0,0:0:0:0:
224,192,140178,1,0,0:0:0:0:
312,104,140484,1,8,0:0:0:0:
312,104,140637,1,8,0:0:0:0:
312,104,140790,1,8,0:0:0:0:
224,192,141097,1,0,0:0:0:0:
312,104,141709,1,8,0:0:0:0:
224,192,142321,1,0,0:0:0:0:
224,192,142627,1,0,0:0:0:0:
312,104,142933,1,8,0:0:0:0:
312,104,143086,1,8,0:0:0:0:
312,104,143239,1,8,0:0:0:0:
312,104,143546,1,12,0:0:0:0:
312,104,144158,1,12,0:0:0:0:
312,104,144770,1,12,0:0:0:0:
256,192,145382,12,0,149406,0:0:0:0:
216,192,154136,5,4,0:0:0:0:
216,192,155360,5,4,0:0:0:0:
408,144,155972,1,8,0:0:0:0:
216,192,156584,1,0,0:0:0:0:
216,192,156891,1,0,0:0:0:0:
408,144,157197,1,8,0:0:0:0:
216,192,157503,1,0,0:0:0:0:
216,192,157809,1,0,0:0:0:0:
216,192,158115,1,0,0:0:0:0:
408,144,158421,1,8,0:0:0:0:
216,192,159033,1,0,0:0:0:0:
408,144,159646,1,8,0:0:0:0:
216,192,160258,1,0,0:0:0:0:
216,192,160564,1,0,0:0:0:0:
408,144,160870,1,8,0:0:0:0:
216,192,161482,1,0,0:0:0:0:
408,144,162095,1,8,0:0:0:0:
408,144,162401,1,8,0:0:0:0:
216,192,162707,1,4,0:0:0:0:
216,192,163319,1,4,0:0:0:0:
216,192,163931,1,4,0:0:0:0:
216,192,164238,1,0,0:0:0:0:
216,192,164544,1,0,0:0:0:0:
408,144,164850,1,8,0:0:0:0:
216,192,165156,1,0,0:0:0:0:
408,144,165768,1,8,0:0:0:0:
216,192,166380,1,0,0:0:0:0:
216,192,166687,1,0,0:0:0:0:
408,144,166993,1,8,0:0:0:0:
216,192,167299,1,0,0:0:0:0:
216,192,167605,1,0,0:0:0:0:
408,144,168217,1,8,0:0:0:0:
216,192,168829,1,0,0:0:0:0:
216,192,169136,1,0,0:0:0:0:
216,192,169442,1,0,0:0:0:0:
216,192,169748,1,0,0:0:0:0:
216,192,170054,1,8,0:0:0:0:
408,144,170666,1,8,0:0:0:0:
208,192,171278,1,0,0:0:0:0:
208,192,171584,1,0,0:0:0:0:
408,144,171891,1,8,0:0:0:0:
208,192,172197,1,0,0:0:0:0:
208,192,172503,5,4,0:0:0:0:
208,192,173115,1,4,0:0:0:0:
208,192,173727,1,4,0:0:0:0:
208,192,174033,1,0,0:0:0:0:
208,192,174340,1,0,0:0:0:0:
208,192,174646,1,0,0:0:0:0:
256,192,174952,12,0,177401,0:0:0:0:
384,104,178013,5,8,0:0:0:0:
208,192,178625,5,0,0:0:0:0:
208,192,178931,1,4,0:0:0:0:
208,192,179238,1,4,0:0:0:0:
208,112,179544,1,12,0:0:0:0:
256,192,179850,12,0,182299,0:0:0:0:
216,192,182911,5,4,0:0:0:0:
216,192,183523,1,4,0:0:0:0:
216,192,184136,1,4,0:0:0:0:
256,184,184442,1,12,0:0:0:0:
256,192,184748,12,0,187197,0:0:0:0:
256,184,187809,5,8,0:0:0:0:
256,184,188421,1,8,0:0:0:0:
216,192,188727,1,4,0:0:0:0:
256,184,189033,1,12,0:0:0:0:
216,192,189340,1,4,0:0:0:0:
256,192,189646,12,0,190870,0:0:0:0:
216,192,191176,5,0,0:0:0:0:
216,192,191482,1,0,0:0:0:0:
264,192,191789,1,8,0:0:0:0:
216,192,192095,5,4,0:0:0:0:
216,192,192707,1,4,0:0:0:0:
216,192,193319,1,4,0:0:0:0:
216,192,193931,1,4,0:0:0:0:
256,192,194544,12,0,199748,0:0:0:0:
