osu file format v14

[General]
AudioFilename: Rise Against - Prayer of the Refugee.mp3
AudioLeadIn: 0
PreviewTime: 155360
Countdown: 0
SampleSet: Soft
StackLeniency: 0.7
Mode: 0
LetterboxInBreaks: 0
WidescreenStoryboard: 0

[Editor]
Bookmarks: 40173
DistanceSpacing: 0.7
BeatDivisor: 4
GridSize: 4
TimelineZoom: 1.6

[Metadata]
Title:Prayer of the Refugee
TitleUnicode:Prayer of the Refugee
Artist:Rise Against
ArtistUnicode:Rise Against
Creator:EvilElvis
Version:Dawn
Source:
Tags:The_Sufferer_&_the_Witness Sieg AlexaBM Breadhunter Yales Zero__wind
BeatmapID:435994
BeatmapSetID:181689

[Difficulty]
HPDrainRate:7
CircleSize:4
OverallDifficulty:8
ApproachRate:9.3
SliderMultiplier:1.6
SliderTickRate:1

[Events]
//Background and Video events
0,0,"dtgjhetrjhe.jpg",0,0
//Break Periods
2,53546,58553
2,149606,153582
//Storyboard Layer 0 (Background)
//Storyboard Layer 1 (Fail)
//Storyboard Layer 2 (Pass)
//Storyboard Layer 3 (Foreground)
//Storyboard Sound Samples

[TimingPoints]
6890,398.671096345515,4,2,1,40,1,0
7288,-133.333333333333,4,2,1,40,0,0
19636,397.088021178028,4,2,1,60,1,0
19636,-66.6666666666667,4,2,1,60,0,1
19735,-66.6666666666667,4,2,1,60,0,0
20033,-83.3333333333333,4,2,1,60,0,0
30760,306.122448979592,4,2,1,60,1,8
30760,-200,4,2,2,60,0,8
30836,-200,4,2,2,40,0,8
31907,-200,4,2,1,100,0,8
31984,-90.9090909090909,4,1,1,70,0,9
39331,-200,4,2,1,60,0,8
39637,-90.9090909090909,4,2,1,60,0,8
39790,-90.9090909090909,4,2,1,60,0,9
39943,-76.9230769230769,4,2,1,60,0,9
40555,-76.9230769230769,4,1,1,50,0,8
41780,-76.9230769230769,4,1,1,70,0,9
42086,-90.9090909090909,4,1,1,70,0,9
49127,-200,4,2,1,60,0,8
49586,-200,4,2,1,60,0,9
49739,-76.9230769230769,4,2,1,60,0,9
50964,-200,4,2,1,60,0,8
51040,-200,4,2,2,10,0,8
53346,397.350993377483,4,2,1,30,1,8
59306,-200,4,2,1,60,0,8
59703,-100,4,2,1,40,0,8
72418,-83.3333333333333,4,2,1,60,0,9
72518,-83.3333333333333,4,2,1,60,0,8
83546,306.122448979592,4,2,1,60,1,8
84770,-90.9090909090909,4,1,1,70,0,9
92117,-200,4,2,1,60,0,8
92576,-200,4,2,1,60,0,9
92729,-76.9230769230769,4,2,1,60,0,9
93341,-76.9230769230769,4,1,1,50,0,8
94566,-76.9230769230769,4,1,1,70,0,9
101913,-200,4,2,1,60,0,8
102372,-66.6666666666667,4,2,1,60,0,9
103750,-66.6666666666667,4,2,1,50,0,8
104362,-133.333333333333,4,2,1,60,0,9
104438,-133.333333333333,4,2,1,60,0,8
104668,-100,4,1,1,50,0,8
106811,-133.333333333333,4,1,1,50,0,9
106887,-133.333333333333,4,1,1,50,0,8
108035,-100,4,2,1,60,0,8
108341,-66.6666666666667,4,2,0,60,0,9
108648,-66.6666666666667,4,2,1,60,0,8
108954,-66.6666666666667,4,2,0,60,0,9
109183,-66.6666666666667,4,2,0,60,0,8
109260,-133.333333333333,4,2,1,60,0,9
109336,-133.333333333333,4,2,1,60,0,8
109566,-100,4,1,1,60,0,8
111709,-133.333333333333,4,2,1,60,0,9
111785,-133.333333333333,4,2,1,60,0,8
112015,-100,4,1,1,60,0,8
113239,-66.6666666666667,4,2,0,60,0,9
113546,-66.6666666666667,4,2,1,60,0,8
113852,-66.6666666666667,4,2,0,60,0,9
113928,-66.6666666666667,4,2,0,60,0,8
114158,-133.333333333333,4,2,1,60,0,9
114234,-133.333333333333,4,2,1,60,0,8
114464,-90.9090909090909,4,1,1,60,0,8
118137,-66.6666666666667,4,2,0,60,0,9
118443,-66.6666666666667,4,2,1,60,0,8
118750,-66.6666666666667,4,2,0,60,0,9
118979,-66.6666666666667,4,2,0,60,0,8
119056,-200,4,1,1,60,0,9
119362,-90.9090909090909,4,1,1,60,0,8
121505,-200,4,2,1,60,0,9
121811,-90.9090909090909,4,1,1,60,0,8
122729,-66.6666666666667,4,1,1,60,0,9
123954,-76.9230769230769,4,1,1,60,0,8
125178,-90.9090909090909,4,1,1,60,0,8
126403,-90.9090909090909,4,1,1,60,0,9
126479,-90.9090909090909,4,1,1,60,0,8
136199,-100,4,1,1,60,0,8
144005,-111.111111111111,4,2,1,60,0,8
144617,-133.333333333333,4,2,1,60,0,8
145382,-200,4,2,1,60,0,8
148290,-200,4,2,1,10,0,8
148367,-200,4,2,1,25,0,8
149406,397.851601352695,4,2,1,30,1,8
154136,306.122448979592,4,2,1,60,1,8
154136,-71.4285714285714,4,1,1,60,0,9
154442,-66.6666666666667,4,1,1,60,0,8
155360,-80,4,1,1,75,0,9
162707,-200,4,1,1,60,0,8
163166,-200,4,1,1,60,0,9
163319,-71.4285714285714,4,1,1,60,0,9
163931,-71.4285714285714,4,1,1,50,0,8
165156,-71.4285714285714,4,1,1,75,0,9
172503,-200,4,1,1,60,0,8
172809,-62.5,4,1,1,60,0,8
172962,-62.5,4,1,1,60,0,9
174033,-71.4285714285714,4,1,1,60,0,9
174952,-83.3333333333333,4,1,1,60,0,9
175028,-83.3333333333333,4,1,1,60,0,8
184748,-76.9230769230769,4,1,1,60,0,9
192095,-66.6666666666667,4,1,1,60,0,9
192707,-76.9230769230769,4,1,1,60,0,9
193319,-100,4,1,1,60,0,9
193778,-100,4,1,1,60,0,8
193931,-200,4,1,1,60,0,8
194544,-200,4,1,1,60,0,9
194620,-200,4,1,1,60,0,8

[Colours]
Combo1 : 128,128,128
Combo2 : 173,255,95
Combo3 : 255,88,100
Combo4 : 255,94,55
Combo5 : 17,254,176

[HitObjects]
478,180,6291,6,0,L|468:136,3,26.6666666666667
375,196,6690,1,4,3:0:0:0:
272,210,6889,6,0,L|125:192,1,120,4|0,1:0|0:0,0:0:0:0:
124,178,7288,2,0,P|114:229|118:255,1,60.0000022888184,8|0,0:0|0:0,0:0:0:0:
67,319,7687,2,0,P|74:283|53:200,1,120.000004577637,0|8,0:0|0:0,0:0:0:0:
0,279,8285,1,0,0:0:0:0:
168,358,8484,6,0,P|155:323|154:300,1,60.0000022888184,0|0,1:0|0:0,0:0:0:0:
319,219,8883,2,0,P|334:252|330:300,1,60.0000022888184,8|8,0:0|0:0,0:0:0:0:
349,356,9282,1,0,0:0:0:0:
417,222,9481,1,8,0:0:0:0:
293,116,9680,1,8,0:0:0:0:
231,256,9880,1,4,3:0:0:0:
492,320,10079,6,0,P|494:282|504:181,1,120.000004577637,0|8,1:0|0:0,0:0:0:0:
411,259,10677,1,0,0:0:0:0:
341,317,10876,2,0,P|306:310|273:304,1,60.0000022888184
135,365,11275,2,0,P|170:358|203:352,1,60.0000022888184,8|0,0:0|0:0,0:0:0:0:
52,308,11674,21,4,3:0:0:0:
12,223,11873,1,2,0:0:0:0:
12,223,11973,1,2,0:0:0:0:
12,223,12072,1,8,1:0:0:0:
101,185,12272,1,2,0:0:0:0:
140,275,12471,1,4,3:0:0:0:
140,275,12571,1,2,0:0:0:0:
140,275,12670,1,12,2:0:0:0:
140,275,13069,5,8,3:0:0:0:
225,323,13268,2,0,P|268:317|331:309,1,90.0000034332277,4|0,1:0|0:0,0:0:0:0:
390,330,13667,2,0,P|393:302|395:264,1,60.0000022888184,8|0,0:0|0:0,0:0:0:0:
492,267,14066,2,0,P|489:239|487:201,1,60.0000022888184,4|0,3:0|0:0,0:0:0:0:
491,117,14464,1,8,0:0:0:0:
491,29,14664,1,0,0:0:0:0:
376,151,14863,5,0,1:0:0:0:
390,240,15062,1,0,0:0:0:0:
406,325,15262,2,0,P|359:331|288:345,1,120.000004577637,8|4,0:0|3:0,0:0:0:0:
91,294,15860,1,8,0:0:0:0:
91,294,16059,1,8,0:0:0:0:
267,368,16258,1,0,0:0:0:0:
445,257,16458,6,0,P|473:251|508:241,1,60.0000022888184,0|0,1:0|0:0,0:0:0:0:
294,215,16856,2,0,P|265:223|235:229,1,60.0000022888184,8|0,0:0|0:0,0:0:0:0:
362,287,17255,2,0,P|366:241|377:152,1,120.000004577637,4|8,3:0|0:0,0:0:0:0:
389,71,17853,1,0,0:0:0:0:
266,117,18052,21,4,1:0:0:0:
501,161,18252,1,8,0:0:0:0:
501,161,18351,1,8,0:0:0:0:
501,161,18451,1,4,0:0:0:0:
468,365,18650,1,0,1:0:0:0:
239,331,18850,1,4,2:0:0:0:
259,318,18949,1,8,0:0:0:0:
280,307,19049,1,4,3:0:0:0:
273,196,19248,1,8,0:0:0:0:
252,183,19348,1,8,0:0:0:0:
230,171,19448,1,4,0:0:0:0:
404,237,19636,6,0,L|156:265,1,240.000009155274,4|8,1:0|1:0,0:0:0:0:
384,351,20231,1,0,0:0:0:0:
512,245,20430,2,0,P|500:213|515:143,1,95.9999970703126,0|0,0:0|0:0,0:0:0:0:
307,34,20827,2,0,P|321:79|312:135,1,95.9999970703126,8|0,1:0|0:0,0:0:0:0:
404,236,21224,6,0,B|422:32,1,191.999994140625,0|8,1:0|1:0,0:0:0:0:
503,44,21819,1,0,1:0:0:0:
319,198,22018,2,0,P|249:224|136:160,1,191.999994140625,0|8,1:0|1:0,0:0:0:0:
18,211,22614,1,0,0:0:0:0:
110,285,22812,6,0,L|131:76,1,191.999994140625,0|8,1:0|1:0,0:0:0:0:
140,13,23408,1,0,0:0:0:0:
35,114,23606,2,0,P|28:54|50:17,1,95.9999970703126,0|0,1:0|0:0,0:0:0:0:
197,277,24003,2,0,P|211:322|189:377,1,95.9999970703126,8|0,1:0|0:0,0:0:0:0:
0,204,24401,22,0,B|108:169|73:241|194:205,1,191.999994140625,0|8,1:0|1:0,0:0:0:0:
291,215,24996,1,0,0:0:0:0:
291,215,25095,1,0,0:0:0:0:
291,215,25195,1,4,2:0:0:0:
381,220,25393,1,8,1:0:0:0:
470,227,25592,1,4,0:0:0:0:
470,227,25691,1,0,0:0:0:0:
470,227,25790,1,8,1:0:0:0:
233,279,25989,6,0,L|30:297,1,191.999994140625,4|8,1:0|1:0,0:0:0:0:
404,314,26585,1,0,0:0:0:0:
295,211,26783,1,0,0:0:0:0:
344,378,26982,1,0,0:0:0:0:
383,222,27180,1,8,1:0:0:0:
264,357,27379,1,0,0:0:0:0:
508,140,27577,6,0,P|462:118|370:127,1,143.999995605469,0|0,1:0|2:0,0:0:0:0:
291,87,27974,2,0,P|271:139|298:194,1,95.9999970703126,8|0,1:0|1:0,0:0:0:0:
472,364,28371,2,0,P|508:309|439:188,1,191.999994140625,0|8,1:0|1:0,0:0:0:0:
389,89,28967,6,0,L|371:290,1,191.999994140625,0|0,0:0|0:0,0:0:0:0:
286,307,29563,1,8,1:0:0:0:
201,347,29761,1,0,0:0:0:0:
87,167,29960,1,0,0:0:0:0:
174,189,30158,1,8,3:0:0:0:
221,196,30258,1,8,3:0:0:0:
267,184,30357,1,8,0:0:0:0:
300,149,30456,1,4,3:0:0:0:
306,101,30555,1,4,3:0:0:0:
287,56,30655,1,0,0:0:0:0:
251,31,30760,6,0,B|323:210|178:144|273:328,1,300,4|0,1:0|0:0,0:0:0:0:
344,366,31984,6,0,B|356:321|356:321|337:268,1,88.000002685547,4|0,0:0|0:0,0:0:0:0:
159,167,32290,2,0,B|145:205|145:205|157:250,1,88.000002685547,8|0,0:0|2:0,0:0:0:0:
447,125,32596,1,0,0:0:0:0:
367,43,32749,1,0,0:0:0:0:
267,87,32902,1,8,0:0:0:0:
344,178,33055,1,0,2:0:0:0:
447,125,33208,6,0,P|448:89|463:32,1,88.000002685547
253,181,33515,2,0,P|265:228|267:267,1,88.000002685547,8|8,0:0|0:0,0:0:0:0:
388,274,33821,2,0,P|328:274|243:359,1,176.000005371094,4|8,0:0|0:0,0:0:0:0:
127,297,34280,1,8,0:0:0:0:
481,351,34433,6,0,L|455:169,1,176.000005371094,4|8,0:0|0:0,0:0:0:0:
345,156,34892,1,0,2:0:0:0:
459,10,35045,2,0,P|454:54|453:98,1,88.000002685547,4|0,0:2|0:0,0:0:0:0:
239,298,35351,2,0,P|237:254|232:210,1,88.000002685547,8|0,0:0|0:0,0:0:0:0:
174,116,35657,6,0,B|112:103|112:103|76:123|76:123|-4:106,1,176.000005371094,0|8,0:0|0:0,0:0:0:0:
88,220,36117,1,0,2:0:0:0:
266,106,36270,2,0,P|276:66|281:20,1,88.000002685547
372,215,36576,2,0,P|362:175|357:129,1,88.000002685547,8|8,0:0|0:0,0:0:0:0:
291,272,36882,22,0,P|211:276|145:349,1,176.000005371094,4|8,0:0|0:0,0:0:0:0:
251,359,37341,1,8,0:0:0:0:
0,161,37494,2,0,P|61:212|159:204,1,176.000005371094,4|8,0:2|0:0,0:0:0:0:
256,170,37953,1,0,0:0:0:0:
339,106,38106,6,0,P|345:62|324:18,1,88.000002685547,4|0,0:0|0:0,0:0:0:0:
148,39,38413,2,0,P|140:81|155:122,1,88.000002685547,8|0,0:0|2:0,0:0:0:0:
359,237,38719,2,0,P|424:238|501:156,1,176.000005371094,4|8,1:0|0:0,0:0:0:0:
500,62,39178,1,8,0:0:0:0:
279,257,39331,38,0,P|262:295|267:349,1,80,4|8,0:2|0:0,0:0:0:0:
0,185,39790,37,8,0:0:0:0:
27,271,39943,2,0,P|80:265|188:372,1,207.999990478516,4|8,0:2|0:0,0:0:0:0:
443,195,40402,1,8,0:0:0:0:
335,264,40555,5,4,0:2:0:0:
299,291,40632,1,0,0:0:0:0:
256,291,40708,1,0,0:0:0:0:
218,274,40785,1,0,0:0:0:0:
196,237,40862,1,0,0:0:0:0:
197,195,40938,1,0,0:0:0:0:
221,160,41015,1,0,0:0:0:0:
259,144,41091,1,0,0:0:0:0:
299,151,41168,1,0,0:0:0:0:
332,176,41244,1,0,0:0:0:0:
344,216,41321,1,0,0:2:0:0:
321,249,41397,21,0,0:0:0:0:
281,264,41474,1,0,0:0:0:0:
245,244,41550,1,0,0:0:0:0:
246,201,41627,1,0,0:0:0:0:
280,180,41703,1,0,0:0:0:0:
327,207,41780,6,0,B|259:189|259:189|208:208|208:208|112:181,1,207.999990478516,4|8,0:0|0:0,0:0:0:0:
32,311,42239,1,8,0:0:0:0:
117,353,42392,2,0,P|126:316|108:244,1,88.000002685547,0|0,0:0|0:0,0:0:0:0:
283,38,42698,2,0,P|276:81|285:123,1,88.000002685547,8|8,0:0|0:0,0:0:0:0:
405,131,43004,6,0,P|336:130|242:192,1,176.000005371094,4|8,0:0|0:0,0:0:0:0:
227,302,43464,1,0,2:0:0:0:
321,364,43617,2,0,P|330:322|331:262,1,88.000002685547,0|0,0:0|0:0,0:0:0:0:
132,244,43923,2,0,P|123:286|122:346,1,88.000002685547,8|8,0:0|0:0,0:0:0:0:
228,302,44229,6,0,L|255:86,1,176.000005371094,4|8,0:0|0:0,0:0:0:0:
214,11,44688,1,8,0:0:0:0:
158,161,44841,2,0,P|107:164|60:171,1,88.000002685547,0|0,0:0|0:0,0:0:0:0:
0,75,45147,2,0,P|43:80|87:83,1,88.000002685547,8|8,0:0|0:0,0:0:0:0:
512,161,45453,22,0,L|311:189,1,176.000005371094,4|8,0:0|0:0,0:0:0:0:
117,201,45913,1,0,2:0:0:0:
275,271,46066,2,0,L|388:286,1,88.000002685547,0|0,0:0|0:0,0:0:0:0:
348,70,46372,2,0,L|241:118,1,88.000002685547,8|8,0:0|0:0,0:0:0:0:
441,375,46678,6,0,B|449:308|449:308|474:277|474:277|487:209,1,176.000005371094,4|8,0:0|0:0,0:0:0:0:
506,129,47137,1,8,0:0:0:0:
437,35,47290,2,0,B|428:101|428:101|403:132|403:132|390:200,1,176.000005371094,4|8,0:0|0:0,0:0:0:0:
236,266,47749,1,8,0:0:0:0:
311,319,47902,6,0,B|326:275|326:275|313:221,1,88.000002685547,4|0,0:0|0:0,0:0:0:0:
164,220,48208,2,0,B|149:264|149:264|162:318,1,88.000002685547,8|4,0:0|0:3,0:0:0:0:
243,355,48515,2,0,B|172:338|172:338|75:376,1,176.000005371094,4|8,0:2|0:0,0:0:0:0:
11,292,48974,1,0,0:0:0:0:
15,130,49127,22,0,P|34:159|52:213,1,80,4|8,0:0|0:0,0:0:0:0:
290,101,49586,53,4,3:0:0:0:
196,141,49739,2,0,P|128:208|155:308,1,207.999990478516,4|8,0:0|0:0,0:0:0:0:
18,259,50198,21,4,3:0:0:0:
218,230,50351,2,0,P|321:259|376:365,1,207.999990478516,4|8,0:0|0:0,0:0:0:0:
501,57,50811,1,4,3:0:0:0:
312,21,50964,54,0,P|106:83|189:362,1,560,4|0,1:0|2:0,0:0:0:0:
460,261,53346,21,4,0:0:0:0:
373,244,59107,5,8,0:0:0:0:
373,244,59306,2,0,P|400:249|419:251,1,40,8|0,0:0|0:0,0:0:0:0:
452,310,59703,6,0,P|458:235|471:135,1,160,4|8,0:0|0:0,0:0:0:0:
330,7,60299,1,0,0:0:0:0:
368,77,60498,2,0,P|378:115|379:157,1,80
197,214,60895,2,0,P|189:178|186:134,1,80,8|0,0:0|0:0,0:0:0:0:
290,168,61293,21,0,0:0:0:0:
290,168,61491,1,0,0:0:0:0:
279,255,61690,1,8,0:0:0:0:
266,342,61889,1,4,3:0:0:0:
182,315,62087,5,4,0:3:0:0:
363,282,62286,1,8,0:0:0:0:
207,212,62485,1,4,3:0:0:0:
367,162,62683,1,4,3:0:0:0:
243,97,62882,6,0,P|173:107|68:102,1,160,4|8,0:0|0:0,0:0:0:0:
2,173,63478,1,0,0:0:0:0:
90,199,63677,2,0,P|95:226|97:282,1,80
196,351,64074,2,0,P|191:324|189:268,1,80,8|0,0:0|0:0,0:0:0:0:
250,64,64471,5,4,0:0:0:0:
275,148,64670,1,0,0:0:0:0:
268,183,64769,1,8,0:0:0:0:
259,218,64869,1,8,0:0:0:0:
362,362,65067,1,4,3:0:0:0:
387,278,65266,1,4,0:0:0:0:
380,243,65365,1,0,0:0:0:0:
371,208,65465,1,8,0:0:0:0:
285,314,65663,1,12,1:0:0:0:
499,218,65862,1,4,3:0:0:0:
283,316,66061,22,0,B|186:287|230:342|110:309,1,160,4|8,1:0|0:0,0:0:0:0:
172,237,66657,1,0,0:0:0:0:
272,234,66855,2,0,P|279:194|279:152,1,80
368,280,67253,2,0,P|368:329|372:367,1,80,8|0,0:0|0:0,0:0:0:0:
373,191,67650,6,0,P|379:140|387:20,1,160,0|8,0:0|0:0,0:0:0:0:
470,58,68246,1,4,0:3:0:0:
291,26,68445,2,0,P|289:59|286:115,1,80,0|8,0:0|0:0,0:0:0:0:
472,261,68842,2,0,P|474:228|477:172,1,80,8|4,0:0|0:3,0:0:0:0:
280,217,69240,6,0,P|274:292|268:387,2,160,0|8|0,1:0|0:0|0:0,0:0:0:0:
162,129,70233,1,0,0:0:0:0:
186,230,70432,2,0,P|193:284|192:328,1,80,8|0,0:0|0:0,0:0:0:0:
96,187,70829,6,0,L|-3:210,1,80,4|0,3:0|0:0,0:0:0:0:
12,315,71226,1,8,0:0:0:0:
12,315,71425,1,4,0:0:0:0:
272,352,71624,1,0,1:0:0:0:
288,315,71723,1,0,1:0:0:0:
296,276,71822,1,8,3:0:0:0:
290,237,71922,1,0,0:0:0:0:
274,201,72021,1,4,1:2:0:0:
262,162,72120,1,0,1:0:0:0:
260,123,72220,1,8,3:0:0:0:
265,83,72319,1,0,0:0:0:0:
275,44,72418,22,0,L|473:26,1,191.999994140625,4|8,1:0|1:0,0:0:0:0:
499,126,73014,1,0,0:0:0:0:
407,218,73213,2,0,B|417:177|417:177|396:125,1,95.9999970703126,0|0,1:0|0:0,0:0:0:0:
512,266,73610,2,0,B|500:308|500:308|516:362,1,95.9999970703126,8|4,1:0|3:0,0:0:0:0:
369,336,74008,6,0,B|171:360,1,191.999994140625,4|8,1:0|1:0,0:0:0:0:
6,303,74604,1,0,0:0:0:0:
111,315,74802,2,0,B|311:335,1,191.999994140625,4|8,3:0|0:0,0:0:0:0:
128,183,75398,1,8,0:0:0:0:
56,110,75597,6,0,P|17:147|12:192,1,95.9999970703126,4|0,3:0|0:0,0:0:0:0:
215,265,75995,2,0,P|250:230|258:178,1,95.9999970703126,8|0,0:0|0:0,0:0:0:0:
144,148,76392,2,0,P|201:168|327:107,1,191.999994140625,4|8,3:0|0:0,0:0:0:0:
512,187,76988,5,8,0:0:0:0:
512,278,77187,2,0,P|450:251|311:292,1,191.999994140625,4|8,1:0|0:0,0:0:0:0:
192,339,77783,1,8,0:0:0:0:
310,359,77981,1,4,0:0:0:0:
127,277,78180,1,8,0:0:0:0:
0,340,78379,1,8,0:0:0:0:
107,364,78577,1,8,0:0:0:0:
255,177,78776,22,0,P|173:203|57:175,1,191.999994140625,4|8,0:0|0:0,0:0:0:0:
5,242,79372,1,0,1:0:0:0:
209,283,79571,2,0,P|224:323|228:382,1,95.9999970703126,4|0,3:0|0:0,0:0:0:0:
325,311,79968,2,0,P|328:263|344:218,1,95.9999970703126,8|0,0:0|1:0,0:0:0:0:
272,57,80365,6,0,P|311:107|438:147,1,191.999994140625,4|8,3:0|0:0,0:0:0:0:
512,90,80961,1,0,1:0:0:0:
272,186,81160,2,0,P|250:226|237:276,1,95.9999970703126,4|0,3:0|0:0,0:0:0:0:
383,359,81557,2,0,P|405:319|418:269,1,95.9999970703126,8|0,0:0|1:0,0:0:0:0:
320,288,81955,6,0,L|123:304,1,191.999994140625,4|8,3:0|0:0,0:0:0:0:
28,308,82551,1,0,1:0:0:0:
28,308,82749,1,4,3:0:0:0:
216,384,82948,1,8,0:0:0:0:
38,321,83147,1,4,0:0:0:0:
208,373,83345,1,8,0:0:0:0:
9,193,83546,5,4,1:0:0:0:
9,193,84770,22,0,B|88:196|88:196|104:213|104:213|197:219,1,176.000005371094,4|8,0:0|0:0,0:0:0:0:
261,225,85229,1,0,2:0:0:0:
178,118,85382,2,0,B|164:81|164:81|173:23,1,88.000002685547
348,39,85688,2,0,B|362:76|362:76|353:134,1,88.000002685547,8|0,0:0|0:0,0:0:0:0:
261,225,85994,6,0,L|270:75,1,132.00000402832,4|0,1:0|2:0,0:0:0:0:
248,23,86301,2,0,L|254:118,1,88.000002685547,8|8,0:0|0:0,0:0:0:0:
20,224,86607,1,4,0:0:0:0:
194,196,86760,1,0,0:0:0:0:
31,118,86913,1,8,0:0:0:0:
117,270,87066,1,8,0:0:0:0:
142,92,87219,1,4,0:0:0:0:
30,221,87372,5,0,0:0:0:0:
121,262,87525,1,8,0:0:0:0:
188,186,87678,1,8,2:0:0:0:
130,99,87831,1,0,0:0:0:0:
29,127,87984,1,8,0:0:0:0:
31,222,88137,1,8,0:0:0:0:
271,277,88290,5,8,0:0:0:0:
373,296,88443,2,0,P|415:301|469:290,1,88.000002685547,4|0,0:0|0:0,0:0:0:0:
147,314,88750,2,0,P|105:319|51:308,1,88.000002685547,12|0,0:2|2:0,0:0:0:0:
230,361,89056,1,4,0:0:0:0:
239,171,89209,1,0,0:0:0:0:
32,67,89362,21,12,0:2:0:0:
56,186,89515,1,0,0:0:0:0:
155,241,89668,6,0,B|116:137|189:180|138:47,1,176.000005371094,4|8,0:0|0:0,0:0:0:0:
81,278,90127,1,8,0:0:0:0:
16,354,90280,2,0,P|58:353|121:366,1,88.000002685547,0|0,0:0|2:0,0:0:0:0:
348,282,90586,2,0,P|306:295|267:320,1,88.000002685547,8|8,0:0|0:0,0:0:0:0:
298,186,90892,6,0,L|502:206,1,176.000005371094,4|8,0:0|0:0,0:0:0:0:
187,138,91352,1,0,0:0:0:0:
333,103,91505,2,0,P|328:72|327:13,1,88.000002685547,4|0,0:0|0:0,0:0:0:0:
282,277,91811,2,0,P|287:308|288:367,1,88.000002685547,8|0,0:0|0:0,0:0:0:0:
43,277,92117,22,0,P|74:277|119:305,1,80,4|8,0:0|0:0,0:0:0:0:
442,142,92576,53,8,0:0:0:0:
379,220,92729,2,0,P|294:207|217:308,1,207.999990478516,4|8,0:0|0:0,0:0:0:0:
140,197,93188,1,8,0:0:0:0:
458,335,93341,21,4,0:0:0:0:
481,300,93418,1,0,1:0:0:0:
485,258,93494,1,0,1:0:0:0:
473,217,93571,1,0,1:0:0:0:
443,186,93648,1,0,1:0:0:0:
412,158,93724,1,0,1:0:0:0:
393,120,93801,1,0,1:0:0:0:
393,78,93877,1,0,1:0:0:0:
413,41,93954,1,0,1:0:0:0:
453,30,94030,1,0,1:0:0:0:
492,44,94107,1,0,1:0:0:0:
509,81,94183,1,0,1:0:0:0:
501,122,94260,1,8,3:0:0:0:
462,138,94336,1,0,1:0:0:0:
470,178,94413,1,4,3:0:0:0:
349,206,94566,6,0,L|129:180,1,207.999990478516,4|8,0:0|0:0,0:0:0:0:
36,173,95025,1,8,0:0:0:0:
353,122,95178,2,0,P|309:122|239:108,1,103.999995239258,4|0,0:2|0:0,0:0:0:0:
269,285,95484,2,0,P|218:275|166:274,1,103.999995239258,8|8,0:0|0:0,0:0:0:0:
38,324,95790,5,4,0:0:0:0:
157,360,95943,1,0,0:0:0:0:
5,207,96097,2,0,P|56:205|107:195,1,103.999995239258,8|0,0:0|2:0,0:0:0:0:
326,238,96403,2,0,L|336:31,1,207.999990478516,4|8,0:3|0:0,0:0:0:0:
237,135,96862,37,0,0:0:0:0:
454,74,97015,1,4,0:0:0:0:
201,53,97168,1,0,0:0:0:0:
407,173,97321,2,0,P|443:184|516:191,1,103.999995239258,8|8,0:0|0:0,0:0:0:0:
263,283,97627,2,0,P|174:287|88:375,1,207.999990478516,4|8,0:2|0:0,0:0:0:0:
242,378,98086,1,8,0:0:0:0:
300,199,98239,6,0,L|294:88,1,103.999995239258,4|0,0:0|0:0,0:0:0:0:
477,26,98546,2,0,L|471:129,1,103.999995239258,8|8,0:0|0:0,0:0:0:0:
512,242,98852,1,12,0:0:0:0:
416,323,99005,1,0,0:0:0:0:
370,202,99158,1,12,0:2:0:0:
471,129,99311,1,8,0:0:0:0:
502,347,99464,6,0,L|276:367,1,207.999990478516,4|8,0:0|0:0,0:0:0:0:
275,242,99923,1,0,0:0:0:0:
265,129,100076,2,0,P|261:73|256:18,1,103.999995239258,4|0,0:0|2:0,0:0:0:0:
158,157,100382,5,8,0:0:0:0:
178,264,100535,1,8,0:0:0:0:
66,289,100688,1,4,0:0:0:0:
37,182,100841,1,0,0:0:0:0:
296,342,100994,2,0,P|239:339|190:358,1,103.999995239258,8|8,0:0|0:0,0:0:0:0:
399,280,101301,2,0,P|447:296|499:292,1,103.999995239258,12|0,0:0|0:0,0:0:0:0:
387,362,101607,21,8,0:0:0:0:
221,267,101760,1,0,0:0:0:0:
438,156,101913,54,0,P|405:168|365:198,1,80,4|8,1:2|1:0,0:0:0:0:
150,88,102372,21,8,1:0:0:0:
263,54,102525,2,0,P|320:98|317:281,1,240.000009155274,4|8,1:2|1:0,0:0:0:0:
512,107,102984,1,8,1:0:0:0:
475,218,103137,2,0,P|397:232|328:385,1,240.000009155274,4|8,1:2|1:0,0:0:0:0:
175,317,103597,5,8,1:0:0:0:
268,257,103750,1,0,1:0:0:0:
293,211,103826,1,0,1:0:0:0:
301,159,103903,1,0,1:0:0:0:
291,108,103979,1,0,1:0:0:0:
265,63,104056,1,0,1:0:0:0:
224,30,104132,1,0,1:0:0:0:
175,13,104209,1,0,1:0:0:0:
122,14,104285,1,0,1:0:0:0:
74,33,104362,6,0,L|92:174,1,120.000004577637,4|8,1:0|0:0,0:0:0:0:
103,235,104821,1,0,2:0:0:0:
117,319,104974,2,0,P|83:334|24:346,1,80,0|0,1:0|2:0,0:0:0:0:
0,204,105280,1,8,0:0:0:0:
0,204,105433,1,8,0:0:0:0:
206,355,105586,22,0,P|241:364|285:368,1,80,4|0,0:3|2:0,0:0:0:0:
454,109,105892,2,0,P|414:112|375:121,1,80,8|0,0:0|2:0,0:0:0:0:
225,290,106199,5,4,3:0:0:0:
336,271,106352,1,0,2:0:0:0:
443,185,106505,5,8,1:0:0:0:
282,217,106658,1,8,1:0:0:0:
133,238,106811,2,0,L|124:368,1,120.000004577637,4|8,0:0|0:0,0:0:0:0:
290,349,107270,1,0,2:0:0:0:
450,138,107423,5,0,0:0:0:0:
282,115,107576,1,0,2:0:0:0:
223,213,107729,21,8,0:0:0:0:
319,234,107882,1,8,0:0:0:0:
475,46,108035,2,0,P|425:55|380:56,1,80,4|0,1:0|0:0,0:0:0:0:
10,171,108341,6,0,B|70:149|98:170|98:170|116:140|139:134|139:134|188:158|249:135,1,240.000009155274,12|8,0:0|0:0,0:0:0:0:
377,216,108801,1,8,0:0:0:0:
498,256,108954,2,0,P|436:252|328:313,1,180.000006866455,12|0,0:0|0:0,0:0:0:0:
259,252,109260,6,0,P|249:316|247:382,1,120.000004577637,4|8,1:0|0:0,0:0:0:0:
75,207,109719,1,0,2:0:0:0:
229,166,109872,2,0,P|234:131|240:51,1,80,0|0,0:0|2:0,0:0:0:0:
249,4,110178,1,8,0:0:0:0:
161,115,110331,1,8,0:0:0:0:
315,162,110484,1,4,3:0:0:0:
177,249,110637,1,0,2:0:0:0:
315,277,110790,1,8,0:0:0:0:
249,354,110943,1,0,2:0:0:0:
127,366,111097,6,0,P|80:373|32:360,1,80,4|0,3:0|2:0,0:0:0:0:
58,163,111404,2,0,P|105:156|153:169,1,80,8|8,0:0|0:0,0:0:0:0:
232,126,111709,22,0,P|232:191|237:265,1,120.000004577637,4|8,1:0|1:0,0:0:0:0:
42,259,112168,1,0,2:0:0:0:
9,98,112321,2,0,P|14:63|19:9,1,80,0|0,0:0|2:0,0:0:0:0:
190,258,112627,5,8,0:0:0:0:
90,283,112780,1,8,0:0:0:0:
120,193,112933,1,4,0:0:0:0:
161,348,113086,1,0,2:0:0:0:
0,148,113239,2,0,P|91:179|220:86,1,240.000009155274,12|8,1:2|1:0,0:0:0:0:
296,270,113699,1,8,1:0:0:0:
284,231,113775,1,0,1:0:0:0:
284,191,113852,1,12,1:2:0:0:
299,155,113928,1,0,1:0:0:0:
312,117,114005,1,0,1:0:0:0:
310,77,114081,1,0,1:0:0:0:
301,38,114158,6,0,L|182:27,1,120.000004577637,4|8,1:0|0:0,0:0:0:0:
8,188,114617,1,0,0:0:0:0:
97,201,114770,2,0,P|140:204|197:211,1,88.000002685547,4|0,3:0|0:0,0:0:0:0:
512,146,115076,2,0,P|468:149|412:156,1,88.000002685547,8|0,0:0|0:0,0:0:0:0:
317,188,115382,5,4,3:0:0:0:
243,271,115535,1,0,0:0:0:0:
212,371,115688,2,0,B|176:260|238:318|206:180,1,176.000005371094,8|4,0:0|3:0,0:0:0:0:
197,102,116148,1,0,0:0:0:0:
105,62,116301,2,0,P|72:50|13:37,1,88.000002685547,8|0,0:0|0:0,0:0:0:0:
84,187,116607,22,0,B|142:169|142:169|191:189|191:189|282:163,1,176.000005371094,4|8,0:0|0:0,0:0:0:0:
351,199,117066,1,0,0:0:0:0:
19,138,117219,2,0,P|2:178|4:229,1,88.000002685547,4|0,3:0|0:0,0:0:0:0:
196,351,117525,2,0,P|213:311|211:260,1,88.000002685547,8|0,0:0|0:0,0:0:0:0:
85,272,117831,6,0,L|97:359,1,88.000002685547,4|0,3:0|0:0,0:0:0:0:
369,273,118137,2,0,L|327:20,1,240.000009155274,12|8,0:0|0:0,0:0:0:0:
366,350,118597,1,8,0:0:0:0:
285,6,118750,2,0,L|311:190,1,180.000006866455,12|0,0:0|0:0,0:0:0:0:
233,320,119056,6,0,P|195:335|139:350,1,80,4|8,0:0|0:0,0:0:0:0:
36,208,119515,1,8,0:0:0:0:
195,252,119668,1,0,0:0:0:0:
41,306,119821,1,8,0:0:0:0:
135,158,119974,1,8,0:0:0:0:
114,259,120127,5,0,0:0:0:0:
64,111,120280,2,0,P|70:77|75:21,1,88.000002685547,4|0,0:2|0:0,0:0:0:0:
223,221,120586,2,0,P|226:264|233:308,1,88.000002685547,8|8,0:0|0:0,0:0:0:0:
181,145,120892,1,4,0:2:0:0:
209,384,121046,1,8,0:0:0:0:
243,86,121199,2,0,P|242:35|245:-26,1,88.000002685547,8|0,0:0|0:0,0:0:0:0:
362,145,121505,22,0,L|268:165,1,80,4|8,1:0|1:0,0:0:0:0:
283,161,121887,1,0,0:0:0:0:
283,161,121964,1,4,0:2:0:0:
61,232,122117,1,8,0:0:0:0:
228,224,122270,1,8,0:0:0:0:
228,224,122347,1,0,0:0:0:0:
228,224,122423,1,8,0:0:0:0:
148,276,122576,1,4,0:2:0:0:
271,294,122729,6,0,P|324:280|469:377,1,240.000009155274,6|8,0:0|0:0,0:0:0:0:
150,194,123188,2,0,P|129:103|244:18,1,240.000009155274,6|0,0:0|0:0,0:0:0:0:
158,346,123648,2,0,P|110:368|37:355,1,120.000004577637,14|0,0:0|0:0,0:0:0:0:
265,199,123954,6,0,B|352:184|352:184|374:206|374:206|471:189,1,207.999990478516,6|10,0:2|0:0,0:0:0:0:
435,95,124413,1,2,0:0:0:0:
495,303,124566,2,0,L|355:279,1,103.999995239258,4|0,3:0|0:0,0:0:0:0:
41,371,124872,1,2,0:0:0:0:
41,371,125025,1,2,0:0:0:0:
274,338,125178,6,0,L|95:308,2,176.000005371094,4|8|4,3:0|1:0|3:0,0:0:0:0:
279,111,125943,1,10,0:0:0:0:
351,293,126097,1,12,0:2:0:0:
351,39,126250,1,10,0:0:0:0:
398,198,126403,22,0,B|279:168|348:236|192:192,1,176.000005371094,6|10,1:0|0:0,0:0:0:0:
0,210,126862,1,2,0:0:0:0:
68,271,127015,2,0,P|106:259|157:257,1,88.000002685547,0|2,0:0|0:0,0:0:0:0:
336,304,127321,2,0,P|292:305|250:318,1,88.000002685547,10|2,0:0|0:0,0:0:0:0:
148,115,127627,6,0,P|186:103|237:101,1,88.000002685547,2|0,0:0|0:0,0:0:0:0:
449,133,127933,2,0,P|405:134|363:147,1,88.000002685547,10|0,0:0|0:0,0:0:0:0:
246,255,128239,1,2,0:0:0:0:
451,242,128392,1,0,0:0:0:0:
250,147,128546,2,0,P|243:104|237:47,1,88.000002685547,10|8,0:0|0:0,0:0:0:0:
316,28,128852,5,4,0:2:0:0:
101,145,129005,1,0,0:0:0:0:
343,263,129158,1,10,0:0:0:0:
493,157,129311,5,8,0:0:0:0:
458,38,129464,1,0,0:0:0:0:
363,109,129617,1,2,0:0:0:0:
174,238,129770,21,12,0:2:0:0:
199,373,129923,1,2,0:0:0:0:
313,277,130076,1,4,0:2:0:0:
444,275,130229,5,2,0:0:0:0:
450,240,130306,1,0,0:0:0:0:
444,205,130382,1,8,0:0:0:0:
429,98,130535,1,10,0:0:0:0:
356,249,130688,1,6,0:2:0:0:
478,362,130841,1,0,0:0:0:0:
503,135,130994,6,0,P|449:139|411:150,1,88.000002685547,10|0,0:0|0:0,0:0:0:0:
174,75,131301,2,0,P|223:90|347:77,1,176.000005371094,6|8,0:0|0:0,0:0:0:0:
369,195,131760,2,0,L|389:-17,1,176.000005371094,2|0,0:0|0:0,0:0:0:0:
286,190,132219,2,0,P|237:208|205:231,1,88.000002685547,10|0,0:0|0:0,0:0:0:0:
452,182,132525,6,0,P|476:193|529:234,1,88.000002685547,2|0,0:0|0:0,0:0:0:0:
252,96,132831,1,8,0:0:0:0:
365,157,132984,1,10,0:0:0:0:
489,91,133137,2,0,P|486:46|478:0,1,88.000002685547,2|0,0:0|0:0,0:0:0:0:
203,171,133443,2,0,P|206:216|214:262,1,88.000002685547,10|0,0:0|0:0,0:0:0:0:
383,328,133750,22,0,L|185:345,1,176.000005371094,4|10,0:2|0:0,0:0:0:0:
489,292,134209,1,2,0:0:0:0:
322,235,134362,2,0,P|361:245|412:251,1,88.000002685547,0|8,0:0|0:0,0:0:0:0:
254,162,134668,2,0,P|221:169|165:171,1,88.000002685547,12|8,0:2|0:0,0:0:0:0:
21,213,134974,5,4,0:2:0:0:
383,172,135127,1,4,3:0:0:0:
383,172,135204,1,0,0:0:0:0:
383,172,135280,1,8,0:0:0:0:
383,172,135357,1,0,0:0:0:0:
383,172,135433,1,8,0:0:0:0:
383,172,135510,1,0,0:0:0:0:
425,141,135586,5,8,0:3:0:0:
435,88,135663,1,0,0:0:0:0:
414,39,135739,1,0,0:0:0:0:
363,22,135816,1,0,0:0:0:0:
315,43,135892,1,8,0:0:0:0:
301,94,135969,1,0,0:0:0:0:
306,100,136046,1,4,0:3:0:0:
312,105,136122,1,0,0:0:0:0:
318,110,136199,6,0,L|507:86,1,160,6|8,0:0|0:0,0:0:0:0:
483,184,136658,1,4,3:0:0:0:
242,25,136811,2,0,L|83:45,1,160,2|8,0:0|0:0,0:0:0:0:
39,129,137270,1,4,3:0:0:0:
185,281,137423,22,0,P|207:305|230:352,1,80,6|0,0:0|0:0,0:0:0:0:
325,194,137729,2,0,P|300:240|288:280,1,80,10|4,0:0|3:0,0:0:0:0:
213,184,138035,2,0,P|178:192|129:196,1,80,6|0,0:0|0:0,0:0:0:0:
154,10,138341,2,0,P|186:24|228:50,1,80,10|4,0:0|3:0,0:0:0:0:
23,300,138648,6,0,L|-4:118,1,160,6|10,0:0|0:0,0:0:0:0:
250,100,139107,1,2,0:0:0:0:
307,194,139260,2,0,L|283:352,1,160,6|8,0:0|0:0,0:0:0:0:
213,234,139719,5,4,3:0:0:0:
368,354,139872,2,0,P|372:315|387:278,1,80,2|0,0:0|2:0,0:0:0:0:
498,151,140178,2,0,P|517:206|516:251,1,80,10|4,0:0|3:0,0:0:0:0:
259,176,140484,2,0,B|294:82|233:120|280:8,1,160,6|8,0:0|0:0,0:0:0:0:
358,106,140943,5,4,3:0:0:0:
160,174,141097,2,0,P|192:226|201:339,1,160,6|8,0:0|0:0,0:0:0:0:
66,235,141556,1,2,0:0:0:0:
373,248,141709,2,0,P|313:279|272:364,1,160,6|10,0:0|0:0,0:0:0:0:
91,325,142168,21,4,3:0:0:0:
487,360,142321,2,0,P|443:333|392:322,1,80,6|0,0:0|0:0,0:0:0:0:
231,163,142627,2,0,P|268:150|301:128,1,80,8|2,0:0|0:0,0:0:0:0:
412,191,142933,2,0,L|426:22,1,160,6|10,0:0|0:0,0:0:0:0:
338,74,143392,5,4,3:0:0:0:
495,123,143546,2,0,L|508:303,1,160,6|8,0:0|0:0,0:0:0:0:
159,302,144005,5,4,3:0:0:0:
253,379,144159,2,0,L|272:228,1,143.999995605469,2|10,1:0|1:0,0:0:0:0:
142,100,144618,5,4,3:0:0:0:
36,58,144770,2,0,L|48:177,1,120.000004577637,6|10,1:0|1:0,0:0:0:0:
17,358,145229,21,2,1:0:0:0:
310,276,145382,53,4,1:0:0:0:
256,192,145459,12,0,149056,2:0:0:0:
253,41,149406,5,4,0:0:0:0:
241,330,154136,6,0,L|269:95,1,223.999993164063,6|0,0:0|2:0,0:0:0:0:
269,107,155360,22,0,P|225:101|149:105,1,100,4|0,0:0|0:0,0:0:0:0:
382,65,155666,2,0,P|431:66|481:58,1,100,8|0,0:0|2:0,0:0:0:0:
382,172,155972,1,4,0:2:0:0:
423,285,156125,1,0,0:0:0:0:
512,209,156278,1,8,0:0:0:0:
218,251,156431,1,8,0:0:0:0:
289,342,156584,22,0,P|318:298|330:248,1,100,4|0,0:0|0:0,0:0:0:0:
148,160,156891,2,0,P|119:204|107:254,1,100,8|8,0:0|0:0,0:0:0:0:
4,311,157197,2,0,P|88:344|213:325,1,200,4|8,0:0|0:0,0:0:0:0:
509,242,157656,1,8,0:0:0:0:
500,327,157809,6,0,P|405:318|287:358,1,200,4|8,0:0|0:0,0:0:0:0:
83,203,158268,1,0,2:0:0:0:
206,253,158421,2,0,P|252:268|313:263,1,100,4|0,2:0|0:0,0:0:0:0:
95,325,158727,1,8,0:0:0:0:
183,361,158880,1,8,0:0:0:0:
145,132,159033,6,0,P|102:108|41:101,1,100,4|0,0:0|0:0,0:0:0:0:
49,310,159340,2,0,P|111:301|158:274,1,100,8|8,0:0|0:0,0:0:0:0:
250,188,159646,2,0,L|35:226,1,200,0|8,0:0|0:0,0:0:0:0:
6,155,160105,1,8,0:0:0:0:
295,270,160258,38,0,L|521:231,1,200,4|8,0:0|0:0,0:0:0:0:
377,343,160717,1,0,2:0:0:0:
501,135,160870,2,0,P|440:161|406:169,1,100,4|0,0:2|0:0,0:0:0:0:
34,252,161176,1,8,0:0:0:0:
224,291,161329,1,8,0:0:0:0:
213,197,161482,6,0,P|154:248|165:364,1,200,4|8,0:0|0:0,0:0:0:0:
281,375,161942,1,8,0:0:0:0:
359,287,162095,2,0,P|336:235|286:202,1,100,4|0,0:0|0:0,0:0:0:0:
4,326,162401,1,8,0:0:0:0:
87,363,162554,1,8,0:0:0:0:
321,81,162707,38,0,P|283:91|244:115,1,80,4|8,1:2|1:0,0:0:0:0:
21,77,163166,37,8,1:0:0:0:
81,171,163319,2,0,P|146:165|261:283,1,223.999993164063,4|8,1:2|1:0,0:0:0:0:
360,185,163778,1,8,0:0:0:0:
16,270,163931,1,4,0:2:0:0:
70,332,164084,1,8,0:3:0:0:
103,337,164161,1,0,0:0:0:0:
133,323,164238,1,8,0:0:0:0:
151,295,164314,1,0,0:0:0:0:
155,261,164391,1,0,0:0:0:0:
136,233,164467,1,0,0:0:0:0:
107,215,164544,5,8,0:2:0:0:
74,207,164620,1,0,0:0:0:0:
48,185,164697,1,8,0:3:0:0:
33,154,164773,1,0,0:0:0:0:
33,120,164850,1,12,0:2:0:0:
50,85,164926,1,0,0:0:0:0:
84,66,165003,1,4,0:3:0:0:
121,77,165079,1,0,0:0:0:0:
146,107,165156,22,0,B|215:83|215:83|259:26|259:26|340:9,1,223.999993164063,4|8,0:0|0:0,0:0:0:0:
391,158,165615,1,0,2:0:0:0:
121,353,165768,2,0,B|108:300|108:300|125:244,1,111.999996582031,4|0,0:2|0:0,0:0:0:0:
313,246,166074,2,0,B|333:300|333:300|321:355,1,111.999996582031,8|8,0:0|0:0,0:0:0:0:
28,347,166380,6,0,L|16:117,1,223.999993164063,4|8,0:0|0:0,0:0:0:0:
276,70,166840,1,8,0:0:0:0:
219,178,166993,2,0,P|182:194|106:204,1,111.999996582031,4|0,0:0|0:0,0:0:0:0:
344,249,167299,2,0,P|381:265|457:275,1,111.999996582031,8|8,0:0|0:0,0:0:0:0:
491,354,167605,6,0,B|455:235|525:282|486:132,1,223.999993164063,4|8,0:2|0:0,0:0:0:0:
332,49,168064,1,0,2:0:0:0:
398,196,168217,1,4,0:0:0:0:
450,25,168370,1,0,0:0:0:0:
311,144,168523,2,0,P|263:158|198:153,1,111.999996582031,8|0,0:0|0:0,0:0:0:0:
12,256,168829,5,4,0:0:0:0:
148,218,168982,1,0,0:0:0:0:
269,312,169136,1,8,0:0:0:0:
116,368,169289,1,8,0:0:0:0:
12,256,169442,2,0,P|-8:208|-9:118,1,111.999996582031,4|0,0:2|0:0,0:0:0:0:
263,91,169748,2,0,P|288:136|289:208,1,111.999996582031,8|8,0:0|0:0,0:0:0:0:
142,365,170054,22,0,P|119:313|190:165,1,223.999993164063,4|8,0:0|0:0,0:0:0:0:
365,96,170513,1,0,2:0:0:0:
149,56,170666,2,0,P|96:45|34:-3,1,111.999996582031,4|0,0:0|0:0,0:0:0:0:
0,180,170972,2,0,P|41:153|106:136,1,111.999996582031,8|8,0:0|0:0,0:0:0:0:
257,112,171278,6,0,L|510:132,1,223.999993164063,4|8,0:0|0:0,0:0:0:0:
338,232,171738,1,8,0:0:0:0:
133,158,171891,2,0,P|165:113|185:55,1,111.999996582031,4|0,0:2|0:0,0:0:0:0:
226,217,172197,2,0,P|230:265|252:339,1,111.999996582031,8|8,0:0|0:0,0:0:0:0:
508,213,172503,38,0,P|478:215|424:237,1,80,4|8,1:2|0:0,0:0:0:0:
22,181,172962,5,8,0:0:0:0:
125,111,173115,2,0,P|194:104|347:221,1,256,4|8,0:2|0:0,0:0:0:0:
512,27,173574,1,8,0:0:0:0:
465,124,173727,6,0,P|398:151|341:315,1,256,4|8,0:2|0:0,0:0:0:0:
233,363,174187,1,0,0:0:0:0:
243,249,174340,2,0,P|251:195|236:122,1,111.999996582031,8|8,0:0|0:0,0:0:0:0:
232,101,174569,1,0,0:0:0:0:
197,81,174646,1,12,0:2:0:0:
158,78,174722,1,0,0:0:0:0:
121,94,174799,1,8,0:0:0:0:
83,83,174875,1,0,0:0:0:0:
73,50,174952,6,0,L|297:23,1,191.999994140625,4|8,0:0|0:0,0:0:0:0:
163,154,175411,1,4,3:0:0:0:
80,183,175564,2,0,P|30:208|-1:235,1,95.9999970703126,4|0,3:0|0:0,0:0:0:0:
138,346,175870,2,0,P|103:358|27:368,1,95.9999970703126,8|8,0:0|0:0,0:0:0:0:
104,265,176176,6,0,B|231:286|163:198|312:228,1,191.999994140625,4|8,3:0|0:0,0:0:0:0:
444,260,176636,1,4,3:0:0:0:
328,334,176789,1,0,0:0:0:0:
394,197,176942,1,4,3:0:0:0:
486,362,177095,22,0,P|437:352|400:320,1,95.9999970703126,8|8,0:0|0:0,0:0:0:0:
309,218,177401,2,0,L|321:20,1,191.999994140625,4|10,0:0|0:0,0:0:0:0:
408,27,177860,1,2,0:0:0:0:
493,38,178013,2,0,P|509:87|514:147,1,95.9999970703126,6|0,0:0|0:0,0:0:0:0:
476,264,178319,1,2,0:0:0:0:
476,264,178472,1,2,0:0:0:0:
236,208,178625,6,0,L|443:174,1,191.999994140625,6|8,0:0|0:0,0:0:0:0:
403,275,179084,1,4,3:0:0:0:
321,320,179238,2,0,P|273:328|219:342,1,95.9999970703126,4|0,3:0|0:0,0:0:0:0:
43,195,179544,2,0,P|31:148|23:101,1,95.9999970703126,8|4,0:0|3:0,0:0:0:0:
209,59,179850,6,0,B|279:49|279:49|309:62|309:62|422:39,1,191.999994140625,4|8,0:0|0:0,0:0:0:0:
508,82,180309,1,4,3:0:0:0:
266,136,180462,2,0,B|197:147|197:147|169:164|169:164|75:180,1,191.999994140625,4|8,0:2|0:0,0:0:0:0:
0,238,180921,1,4,3:0:0:0:
246,223,181074,2,0,B|314:209|314:209|346:216|346:216|434:200,1,191.999994140625,4|8,0:0|0:0,0:0:0:0:
512,233,181533,1,4,3:0:0:0:
279,296,181687,2,0,B|210:307|210:307|182:324|182:324|88:340,1,191.999994140625,4|8,0:2|0:0,0:0:0:0:
19,273,182146,53,4,0:0:0:0:
144,212,182299,2,0,L|130:12,1,191.999994140625,4|8,0:0|0:0,0:0:0:0:
245,14,182758,1,8,0:0:0:0:
58,144,182911,2,0,P|45:97|19:57,1,95.9999970703126,4|8,0:3|0:0,0:0:0:0:
259,178,183217,2,0,P|233:218|221:264,1,95.9999970703126,8|8,0:0|0:0,0:0:0:0:
457,334,183523,21,4,0:2:0:0:
475,305,183600,1,0,0:0:0:0:
479,271,183676,1,0,0:0:0:0:
464,240,183753,1,0,0:0:0:0:
437,219,183829,1,0,0:0:0:0:
403,213,183906,1,0,0:0:0:0:
370,222,183982,1,8,0:3:0:0:
346,246,184059,1,0,0:0:0:0:
338,279,184136,1,4,0:2:0:0:
340,312,184212,1,0,0:0:0:0:
362,337,184289,1,8,0:3:0:0:
392,349,184365,1,0,0:0:0:0:
425,348,184442,22,0,L|410:282,1,47.9999985351563,8|0,0:3|0:0,0:0:0:0:
498,172,184595,2,0,L|510:240,1,47.9999985351563,4|0,0:3|0:0,0:0:0:0:
394,124,184748,6,0,L|377:-10,1,103.999995239258,12|0,0:0|0:0,0:0:0:0:
51,70,185054,2,0,L|65:174,1,103.999995239258,8|0,0:0|0:0,0:0:0:0:
326,250,185360,2,0,L|309:116,1,103.999995239258,8|0,0:0|0:0,0:0:0:0:
0,267,185666,2,0,L|17:401,1,103.999995239258,8|0,0:0|0:0,0:0:0:0:
489,253,185972,2,0,L|472:119,1,103.999995239258,8|0,0:0|0:0,0:0:0:0:
191,233,186278,2,0,L|204:367,1,103.999995239258,8|0,0:0|0:0,0:0:0:0:
258,60,186584,5,8,0:0:0:0:
108,160,186738,1,4,3:0:0:0:
282,177,186891,1,8,0:0:0:0:
134,55,187044,1,4,3:0:0:0:
13,316,187197,6,0,P|38:326|117:336,1,103.999995239258,12|0,0:0|0:0,0:0:0:0:
138,67,187503,2,0,P|113:57|34:47,1,103.999995239258,8|0,0:0|0:0,0:0:0:0:
415,243,187809,2,0,P|432:186|426:130,1,103.999995239258,8|0,0:0|0:0,0:0:0:0:
209,245,188115,2,0,P|207:296|223:345,1,103.999995239258,8|0,0:0|0:0,0:0:0:0:
289,57,188421,2,0,P|234:63|191:95,1,103.999995239258,8|0,0:0|0:0,0:0:0:0:
454,372,188727,2,0,P|491:322|501:267,1,103.999995239258,8|0,0:0|0:0,0:0:0:0:
307,175,189033,21,8,0:0:0:0:
171,321,189187,1,4,3:0:0:0:
383,215,189340,1,8,0:0:0:0:
148,242,189493,1,4,3:0:0:0:
394,298,189646,6,0,P|337:288|291:285,1,103.999995239258,12|0,0:0|0:0,0:0:0:0:
38,172,189952,2,0,P|95:162|141:159,1,103.999995239258,8|0,0:0|0:0,0:0:0:0:
491,128,190258,2,0,P|434:118|388:115,1,103.999995239258,8|0,0:0|0:0,0:0:0:0:
55,46,190564,2,0,P|112:36|158:33,1,103.999995239258,8|0,0:0|0:0,0:0:0:0:
463,217,190870,2,0,P|406:207|360:204,1,103.999995239258,12|0,0:2|0:0,0:0:0:0:
10,328,191176,2,0,P|67:318|113:315,1,103.999995239258,8|0,0:0|0:0,0:0:0:0:
309,276,191482,1,12,0:2:0:0:
30,214,191636,1,0,0:0:0:0:
249,141,191789,1,8,0:0:0:0:
47,80,191942,1,4,3:0:0:0:
280,21,192095,38,0,P|329:51|403:231,1,240.000009155274,4|8,0:2|0:0,0:0:0:0:
500,127,192554,37,8,0:0:0:0:
269,132,192707,22,0,P|234:163|194:326,1,207.999990478516,4|8,0:2|0:0,0:0:0:0:
74,175,193166,53,8,0:0:0:0:
311,220,193319,6,0,P|372:286|398:377,1,160,4|8,0:2|0:0,0:0:0:0:
478,253,193778,5,8,0:0:0:0:
277,323,193931,54,0,P|235:347|208:373,1,80,4|8,0:2|0:0,0:0:0:0:
21,225,194391,21,8,0:0:0:0:
206,248,194544,37,4,1:0:0:0:
