osu file format v5

[General]
AudioFilename: 06 Rise Against - Prayer Of The Refugee.mp3
AudioLeadIn: 0
PreviewTime: -1
Countdown: 1
SampleSet: Normal
StackLeniency: 0.7
Mode: 0
LetterboxInBreaks: 1

[Metadata]
Title:Prayer Of The Refugee
Artist:Rise Against
Creator:scalfore
Version:Hard-
Source:Rise Against
Tags:Rise Against Prayer of the Refugee

[Difficulty]
HPDrainRate:3
CircleSize:4
OverallDifficulty:4
SliderMultiplier:1.4
SliderTickRate:1

[Events]
//Background and Video events
0,0,"Rise Against wallpaper.JPG"
//Break Periods
2,52901,58198
2,123613,134338
2,148179,152698
//Storyboard Layer 0 (Background)
//Storyboard Layer 1 (Failing)
//Storyboard Layer 2 (Passing)
//Storyboard Layer 3 (Foreground)
//Storyboard Sound Samples
//Background Colour Transformations
3,100,163,162,255

[TimingPoints]
6400,398.009950248756,4,1,0,100,1
30246,306.122448979592,4,1,0,100,1
59234,396.694214876033,4,1,0,100,1
83005,306.122448979592,4,1,0,100,1
148940,398.009950248756,4,1,0,100,1
153840,306.122448979592,4,1,0,100,1

[HitObjects]
444,66,6762,1,0
403,111,6961,1,0
369,146,7160,1,0
325,191,7557,2,0,B|293:255|229:287|165:287|133:264|76:209,1,280
251,283,9147,6,0,B|16:283,1,210
139,221,10141,1,0
138,161,10538,1,0
138,161,10936,1,0
400,122,12923,6,0,B|308:122,9,70
24,120,15308,6,0,B|111:120,1,70
184,127,15705,1,0
143,231,16084,2,0,B|295:232|305:231,3,140
153,123,19282,6,0,B|77:117,7,70
255,141,21071,1,0
256,142,21468,1,0
169,165,21866,1,0
169,165,22064,1,0
307,135,22462,2,0,B|431:232,1,140
377,276,23257,1,0
377,276,23654,1,0
418,124,25641,6,0,B|340:171,3,70
317,236,26433,2,0,B|256:273,3,70
205,188,27430,2,0,B|165:224|124:244|112:227|93:216|78:200|73:191,1,140
134,90,28026,2,0,B|64:143,2,70
212,129,28821,1,0
268,85,29219,1,0
333,85,29616,1,0
383,135,30013,1,0
438,319,30544,6,0,B|338:209|339:210,3,140
409,164,32082,1,0
63,178,32681,6,0,B|216:177,4,140
262,150,34531,1,0
468,254,35150,6,0,B|464:279|408:318|345:326|335:323,4,140
196,144,36971,1,0
424,150,37582,5,0
399,221,37888,1,0
352,149,38193,1,0
323,216,38499,1,0
215,152,38804,1,0
215,152,39415,1,0
215,152,40026,1,0
106,65,40342,5,0
198,63,40648,1,0
308,72,40953,2,0,B|467:70,1,140
443,159,41858,1,0
318,130,42491,5,0
293,65,42774,1,0
218,67,43080,1,0
189,129,43385,1,0
235,187,43702,1,0
234,189,44302,1,0
459,303,44924,5,0
413,239,45218,1,0
377,302,45523,1,0
329,245,45829,1,0
299,303,46134,1,0
158,241,46756,1,0
396,304,47367,5,0
399,236,47673,1,0
367,168,47978,1,0
299,132,48272,1,0
224,116,48577,5,0
148,113,48883,5,0
69,127,49188,5,0
65,209,49494,5,0
130,267,49799,5,0
215,258,50105,5,0
256,192,50410,12,4,52701
86,236,59398,6,0,B|100:205|120:199|148:180,7,70
174,252,61186,1,0
491,66,61944,6,0,B|439:60|416:60|404:59,1,70
339,118,62539,1,0
288,153,62936,1,0
246,112,63333,1,0
246,112,63729,1,0
390,124,65757,6,0,B|336:178|329:180,5,70
302,149,67148,2,0,B|356:195,1,70
408,156,67744,2,0,B|340:98,2,70
301,58,68490,1,0
215,75,68887,1,0
173,148,69268,2,0,B|308:204,1,140
301,202,70077,1,0
265,244,72060,6,0,B|182:204,7,70
362,247,73845,1,0
283,187,74242,1,0
283,187,74639,1,0
283,187,74837,1,0
283,188,75035,1,0
248,125,75462,1,0
206,175,75630,1,0
176,112,76027,1,0
177,113,76424,1,0
442,92,78606,6,0,B|372:59,6,70
415,114,80264,1,0
377,172,80463,2,0,B|257:172,1,116.666666666667
218,243,81192,1,0
218,244,81589,1,0
217,243,81987,1,0
212,125,82374,2,0,B|176:175|154:187|130:190|106:191|77:187|74:187,1,140
152,341,83311,6,0,B|37:251,2,140
221,299,84229,1,0
219,300,84841,1,0
142,178,85453,6,0,B|294:178,2,140
148,106,86372,2,0,B|157:68|204:42|286:47|286:47,1,140
345,50,87290,1,0
422,59,87902,5,0
338,58,88209,1,0
256,57,88515,1,0
177,58,88821,1,0
173,141,89127,1,0
173,141,89739,1,0
290,132,90351,6,0,B|441:131,3,140
427,199,91576,2,0,B|265:198,1,140
283,266,92188,2,0,B|440:267,1,140
316,346,92800,1,0
425,327,93107,6,0,B|426:192,2,128.333333333333
287,336,94025,1,0
169,260,94637,2,0,B|133:208|135:154|167:113,1,151.666666666667
362,118,95249,6,0,B|218:118,2,140
387,47,96168,2,0,B|387:191|388:195,1,140
272,61,97086,2,0,B|220:91|208:144|280:179,1,140
140,261,97698,6,0,B|304:261,4,140
372,267,99535,1,0
175,143,100147,5,0
243,185,100454,1,0
312,232,100760,1,0
388,276,101066,1,0
395,198,101372,1,0
394,54,101984,1,0
256,192,102647,12,0,103817
328,102,104739,5,0
363,173,105045,2,0,B|428:300,2,140
303,218,105964,1,0
380,197,106270,1,0
381,196,106729,1,0
307,160,107188,1,0
237,142,107494,1,0
302,77,107953,1,0
386,74,108413,1,0
453,118,108719,1,0
248,196,109331,5,0
330,134,109637,1,0
274,111,109943,2,0,B|252:142|232:156|192:158|142:155|118:142|95:118|79:99,1,210
114,46,110862,2,0,B|268:47,1,140
319,174,111627,1,0
449,91,112086,1,0
454,229,112392,2,0,B|439:183|415:138|341:110|308:102|288:94,1,210
207,102,113311,1,0
207,102,113617,1,0
133,203,114535,5,0
189,204,114841,2,0,B|336:204,2,140
166,148,115760,1,0
211,286,116066,2,0,B|259:324|328:327|400:254,2,210
189,197,117290,1,0
190,95,117749,1,0
276,173,118209,1,0
278,119,118515,1,0
36,325,119382,6,0,B|193:326,1,140
267,314,120198,1,0
266,244,120658,1,0
266,244,120964,1,0
436,146,121882,6,0,B|371:221|292:161,1,140
159,111,122647,1,0
167,186,123107,2,0,B|324:188,1,140
38,98,135658,6,0,B|187:98,2,140
236,98,136576,6,0,B|380:98,1,140
260,156,137188,1,0
324,222,137494,2,0,B|181:224,2,140
405,222,138719,5,0
434,73,139331,5,0
372,72,139637,1,0
309,72,139943,1,0
246,72,140249,1,0
173,74,140556,1,0
39,72,141168,1,0
422,245,141780,2,0,B|268:245,3,140
154,249,143005,6,0,B|152:169,11,70
256,192,144841,12,4,147946
154,269,153891,6,0,B|240:155,3,140
213,77,155421,2,0,B|358:77,1,140
426,89,156033,6,0,B|426:233,2,140
426,89,156952,2,0,B|280:88,1,140
262,207,157870,1,0
320,96,158482,6,0,B|465:96,2,140
244,101,159401,2,0,B|245:253,1,140
244,243,160319,1,0
72,114,160931,6,0,B|125:54|226:21|340:27|423:93|434:127,1,396.666666666667
256,192,162105,12,0,163377
209,158,163686,6,0,B|233:120|281:120|325:129|326:165,2,140
272,200,164605,1,0
198,271,165217,2,0,B|341:271,1,140
192,192,165829,6,0,B|43:192,3,140
39,122,167054,2,0,B|167:90,1,128.333333333333
232,80,167666,1,0
225,144,168278,6,0,B|372:144,4,140
166,74,170115,2,0,B|189:50|204:29|244:18|297:35,1,140
255,103,170727,6,0,B|404:103,3,140
388,181,171952,6,0,B|243:181,4,140
245,258,173482,6,0,B|392:258,2,140
146,261,174401,6,0,B|118:198|114:174|138:134|150:122|156:118,1,140
216,131,175013,1,0
286,141,175319,2,0,B|286:289,5,140
208,280,177462,2,0,B|64:281,1,140
66,201,178074,2,0,B|225:201,1,140
256,192,178584,12,0,181231
415,144,181748,6,0,B|252:144,1,140
256,208,182360,2,0,B|408:208,1,140
376,268,182972,2,0,B|206:268,1,163.333333333333
119,270,183635,2,0,B|119:122,2,140
222,269,184503,6,0,B|221:116,3,140
230,45,185727,2,0,B|79:46,3,140
134,148,186952,2,0,B|282:149,3,140
357,145,188176,2,0,B|356:302,3,140
256,192,189248,12,4,196273
