osu file format v14

[General]
AudioFilename: drugs are bad.mp3
AudioLeadIn: 2000
PreviewTime: 23857
Countdown: 0
SampleSet: Normal
StackLeniency: 0.6
Mode: 0
LetterboxInBreaks: 0
WidescreenStoryboard: 0

[Editor]
Bookmarks: 973,25249,140845
DistanceSpacing: 1
BeatDivisor: 4
GridSize: 4
TimelineZoom: 1.5

[Metadata]
Title:Injection
TitleUnicode:Injection
Artist:Rise Against
ArtistUnicode:Rise Against
Creator:pishifat
Version:Hard
Source:
Tags:the sufferer & and witness metal punk okoratu yauxo
BeatmapID:539916
BeatmapSetID:214092

[Difficulty]
HPDrainRate:5
CircleSize:3.8
OverallDifficulty:6
ApproachRate:8
SliderMultiplier:1.4
SliderTickRate:2

[Events]
//Background and Video events
0,0,"doggy.jpg",0,0
//Break Periods
2,19714,21964
2,83460,91034
//Storyboard Layer 0 (Background)
//Storyboard Layer 1 (Fail)
//Storyboard Layer 2 (Pass)
//Storyboard Layer 3 (Foreground)
//Storyboard Sound Samples

[TimingPoints]
0,285.714285714286,4,3,1,35,1,0
0,-111.111111111111,4,1,1,50,0,0
1000,-100,4,1,1,50,0,0
22714,-100,4,1,1,45,0,8
23857,-111.111111111111,4,1,1,45,0,8
35285,-100,4,1,1,50,0,0
35571,-111.111111111111,4,1,1,50,0,0
41000,-100,4,1,1,50,0,8
41428,-111.111111111111,4,1,1,50,0,8
42142,-133.333333333333,4,1,1,50,0,8
45714,-100,4,1,1,50,0,0
46714,-100,4,1,1,55,0,1
55142,-100,4,1,1,55,0,0
55857,-100,4,1,1,55,0,1
65142,571.428571428571,4,1,1,40,1,0
65142,-66.6666666666667,4,1,1,41,0,0
66284,552.995391705069,4,1,1,40,1,8
67389,558.139534883721,4,1,1,40,1,0
67389,-66.6666666666667,4,1,1,41,0,0
68505,550.45871559633,4,1,1,40,1,8
68505,-66.6666666666667,4,1,1,41,0,0
69055,555.555555555556,4,1,1,40,1,8
69055,-66.6666666666667,4,1,1,40,0,8
69610,545.454545454546,4,1,1,40,1,0
69610,-66.6666666666667,4,1,1,41,0,0
70155,566.037735849057,4,1,1,40,1,8
70155,-66.6666666666667,4,1,1,41,0,0
70721,558.139534883721,4,1,1,40,1,8
71837,552.359033371692,4,1,1,40,1,0
71837,-66.6666666666667,4,1,1,41,0,0
74598,563.380281690141,4,1,1,40,1,8
74598,-66.6666666666667,4,1,1,41,0,8
75161,545.454545454546,4,1,1,40,1,8
75706,552.995391705069,4,1,1,40,1,8
76258,551.724137931035,4,1,1,40,1,0
76258,-66.6666666666667,4,1,1,41,0,0
77913,560.747663551402,4,1,1,40,1,8
77913,-66.6666666666667,4,1,1,41,0,8
78473,566.037735849057,4,1,1,40,1,0
78473,-66.6666666666667,4,1,1,41,0,0
79039,550.45871559633,4,1,1,40,1,8
79039,-66.6666666666667,4,1,1,41,0,0
79589,555.555555555556,4,1,1,40,1,8
80700,550.45871559633,4,1,1,40,1,0
80700,-66.6666666666667,4,1,1,40,0,0
82902,558.139534883721,4,3,2,50,1,0
83460,552.995391705069,4,3,2,50,1,8
84012,558.139534883721,4,3,2,50,1,8
85128,555.555555555556,4,3,2,50,1,0
86794,560.747663551402,4,3,2,50,1,8
87354,553.76095985233,4,3,2,50,1,0
91784,547.945205479452,4,3,2,50,1,0
91784,-58.8235294117647,4,3,2,51,0,0
92331,558.139534883721,4,3,2,50,1,8
92331,-58.8235294117647,4,3,2,51,0,8
92889,554.016620498615,4,3,2,50,1,8
92889,-58.8235294117647,4,3,2,51,0,0
93997,554.016620498615,4,3,2,50,1,0
93997,-58.8235294117647,4,3,2,50,0,0
96213,550.45871559633,4,3,2,50,1,0
96213,-58.8235294117647,4,3,2,51,0,0
98414,556.844547563805,4,3,2,50,1,0
98414,-58.8235294117647,4,3,2,51,0,0
100641,281.030444964871,4,1,1,45,1,0
100641,-107.52688172043,4,1,1,50,0,0
101765,285.714285714286,4,1,1,45,1,0
101765,-107.52688172043,4,1,1,50,0,0
105050,-100,4,1,1,55,0,1
113479,-100,4,1,1,55,0,0
114193,-100,4,1,1,55,0,1
123336,-100,4,1,1,50,0,0
132479,-100,4,1,1,45,0,0
142907,-100,4,1,1,35,0,0
144050,-100,4,1,1,25,0,0
145193,-100,4,1,1,15,0,0
146336,-100,4,2,1,5,0,0

[Colours]
Combo1 : 135,61,92
Combo2 : 93,93,93

[HitObjects]
168,325,0,6,0,L|37:317,2,125.999996154785,2|2|2,3:0|3:0|0:3,0:0:0:0:
334,279,857,1,8,2:1:0:0:
254,252,1000,6,0,B|225:214|225:214|210:173|210:173|164:119,1,140,4|0,0:0|0:0,0:0:0:0:
78,80,1428,2,0,B|39:75|39:75|-9:59,2,70,8|0|0,0:0|0:0|0:0,0:0:0:0:
158,53,1857,1,0,0:0:0:0:
232,14,2000,1,8,0:0:0:0:
232,14,2285,6,0,B|245:47|245:47|263:80,1,70,0|0,0:0|0:0,0:0:0:0:
305,173,2571,2,0,B|272:161|272:161|225:160,1,70,8|0,0:0|0:0,0:0:0:0:
149,162,2857,2,0,B|76:166,2,70,0|0|8,0:0|0:0|0:0,0:0:0:0:
195,231,3285,6,0,P|254:284|327:259,1,140,4|0,0:0|0:0,0:0:0:0:
328,172,3714,2,0,B|300:194|300:194|252:217,1,70,8|0,0:0|0:0,0:0:0:0:
258,125,4000,2,0,L|323:75,1,70,0|0,0:0|0:0,0:0:0:0:
367,17,4285,1,8,0:0:0:0:
408,178,4571,6,0,L|416:256,1,70,0|0,0:0|0:0,0:0:0:0:
328,304,4857,2,0,B|302:281|302:281|264:259,1,70,8|0,0:0|0:0,0:0:0:0:
199,305,5142,2,0,L|206:376,2,70,0|0|8,0:0|0:0|0:0,0:0:0:0:
188,219,5571,6,0,P|151:166|73:161,1,140,4|0,0:0|0:0,0:0:0:0:
37,244,6000,2,0,B|119:232,1,70,8|0,0:0|0:0,0:0:0:0:
188,219,6285,2,0,B|192:186|192:186|205:136,2,70,0|0|8,0:0|0:0|0:0,0:0:0:0:
249,375,6857,6,0,L|351:379,1,70
281,284,7142,2,0,L|196:298,1,70,8|0,0:0|0:0,0:0:0:0:
126,318,7428,2,0,B|105:343|105:343|69:368,2,70,0|0|8,0:0|0:0|0:0,0:0:0:0:
152,238,7857,6,0,B|178:196|178:196|215:175|215:175|246:135,1,140,4|0,0:0|0:0,0:0:0:0:
256,31,8285,1,8,0:0:0:0:
256,31,8571,2,0,L|325:38,1,70,0|0,0:0|0:0,0:0:0:0:
430,34,8857,1,8,0:0:0:0:
430,34,9142,6,0,B|426:78|426:78|432:126,1,70
461,205,9428,1,8,0:0:0:0:
383,234,9571,1,0,0:0:0:0:
302,212,9714,1,8,0:0:0:0:
147,277,10000,1,8,0:0:0:0:
229,290,10142,6,0,L|208:128,1,140,4|0,0:0|0:0,0:0:0:0:
120,192,10571,2,0,B|84:187|84:187|36:169,1,70,8|0,0:0|0:0,0:0:0:0:
16,99,10857,2,0,L|101:95,1,70,0|0,0:0|0:0,0:0:0:0:
159,54,11142,1,8,0:0:0:0:
159,54,11428,6,0,B|195:57|195:57|256:51,1,70,0|0,0:0|0:0,0:0:0:0:
333,37,11714,2,0,B|371:46|371:46|419:69,1,70,8|0,0:0|0:0,0:0:0:0:
365,139,12000,2,0,L|272:149,2,70,0|0|8,0:0|0:0|0:0,0:0:0:0:
449,129,12428,6,0,P|499:161|496:250,1,140,4|0,0:0|0:0,0:0:0:0:
404,270,12857,2,0,B|415:238|415:238|439:194,2,70,8|0|0,0:0|0:0|0:0,0:0:0:0:
399,355,13285,1,0,0:0:0:0:
318,329,13428,1,8,0:0:0:0:
318,329,13714,6,0,B|285:341|285:341|230:348,1,70,0|0,0:0|0:0,0:0:0:0:
151,307,14000,2,0,B|181:287|181:287|206:259,1,70,8|0,0:0|0:0,0:0:0:0:
153,194,14285,2,0,L|71:199,2,70,0|0|8,0:0|0:0|0:0,0:0:0:0:
215,137,14714,6,0,P|249:81|338:92,1,140,4|0,0:0|0:0,0:0:0:0:
366,171,15142,2,0,B|396:191|396:191|433:202,1,70,8|0,0:0|0:0,0:0:0:0:
493,146,15428,2,0,B|497:110|497:110|513:63,2,70,0|0|8,0:0|0:0|0:0,0:0:0:0:
463,311,16000,6,0,L|371:322,1,70,0|0,0:0|0:0,0:0:0:0:
304,265,16285,2,0,B|267:256|267:256|232:256,1,70,8|0,0:0|0:0,0:0:0:0:
166,305,16571,2,0,L|174:376,2,70,0|0|8,0:0|0:0|0:0,0:0:0:0:
156,221,17000,6,0,B|125:178|125:178|97:160|97:160|65:104,1,140,4|0,0:0|0:0,0:0:0:0:
78,13,17428,1,8,0:0:0:0:
78,13,17714,2,0,L|173:24,1,70
249,20,18000,2,0,P|298:54|288:138,1,140,8|0,0:0|0:0,0:0:0:0:
235,192,18428,6,0,L|172:177,2,35,4|0|8,0:3|0:0|0:3,0:0:0:0:
308,233,18714,1,8,0:3:0:0:
371,287,18857,2,0,B|404:280|404:280|453:277,2,70,4|4|4,0:3|0:3|0:3,0:0:0:0:
330,359,19285,5,4,0:0:0:0:
337,340,22714,5,0,0:1:0:0:
402,292,22857,2,0,B|391:255|391:255|362:215,1,70,8|0,0:0|0:0,0:0:0:0:
330,157,23142,2,0,L|419:137,1,70,8|4,0:3|0:3,0:0:0:0:
477,127,23428,2,0,B|475:163|475:163|460:212,2,70,8|8|4,0:0|0:3|0:3,0:0:0:0:
447,58,23857,6,0,B|366:41|366:41|300:45,1,125.999996154785,4|0,0:0|0:0,0:0:0:0:
232,77,24285,1,8,0:0:0:0:
328,195,24571,2,0,L|403:190,1,62.9999980773926,0|0,0:0|0:0,0:0:0:0:
458,156,24857,1,8,0:0:0:0:
456,231,25000,6,0,P|415:297|363:316,1,125.999996154785,0|0,0:0|0:0,0:0:0:0:
279,296,25428,1,8,0:0:0:0:
142,361,25714,2,0,B|110:368|110:368|59:369,2,62.9999980773926,0|0|8,0:0|0:0|0:0,0:0:0:0:
206,321,26142,6,0,B|193:272|193:272|199:172,1,125.999996154785,0|0,0:0|0:0,0:0:0:0:
207,102,26571,1,8,0:0:0:0:
207,102,26857,2,0,L|282:109,1,62.9999980773926,0|0,0:0|0:0,0:0:0:0:
343,98,27142,1,8,0:0:0:0:
316,171,27285,6,0,P|357:222|431:213,1,125.999996154785,0|0,0:0|0:0,0:0:0:0:
500,189,27714,1,8,0:0:0:0:
399,303,28000,2,0,L|312:310,1,62.9999980773926,0|0,0:0|0:0,0:0:0:0:
261,306,28285,1,8,0:0:0:0:
219,242,28428,6,0,B|186:215|186:215|154:196|154:196|108:150,1,125.999996154785,0|0,0:0|0:0,0:0:0:0:
80,79,28857,1,8,0:0:0:0:
232,77,29142,2,0,L|303:66,2,62.9999980773926,0|0|8,0:0|0:0|0:0,0:0:0:0:
279,149,29571,6,0,P|348:175|382:215,1,125.999996154785,0|0,0:0|0:0,0:0:0:0:
396,307,30000,1,8,0:0:0:0:
400,311,30285,2,0,L|312:302,1,62.9999980773926,0|0,0:0|0:0,0:0:0:0:
267,273,30571,1,8,0:0:0:0:
206,318,30714,6,0,P|119:324|86:282,1,125.999996154785,0|0,0:0|0:0,0:0:0:0:
56,216,31142,1,8,0:0:0:0:
207,217,31428,2,0,B|186:242|186:242|138:269,2,62.9999980773926,0|0|8,0:0|0:0|0:0,0:0:0:0:
244,150,31857,5,0,0:0:0:0:
244,150,32142,2,0,L|296:155,2,31.4999990386963,8|0|8,0:0|0:0|0:0,0:0:0:0:
174,120,32428,1,8,0:0:0:0:
104,90,32571,2,0,B|95:60|95:60|75:28,2,62.9999980773926,8|8|4,0:0|0:3|0:3,0:0:0:0:
112,165,33000,6,0,B|106:242|106:242|120:306,1,125.999996154785,4|0,0:0|0:0,0:0:0:0:
192,353,33428,1,8,0:0:0:0:
192,353,33714,2,0,L|200:281,1,62.9999980773926,0|0,0:0|0:0,0:0:0:0:
191,215,34000,1,8,0:0:0:0:
260,244,34142,6,0,P|321:246|376:197,1,125.999996154785,0|0,0:0|0:0,0:0:0:0:
393,109,34571,1,8,0:0:0:0:
393,109,34857,2,0,L|469:115,2,62.9999980773926,0|0|8,0:0|0:0|0:0,0:0:0:0:
320,84,35285,6,0,B|293:71|293:71|275:70|275:70|241:29|193:21,1,140,0|0,0:0|0:0,0:0:0:0:
100,56,35714,1,8,0:0:0:0:
230,133,36000,2,0,B|248:162|248:162|265:210,1,62.9999980773926,0|0,0:0|0:0,0:0:0:0:
245,264,36285,1,8,0:0:0:0:
237,339,36428,6,0,P|297:369|362:355,1,125.999996154785,0|0,0:0|0:0,0:0:0:0:
371,266,36857,1,8,0:0:0:0:
371,266,37142,2,0,B|344:253|344:253|304:229,1,62.9999980773926,0|0,0:0|0:0,0:0:0:0:
257,188,37428,1,0,0:0:0:0:
245,264,37571,6,0,L|101:277,1,125.999996154785,0|0,0:0|0:0,0:0:0:0:
27,251,38000,1,8,0:0:0:0:
143,349,38285,2,0,B|174:347|174:347|222:353,1,62.9999980773926,0|0,0:0|0:0,0:0:0:0:
283,361,38571,1,8,0:0:0:0:
324,297,38714,6,0,B|352:264|352:264|386:242|386:242|418:206,1,125.999996154785,0|0,0:0|0:0,0:0:0:0:
439,118,39142,1,8,0:0:0:0:
439,118,39428,2,0,L|512:128,2,62.9999980773926,0|0|8,0:0|0:0|0:0,0:0:0:0:
374,78,39857,6,0,P|313:58|239:81,1,125.999996154785,0|0,0:0|0:0,0:0:0:0:
203,150,40285,1,8,0:0:0:0:
44,47,40571,2,0,B|77:39|77:39|134:35,1,62.9999980773926,0|0,0:0|0:0,0:0:0:0:
182,44,40857,1,8,0:0:0:0:
136,107,41000,6,0,B|122:132|122:132|120:151|120:151|82:178|67:245,1,140,4|0,0:0|0:0,0:0:0:0:
65,322,41428,1,8,0:0:0:0:
214,270,41714,1,0,0:0:0:0:
295,288,41857,1,0,0:0:0:0:
359,342,42000,1,8,0:0:0:0:
428,305,42142,6,0,L|424:184,1,105.000004005432,4|0,0:0|0:0,0:0:0:0:
455,129,42571,1,8,0:0:0:0:
317,163,42857,2,0,B|288:164|288:164|249:162,1,52.5000020027161,8|0,0:3|0:0,0:0:0:0:
193,137,43142,1,8,0:0:0:0:
248,265,43428,6,0,B|222:272|222:272|174:281,1,52.5000020027161,0|0,0:0|0:0,0:0:0:0:
120,273,43714,1,8,0:0:0:0:
249,351,44000,2,0,B|273:340|273:340|309:329,2,52.5000020027161,8|0|8,0:3|0:0|0:0,0:0:0:0:
178,372,44428,6,0,B|149:366|130:354|130:354|119:358|119:358|64:348,1,105.000004005432,4|0,0:0|0:0,0:0:0:0:
5,308,44857,1,8,0:0:0:0:
5,308,45142,2,0,L|17:238,1,52.5000020027161
14,177,45428,1,8,0:0:0:0:
147,228,45714,6,0,L|145:280,3,35,8|0|0|0,0:0|0:0|0:0|0:0,0:0:0:0:
140,214,46000,2,0,L|145:123,1,70
185,71,46285,1,8,0:0:0:0:
267,62,46428,1,8,0:3:0:0:
335,108,46571,1,4,0:3:0:0:
363,187,46714,6,0,B|373:99|373:99|382:80|382:80|387:43,1,140,4|0,0:0|0:0,0:0:0:0:
494,116,47142,2,0,B|490:155|490:155|472:204,1,70,8|0,0:0|0:0,0:0:0:0:
456,264,47428,2,0,L|534:254,2,70,0|0|8,0:0|0:0|0:0,0:0:0:0:
372,270,47857,1,0,0:0:0:0:
291,249,48000,6,0,L|277:165,1,70,0|0,0:0|0:0,0:0:0:0:
238,83,48285,2,0,B|215:112|215:112|201:153,1,70,8|0,0:0|0:0,0:0:0:0:
179,224,48571,2,0,L|94:216,1,70,0|0,0:0|0:0,0:0:0:0:
32,182,48857,1,8,0:0:0:0:
42,265,49000,6,0,B|73:297|73:297|116:318|116:318|156:357,1,140,4|0,0:0|0:0,0:0:0:0:
244,304,49428,1,8,0:0:0:0:
319,341,49571,2,0,B|353:347|353:347|394:347,1,70,0|0,0:0|0:0,0:0:0:0:
363,266,49857,2,0,B|331:249|331:249|289:215,1,70,0|8,0:0|0:0,0:0:0:0:
272,149,50142,1,0,0:0:0:0:
198,107,50285,6,0,L|109:119,2,70,0|0|8,0:0|0:0|0:0,0:0:0:0:
271,65,50714,1,0,0:0:0:0:
346,102,50857,1,0,0:0:0:0:
422,67,51000,2,0,L|515:52,1,70,0|8,0:0|0:0,0:0:0:0:
474,138,51285,6,0,P|416:173|417:246,1,140,4|0,0:0|0:0,0:0:0:0:
369,335,51714,2,0,B|340:311|340:311|312:277,1,70,8|0,0:0|0:0,0:0:0:0:
262,347,52000,2,0,B|242:315|242:315|227:274,1,70,0|0,0:0|0:0,0:0:0:0:
157,326,52285,2,0,B|149:289|149:289|149:245,1,70,8|0,0:0|0:0,0:0:0:0:
171,153,52571,6,0,B|206:157|206:157|259:174,2,70,0|0|8,0:0|0:0|0:0,0:0:0:0:
90,177,53000,1,0,0:0:0:0:
107,94,53142,2,0,B|132:71|132:71|152:70|152:70|179:50|235:51,1,140,0|8,0:0|0:0,0:0:0:0:
301,102,53571,6,0,P|274:50|343:7,1,140,4|0,0:0|0:0,0:0:0:0:
430,25,54000,2,0,B|443:57|443:57|471:99,1,70,8|0,0:0|0:0,0:0:0:0:
490,166,54285,2,0,L|410:172,1,70,0|0,0:0|0:0,0:0:0:0:
340,200,54571,1,8,0:0:0:0:
444,332,54857,6,0,B|410:312|410:312|365:299,1,70
297,312,55142,1,8,0:0:0:0:
252,142,55428,2,0,L|291:148,2,35,8|0|4,0:3|0:0|0:3,0:0:0:0:
167,148,55714,1,0,0:0:0:0:
213,222,55857,6,0,B|160:227|160:227|63:206,1,140,4|0,0:0|0:0,0:0:0:0:
2,115,56285,2,0,L|85:108,1,70,8|0,0:0|0:0,0:0:0:0:
134,52,56571,2,0,B|109:27|109:27|77:4,2,70,0|0|8,0:0|0:0|0:0,0:0:0:0:
183,119,57000,1,0,0:0:0:0:
265,119,57142,6,0,B|296:100|296:100|325:65,1,70,0|0,0:0|0:0,0:0:0:0:
402,12,57428,2,0,B|397:105,1,70,8|0,0:0|0:0,0:0:0:0:
372,161,57714,2,0,B|364:195|364:195|369:243,1,70,0|0,0:0|0:0,0:0:0:0:
402,307,58000,1,8,0:0:0:0:
326,344,58142,6,0,B|239:329|239:329|221:321|221:321|171:313,1,140,4|0,0:0|0:0,0:0:0:0:
91,355,58571,1,8,0:0:0:0:
44,286,58714,2,0,L|30:210,1,70,0|0,0:0|0:0,0:0:0:0:
65,140,59000,2,0,B|97:158|97:158|136:172,1,70,0|8,0:0|0:0,0:0:0:0:
213,174,59285,1,0,0:0:0:0:
289,140,59428,6,0,B|301:106|301:106|323:75,2,70,0|0|8,0:0|0:0|0:0,0:0:0:0:
305,222,59857,1,0,0:0:0:0:
383,253,60000,1,0,0:0:0:0:
462,225,60142,2,0,B|487:198|487:198|533:171,1,70,0|8,0:0|0:0,0:0:0:0:
449,128,60428,6,0,B|398:116|398:116|370:92|370:92|320:78,1,140,4|0,0:0|0:0,0:0:0:0:
235,139,60857,2,0,L|334:165,1,70,8|0,0:0|0:0,0:0:0:0:
258,228,61142,2,0,L|159:201,1,70,0|0,0:0|0:0,0:0:0:0:
140,277,61428,2,0,L|229:304,1,70,8|0,0:0|0:0,0:0:0:0:
291,303,61714,6,0,B|316:278|316:278|361:251,2,70,0|0|8,0:0|0:0|0:0,0:0:0:0:
247,374,62142,1,0,0:0:0:0:
207,297,62285,2,0,B|225:207|225:207|259:146,1,140,0|0,0:0|0:0,0:0:0:0:
319,119,62714,6,0,L|174:131,1,140,4|0,0:0|0:0,0:0:0:0:
87,79,63142,2,0,B|111:52|111:52|148:30,1,70,8|0,0:0|0:0,0:0:0:0:
224,41,63428,1,0,0:0:0:0:
250,206,63714,2,0,B|267:239|267:239|307:280,1,70,8|0,0:0|0:0,0:0:0:0:
369,291,64000,5,0,0:0:0:0:
437,242,64142,2,0,L|431:203,2,35,8|0|8,0:0|0:0|0:0,0:0:0:0:
446,325,64428,1,8,0:0:0:0:
377,373,64571,2,0,L|292:382,1,70,8|8,0:0|0:3,0:0:0:0:
235,336,64857,2,0,B|203:318|203:318|151:309,1,70,4|4,0:3|0:3,0:0:0:0:
87,333,65142,6,0,B|99:229|99:229|90:160,1,157.500006008148,4|0,0:0|0:0,0:0:0:0:
61,102,65713,1,8,0:0:0:0:
178,145,65999,2,0,B|238:150|238:150|292:137,1,105.000004005432
297,152,66836,1,8,0:0:0:0:
311,162,67389,6,0,B|411:139|411:139|464:102,1,157.500006008148
494,38,67947,1,8,0:0:0:0:
511,162,68226,2,0,L|458:204,1,52.5000020027161
432,266,68505,1,0,0:0:0:0:
308,242,68780,1,0,0:0:0:0:
198,305,69055,2,0,L|193:185,1,105.000004005432,8|8,0:0|0:3,0:0:0:0:
149,84,69610,6,0,B|203:103|203:103|318:113,1,157.500006008148,4|0,0:0|0:0,0:0:0:0:
376,81,70155,1,8,0:0:0:0:
424,197,70438,2,0,B|365:212|365:212|315:208,1,105.000004005432
307,220,71279,1,8,0:0:0:0:
294,235,71837,6,0,B|197:227|197:227|141:204,1,157.500006008148
98,135,72389,1,8,0:0:0:0:
223,150,72665,2,0,L|337:158,2,105.000004005432
119,222,73494,2,0,L|170:234,1,52.5000020027161,8|0,0:0|0:0,0:0:0:0:
119,304,73770,2,0,L|68:316,1,52.5000020027161,8|0,0:0|0:0,0:0:0:0:
142,380,74046,6,0,B|243:373|243:373|306:350,1,157.500006008148,4|0,0:0|0:0,0:0:0:0:
336,281,74598,1,8,0:0:0:0:
246,164,74879,2,0,B|265:130|265:130|319:91,1,105.000004005432
334,104,75706,1,8,0:0:0:0:
348,117,76258,6,0,B|245:108|245:108|176:77,1,157.500006008148
135,34,76809,1,8,0:0:0:0:
176,175,77085,2,0,L|102:185,1,52.5000020027161
47,158,77361,1,0,0:0:0:0:
3,276,77637,1,0,0:0:0:0:
127,262,77913,2,0,L|252:271,1,105.000004005432,8|8,0:0|0:3,0:0:0:0:
346,321,78473,6,0,B|332:262|332:262|345:162,1,157.500006008148,4|0,0:0|0:0,0:0:0:0:
378,94,79039,1,8,0:0:0:0:
255,121,79314,2,0,B|189:114|189:114|144:91,1,105.000004005432
142,109,80144,1,8,0:0:0:0:
130,127,80700,6,0,B|121:227|121:227|134:296,1,157.500006008148
179,348,81250,1,8,0:0:0:0:
291,291,81525,2,0,L|406:303,2,105.000004005432
183,224,82351,1,8,0:0:0:0:
61,254,82626,1,8,0:0:0:0:
14,366,82901,5,2,0:0:0:0:
299,353,91784,6,0,L|358:346,2,59.5000011348725,6|0|0,0:0|0:0|0:0,0:0:0:0:
164,315,92331,2,0,B|137:302|137:302|103:273,2,59.5000011348725,8|0|0,0:0|0:0|0:0,0:0:0:0:
296,259,92889,6,0,L|289:185,2,59.5000011348725,2|0|0,0:0|0:0|0:0,0:0:0:0:
389,150,93443,2,0,B|368:127|368:127|324:94,1,59.5000011348725,8|0,0:0|0:0,0:0:0:0:
272,82,93720,1,0,0:0:0:0:
140,163,93997,6,0,L|61:169,2,59.5000011348725,2|0|0,0:0|0:0|0:0,0:0:0:0:
290,200,94551,2,0,B|321:206|321:206|355:204,2,59.5000011348725,8|0|0,0:0|0:0|0:0,0:0:0:0:
185,85,95105,6,0,L|193:12,2,59.5000011348725,2|0|0,0:0|0:0|0:0,0:0:0:0:
153,244,95659,2,0,B|130:264|130:264|84:291,1,59.5000011348725,8|0,0:0|0:0,0:0:0:0:
89,191,95936,2,0,B|110:175|110:175|157:156,1,59.5000011348725,0|0,0:3|0:3,0:0:0:0:
218,172,96213,6,0,B|232:199|232:199|260:234,2,59.5000011348725,2|0|0,0:0|0:0|0:0,0:0:0:0:
229,17,96763,2,0,L|304:5,2,59.5000011348725,8|0|0,0:0|0:0|0:0,0:0:0:0:
77,46,97313,6,0,L|9:38,2,59.5000011348725,2|0|0,0:0|0:0|0:0,0:0:0:0:
237,95,97864,2,0,B|268:100|268:100|321:99,1,59.5000011348725,8|0,0:0|0:0,0:0:0:0:
372,85,98139,1,0,0:0:0:0:
442,222,98414,6,0,L|451:302,2,59.5000011348725,2|0|0,0:0|0:0|0:0,0:0:0:0:
466,69,98970,2,0,B|491:51|491:51|518:37,2,59.5000011348725,8|0|0,0:0|0:0|0:0,0:0:0:0:
328,139,99527,6,0,L|250:128,2,59.5000011348725,2|0|0,0:0|0:0|0:0,0:0:0:0:
371,288,100084,2,0,B|341:301|341:301|308:305,1,59.5000011348725,8|0,0:0|0:0,0:0:0:0:
243,290,100362,2,0,B|219:276|219:276|166:265,1,59.5000011348725
118,296,100641,6,0,L|125:360,1,65.1000020363618,8|0,0:0|0:0,0:0:0:0:
44,337,100922,2,0,L|36:272,1,65.1000020363618,8|0,0:0|0:0,0:0:0:0:
45,187,101203,2,0,B|76:190|76:190|128:187,1,65.1000020363618,8|0,0:0|0:0,0:0:0:0:
181,156,101484,1,8,0:0:0:0:
240,105,101624,1,0,0:0:0:0:
312,135,101765,6,0,L|300:218,1,65.1000020363618,8|0,0:0|0:0,0:0:0:0:
384,177,102050,2,0,L|393:113,1,65.1000020363618,8|0,0:0|0:0,0:0:0:0:
439,31,102336,2,0,B|463:55|463:55|487:93,1,65.1000020363618,8|0,0:0|0:0,0:0:0:0:
495,158,102622,1,8,0:0:0:0:
463,229,102765,1,0,0:0:0:0:
483,304,102907,6,0,L|495:378,1,65.1000020363618,8|0,0:0|0:0,0:0:0:0:
412,357,103193,2,0,L|401:292,1,65.1000020363618,8|0,0:0|0:0,0:0:0:0:
317,255,103479,2,0,B|284:261|284:261|222:256,1,65.1000020363618,8|0,0:0|0:0,0:0:0:0:
194,178,103765,1,8,0:0:0:0:
104,216,103907,1,0,0:0:0:0:
116,119,104050,5,8,0:0:0:0:
45,308,105050,6,0,B|73:328|73:328|91:327|91:327|132:349|175:340,1,140,4|0,0:0|0:0,0:0:0:0:
240,252,105479,2,0,B|199:249|199:249|147:236,1,70,8|0,0:0|0:0,0:0:0:0:
126,171,105765,2,0,L|212:153,2,70,0|0|8,0:0|0:0|0:0,0:0:0:0:
49,204,106193,1,0,0:0:0:0:
58,120,106336,6,0,B|69:86|69:86|96:36,1,70,0|0,0:0|0:0,0:0:0:0:
189,66,106622,2,0,L|270:75,1,70,8|0,0:0|0:0,0:0:0:0:
339,51,106907,2,0,B|371:55|371:55|420:70,1,70,0|0,0:0|0:0,0:0:0:0:
463,128,107193,1,8,0:0:0:0:
381,148,107336,6,0,P|299:144|250:191,1,140,4|0,0:0|0:0,0:0:0:0:
275,281,107765,1,8,0:0:0:0:
338,226,107907,2,0,L|434:235,1,70,0|0,0:0|0:0,0:0:0:0:
416,316,108193,2,0,B|378:323|378:323|332:325,1,70,0|8,0:0|0:0,0:0:0:0:
275,281,108479,1,0,0:0:0:0:
199,319,108622,6,0,B|188:353|188:353|167:391,2,70,0|0|8,0:0|0:0|0:0,0:0:0:0:
207,234,109050,1,0,0:0:0:0:
165,161,109193,1,0,0:0:0:0:
230,109,109336,2,0,B|267:120|267:120|317:127,1,70,0|8,0:0|0:0,0:0:0:0:
290,37,109622,6,0,P|212:26|131:63,1,140,4|0,0:0|0:0,0:0:0:0:
75,113,110050,2,0,B|50:85|50:85|24:25,1,70,8|0,0:0|0:0,0:0:0:0:
16,166,110336,2,0,B|43:194|43:194|77:219,1,70,0|0,0:0|0:0,0:0:0:0:
165,210,110622,2,0,B|153:172|153:172|147:112,1,70,8|0,0:0|0:0,0:0:0:0:
267,159,110907,6,0,L|358:176,2,70,0|0|8,0:0|0:0|0:0,0:0:0:0:
215,94,111336,1,0,0:0:0:0:
150,142,111479,2,0,P|104:151|20:96,1,140,0|0,0:0|0:0,0:0:0:0:
107,71,111907,6,0,B|75:162|75:162|35:222,1,140,4|0,0:0|0:0,0:0:0:0:
139,235,112336,2,0,B|171:245|171:245|225:271,1,70,8|0,0:0|0:0,0:0:0:0:
276,304,112622,2,0,L|363:298,1,70,0|0,0:0|0:0,0:0:0:0:
418,256,112907,1,8,0:0:0:0:
261,196,113193,6,0,B|252:158|252:158|250:118,1,70,0|0,0:0|0:0,0:0:0:0:
258,43,113479,1,8,0:0:0:0:
389,146,113765,2,0,L|383:198,2,35,8|0|4,0:3|0:0|0:3,0:0:0:0:
365,65,114050,1,0,0:0:0:0:
306,127,114193,6,0,B|248:117|248:117|134:127,1,140,4|0,0:0|0:0,0:0:0:0:
83,188,114622,2,0,L|184:205,1,70,8|0,0:0|0:0,0:0:0:0:
223,244,114907,2,0,B|203:279|203:279|172:311,2,70,0|0|8,0:0|0:0|0:0,0:0:0:0:
228,159,115336,1,0,0:0:0:0:
299,201,115479,6,0,L|381:197,1,70,0|0,0:0|0:0,0:0:0:0:
473,205,115765,2,0,B|449:237|449:237|428:273,1,70,8|0,0:0|0:0,0:0:0:0:
396,339,116050,2,0,B|357:333|357:333|301:315,1,70,0|0,0:0|0:0,0:0:0:0:
254,282,116336,1,8,0:0:0:0:
186,331,116479,6,0,B|154:342|154:342|98:333|70:269,1,140,4|0,0:0|0:0,0:0:0:0:
110,179,116907,1,8,0:0:0:0:
74,102,117050,2,0,L|-2:90,1,70,0|0,0:0|0:0,0:0:0:0:
77,23,117336,2,0,L|154:35,1,70,0|8,0:0|0:0,0:0:0:0:
212,84,117622,1,0,0:0:0:0:
291,56,117765,6,0,B|309:30|309:30|348:-7,2,70,0|0|8,0:0|0:0|0:0,0:0:0:0:
288,139,118193,1,0,0:0:0:0:
322,215,118336,1,0,0:0:0:0:
408,226,118479,2,0,L|414:129,1,70,0|8,0:0|0:0,0:0:0:0:
403,231,118765,6,0,B|351:252|351:252|240:258,1,140,4|0,0:0|0:0,0:0:0:0:
164,230,119193,2,0,B|194:205|194:205|243:177,1,70,8|0,0:0|0:0,0:0:0:0:
248,110,119479,2,0,B|211:104|211:104|164:88,1,70,0|0,0:0|0:0,0:0:0:0:
251,33,119765,2,0,L|328:44,1,70,8|0,0:0|0:0,0:0:0:0:
404,40,120050,6,0,B|434:20|434:20|471:7,2,70,0|0|8,0:0|0:0|0:0,0:0:0:0:
366,114,120479,1,0,0:0:0:0:
355,192,120622,2,0,P|292:237|217:206,1,140
283,162,121050,6,0,B|239:176|239:176|141:169,1,140,4|0,0:0|0:0,0:0:0:0:
39,156,121479,2,0,B|30:187|30:187|20:244,1,70,8|0,0:0|0:0,0:0:0:0:
70,293,121765,2,0,L|160:284,1,70,0|0,0:0|0:0,0:0:0:0:
218,257,122050,1,8,0:0:0:0:
374,317,122336,6,0,L|290:311,1,70,0|0,0:0|0:0,0:0:0:0:
230,271,122622,1,8,0:0:0:0:
230,271,122907,2,0,B|256:248|256:248|288:203,1,70,8|0,0:0|0:0,0:0:0:0:
294,137,123193,1,0,0:0:0:0:
215,165,123336,6,0,P|146:159|113:80,1,140,4|0,0:0|0:0,0:0:0:0:
188,50,123765,2,0,B|223:51|223:51|269:43,1,70,8|0,0:0|0:0,0:0:0:0:
334,12,124050,2,0,B|368:13|368:13|429:28,1,70,0|0,0:0|0:0,0:0:0:0:
441,96,124336,2,0,L|363:107,1,70,8|0,0:0|0:0,0:0:0:0:
294,137,124622,5,0,0:0:0:0:
276,219,124765,1,0,0:0:0:0:
204,263,124907,1,8,0:0:0:0:
204,263,125193,2,0,L|210:352,2,70,0|0|8,0:0|0:0|0:0,0:0:0:0:
197,179,125622,6,0,P|184:145|72:126,1,140,4|0,0:0|0:0,0:0:0:0:
64,216,126050,2,0,B|86:240|86:240|132:266,1,70,8|0,0:0|0:0,0:0:0:0:
204,263,126336,2,0,B|239:271|239:271|291:295,1,70,0|0,0:0|0:0,0:0:0:0:
336,336,126622,1,8,0:0:0:0:
424,192,126907,6,0,L|331:201,1,70,0|0,0:0|0:0,0:0:0:0:
266,141,127193,2,0,B|241:118|241:118|196:93,1,70,8|0,0:0|0:0,0:0:0:0:
126,115,127479,2,0,L|120:187,2,70,0|0|8,0:0|0:0|0:0,0:0:0:0:
150,34,127907,6,0,B|203:20|203:20|317:34,1,140,4|0,0:0|0:0,0:0:0:0:
382,76,128336,2,0,B|411:92|411:92|454:100,1,70,8|0,0:0|0:0,0:0:0:0:
398,170,128622,2,0,L|327:156,1,70,0|0,0:0|0:0,0:0:0:0:
253,119,128907,2,0,B|221:135|221:135|174:175,1,70,8|0,0:0|0:0,0:0:0:0:
139,221,129193,6,0,L|62:227,1,70,0|0,0:0|0:0,0:0:0:0:
3,173,129479,1,8,0:0:0:0:
112,300,129765,2,0,L|198:291,2,70,0|0|8,0:0|0:0|0:0,0:0:0:0:
61,367,130193,6,0,B|103:380|103:380|228:366,1,140,4|0,0:0|0:0,0:0:0:0:
277,300,130622,2,0,B|301:272|301:272|347:242,1,70,8|0,0:0|0:0,0:0:0:0:
397,206,130907,2,0,B|366:184|366:184|318:166,1,70,0|0,0:0|0:0,0:0:0:0:
259,137,131193,2,0,L|268:54,1,70,8|0,0:0|0:0,0:0:0:0:
184,86,131479,6,0,B|149:95|149:95|105:98,1,70,0|0,0:0|0:0,0:0:0:0:
37,64,131765,1,8,0:0:0:0:
22,231,132050,2,0,L|-11:220,2,35,8|0|0,0:0|0:0|0:0,0:0:0:0:
104,228,132336,1,8,0:0:0:0:
58,154,132479,6,0,B|106:144|106:144|152:147|152:147|199:137,1,140,4|0,0:0|0:0,0:0:0:0:
275,71,132907,1,0,0:0:0:0:
204,223,133193,2,0,P|306:237|339:214,1,140,8|0,0:0|0:0,0:0:0:0:
449,99,133765,5,0,0:0:0:0:
452,266,134050,1,0,0:0:0:0:
452,266,134336,2,0,P|401:220|312:230,1,140,8|0,0:0|0:0,0:0:0:0:
285,289,134765,6,0,L|277:122,1,140,4|0,0:0|0:0,0:0:0:0:
306,48,135193,1,0,0:0:0:0:
198,177,135479,2,0,P|149:182|69:125,1,140,8|0,0:0|0:0,0:0:0:0:
242,109,136050,6,0,B|292:129|292:129|391:143,1,140,0|0,0:0|0:0,0:0:0:0:
247,247,136622,1,8,0:0:0:0:
174,288,136765,1,8,0:0:0:0:
91,271,136907,1,8,0:0:0:0:
62,192,137050,6,0,B|74:150|74:150|100:112|100:112|118:65,1,140,4|0,0:0|0:0,0:0:0:0:
173,156,137479,1,0,0:0:0:0:
173,156,137765,2,0,P|234:107|303:117,1,140,8|0,0:0|0:0,0:0:0:0:
389,242,138336,5,0,0:0:0:0:
451,86,138622,1,0,0:0:0:0:
389,242,138907,2,0,B|309:205|309:205|256:193,1,140,8|0,0:0|0:0,0:0:0:0:
277,275,139336,6,0,P|337:224|331:141,1,140,4|0,0:0|0:0,0:0:0:0:
297,70,139765,1,0,0:0:0:0:
170,180,140050,2,0,B|126:175|126:175|79:154|79:154|25:145,1,140,8|0,0:0|0:0,0:0:0:0:
136,258,140622,6,0,L|197:263,2,35,8|0|8,0:0|0:0|0:0,0:0:0:0:
46,243,140907,2,0,B|21:269|21:269|-4:314,1,70,8|8,0:0|0:0,0:0:0:0:
33,377,141193,1,8,0:0:0:0:
110,344,141336,1,8,0:3:0:0:
193,351,141479,1,4,0:3:0:0:
256,295,141622,5,4,0:0:0:0:
256,192,141765,12,0,146336,0:0:0:0:
