osu file format v14

[General]
AudioFilename: drugs are bad.mp3
AudioLeadIn: 2000
PreviewTime: 23857
Countdown: 0
SampleSet: Normal
StackLeniency: 0.3
Mode: 0
LetterboxInBreaks: 0
WidescreenStoryboard: 0

[Editor]
Bookmarks: 25249,140845
DistanceSpacing: 1.5
BeatDivisor: 4
GridSize: 4
TimelineZoom: 1.5

[Metadata]
Title:Injection
TitleUnicode:Injection
Artist:Rise Against
ArtistUnicode:Rise Against
Creator:pishifat
Version:Extreme
Source:
Tags:the sufferer & and witness metal punk okoratu yauxo
BeatmapID:646390
BeatmapSetID:214092

[Difficulty]
HPDrainRate:6.5
CircleSize:4.2
OverallDifficulty:9.2
ApproachRate:9.6
SliderMultiplier:1.8
SliderTickRate:2

[Events]
//Background and Video events
0,0,"doggy.jpg",0,0
//Break Periods
2,19485,22205
//Storyboard Layer 0 (Background)
//Storyboard Layer 1 (Fail)
//Storyboard Layer 2 (Pass)
//Storyboard Layer 3 (Foreground)
//Storyboard Sound Samples

[TimingPoints]
0,285.714285714286,4,2,1,35,1,0
1000,-100,4,1,1,50,0,0
23857,-111.111111111111,4,1,1,45,0,0
41000,-100,4,1,1,45,0,0
42142,-133.333333333333,4,1,1,45,0,0
45714,-100,4,1,1,45,0,0
46714,-95.2380952380952,4,1,1,55,0,1
53142,-83.3333333333333,4,1,1,55,0,1
53571,-88.4955752212389,4,1,1,55,0,1
54000,-95.2380952380952,4,1,1,55,0,1
55142,-95.2380952380952,4,1,1,55,0,0
55857,-95.2380952380952,4,1,1,55,0,1
62285,-83.3333333333333,4,1,1,55,0,1
62714,-88.4955752212389,4,1,1,55,0,1
63142,-95.2380952380952,4,1,1,55,0,1
65142,571.428571428571,4,1,1,40,1,0
65142,-80,4,1,1,40,0,0
66284,552.995391705069,4,1,1,40,1,8
67389,558.139534883721,4,1,1,40,1,0
67389,-80,4,1,1,40,0,0
68505,550.45871559633,4,1,1,40,1,8
68505,-80,4,1,1,40,0,8
69055,555.555555555556,4,1,1,40,1,8
69610,545.454545454546,4,1,1,40,1,0
69610,-80,4,1,1,40,0,0
70155,566.037735849057,4,1,1,40,1,8
70438,-80,4,1,1,40,0,8
70721,558.139534883721,4,1,1,40,1,8
71837,552.359033371692,4,1,1,40,1,0
71837,-80,4,1,1,40,0,0
72665,-83.3333333333333,4,1,1,40,0,0
73494,-86.9565217391304,4,1,1,40,0,0
73770,-90.9090909090909,4,1,1,40,0,0
74046,-80,4,1,1,40,0,0
74598,563.380281690141,4,1,1,40,1,8
74879,-80,4,1,1,40,0,8
75161,545.454545454546,4,1,1,40,1,8
75706,552.995391705069,4,1,1,40,1,8
76258,551.724137931035,4,1,1,40,1,0
76258,-80,4,1,1,40,0,0
77913,560.747663551402,4,1,1,40,1,8
78473,566.037735849057,4,1,1,40,1,0
78473,-80,4,1,1,40,0,0
79039,550.45871559633,4,1,1,40,1,8
79314,-80,4,1,1,40,0,8
79589,555.555555555556,4,1,1,40,1,8
80700,550.45871559633,4,1,1,40,1,0
80700,-80,4,1,1,40,0,0
82902,558.139534883721,4,3,2,50,1,0
82902,-90.9090909090909,4,3,2,50,0,0
83460,552.995391705069,4,3,2,50,1,8
83460,-90.9090909090909,4,3,2,50,0,8
84012,558.139534883721,4,3,2,50,1,8
84012,-90.9090909090909,4,3,2,50,0,8
85128,555.555555555556,4,3,2,50,1,0
85128,-90.9090909090909,4,3,2,50,0,0
86794,560.747663551402,4,3,2,50,1,8
86794,-66.6666666666667,4,3,2,50,0,8
87354,553.76095985233,4,3,2,50,1,0
87354,-90.9090909090909,4,3,2,50,0,0
91784,547.945205479452,4,3,2,50,1,0
91784,-86.9565217391304,4,3,2,50,0,0
92331,558.139534883721,4,3,2,50,1,8
92331,-86.9565217391304,4,3,2,50,0,8
92889,554.016620498615,4,3,2,50,1,8
92889,-86.9565217391304,4,3,2,50,0,8
93997,554.016620498615,4,3,2,50,1,0
93997,-86.9565217391304,4,3,2,50,0,0
96213,550.45871559633,4,3,2,50,1,0
96213,-86.9565217391304,4,3,2,50,0,0
98414,556.844547563805,4,3,2,50,1,0
98414,-86.9565217391304,4,3,2,50,0,0
100641,281.030444964871,4,1,1,45,1,0
100641,-111.111111111111,4,1,1,45,0,0
100922,-108.695652173913,4,1,1,45,0,0
101203,-106.382978723404,4,1,1,45,0,0
101484,-104.166666666667,4,1,1,45,0,0
101765,285.714285714286,4,1,1,45,1,0
101765,-102.040816326531,4,1,1,45,0,0
102050,-100,4,1,1,45,0,0
102336,-98.0392156862745,4,1,1,45,0,0
102622,-96.1538461538461,4,1,1,45,0,0
102907,-94.3396226415094,4,1,1,45,0,0
103193,-92.5925925925926,4,1,1,45,0,0
103479,-90.9090909090909,4,1,1,45,0,0
103765,-89.2857142857143,4,1,1,45,0,0
104050,-87.719298245614,4,1,1,45,0,0
105050,-95.2380952380952,4,1,1,55,0,1
111479,-83.3333333333333,4,1,1,55,0,1
111907,-88.4955752212389,4,1,1,55,0,1
113479,-88.4955752212389,4,1,1,55,0,0
114193,-95.2380952380952,4,1,1,55,0,1
120622,-83.3333333333333,4,1,1,55,0,1
121050,-88.4955752212389,4,1,1,55,0,1
123336,-95.2380952380952,4,1,1,50,0,0
132479,-111.111111111111,4,1,1,45,0,0
142907,-111.111111111111,4,1,1,35,0,0
144050,-111.111111111111,4,1,1,25,0,0
145193,-111.111111111111,4,1,1,15,0,0
146336,-111.111111111111,4,2,1,5,0,0

[Colours]
Combo1 : 135,61,92
Combo2 : 93,93,93

[HitObjects]
376,176,0,5,2,3:0:0:0:
382,178,285,1,2,3:0:0:0:
387,180,571,1,2,0:3:0:0:
316,47,857,5,8,2:1:0:0:
241,283,1000,6,0,B|208:288|176:283|176:283|152:289|152:289|109:252|38:271,1,180,4|0,0:0|0:0,0:0:0:0:
357,314,1428,1,8,0:0:0:0:
311,130,1571,1,0,0:0:0:0:
130,228,1714,2,0,B|92:219|92:219|28:191,1,90,0|0,0:0|0:0,0:0:0:0:
300,133,2000,1,8,0:0:0:0:
138,236,2142,1,0,0:0:0:0:
353,321,2285,6,0,L|459:329,1,90,0|0,0:0|0:0,0:0:0:0:
230,229,2571,2,0,B|186:257|130:241,1,90,8|0,0:0|0:0,0:0:0:0:
284,90,2857,1,0,0:0:0:0:
236,239,3000,1,0,0:0:0:0:
174,4,3142,1,8,0:0:0:0:
303,184,3285,6,0,B|357:201|357:201|501:193,1,180,4|0,0:0|0:0,0:0:0:0:
314,13,3714,1,8,0:0:0:0:
297,193,3857,1,0,0:0:0:0:
106,127,4000,2,0,P|54:133|15:141,1,90
306,23,4285,2,0,P|346:24|427:34,1,90,8|0,0:0|0:0,0:0:0:0:
363,259,4571,5,0,0:0:0:0:
235,178,4714,1,0,0:0:0:0:
170,358,4857,2,0,B|118:356|118:356|81:347,1,90,8|0,0:0|0:0,0:0:0:0:
238,188,5142,1,0,0:0:0:0:
286,327,5285,1,0,0:0:0:0:
447,122,5428,1,8,0:0:0:0:
418,80,5500,1,0,0:0:0:0:
377,47,5571,6,0,B|339:30|308:38|308:38|278:15|278:15|240:5|177:26,1,180,4|0,0:0|0:0,0:0:0:0:
439,133,6000,2,0,B|480:126|480:126|539:122,1,90,8|0,0:0|0:0,0:0:0:0:
292,250,6285,1,0,0:0:0:0:
465,319,6428,1,0,0:0:0:0:
327,123,6571,2,0,B|281:98|281:98|232:86,1,90,8|0,0:0|0:0,0:0:0:0:
90,289,6857,5,0,0:0:0:0:
132,91,7000,1,0,0:0:0:0:
160,363,7143,1,8,0:0:0:0:
97,170,7285,1,0,0:0:0:0:
263,290,7428,5,0,0:0:0:0:
20,218,7571,1,0,0:0:0:0:
210,35,7714,1,8,0:0:0:0:
150,255,7857,6,0,B|204:266|204:266|353:256,1,180,4|0,0:0|0:0,0:0:0:0:
401,27,8285,2,0,P|350:44|315:74,1,90,8|0,0:0|0:0,0:0:0:0:
411,220,8571,1,0,0:0:0:0:
411,220,8714,1,0,0:0:0:0:
211,137,8857,2,0,L|99:130,1,90,8|0,0:0|0:0,0:0:0:0:
303,252,9142,5,0,0:0:0:0:
303,252,9285,1,0,0:0:0:0:
110,35,9428,5,8,0:0:0:0:
312,120,9571,1,0,0:0:0:0:
116,44,9714,1,8,0:0:0:0:
268,12,9857,1,0,0:0:0:0:
129,253,10000,1,8,0:0:0:0:
305,114,10142,6,0,B|396:104|396:104|415:109|415:109|446:91|506:104,1,180,4|0,0:0|0:0,0:0:0:0:
220,41,10571,1,8,0:0:0:0:
269,193,10714,1,0,0:0:0:0:
74,102,10857,2,0,P|28:97|-31:103,1,90,0|0,0:0|0:0,0:0:0:0:
261,198,11142,1,8,0:0:0:0:
226,47,11285,1,0,0:0:0:0:
178,262,11428,6,0,L|171:382,1,90,0|0,0:0|0:0,0:0:0:0:
373,239,11714,2,0,P|440:226|482:235,1,90,8|0,0:0|0:0,0:0:0:0:
222,136,12000,1,0,0:0:0:0:
292,264,12142,1,0,0:0:0:0:
368,20,12285,1,8,0:0:0:0:
227,145,12428,6,0,P|158:163|74:68,1,180,4|0,0:0|0:0,0:0:0:0:
45,302,12857,1,8,0:0:0:0:
172,208,13000,1,0,0:0:0:0:
333,361,13142,2,0,L|422:354,1,90,0|0,0:0|0:0,0:0:0:0:
334,71,13428,2,0,P|290:112|277:162,1,90
327,352,13714,5,0,0:0:0:0:
184,272,13857,1,0,0:0:0:0:
424,143,14000,2,0,B|469:136|469:136|519:135,1,90,8|0,0:0|0:0,0:0:0:0:
272,232,14285,1,0,0:3:0:0:
477,281,14428,1,0,0:0:0:0:
317,98,14571,1,8,0:0:0:0:
270,113,14642,1,0,0:0:0:0:
234,144,14714,6,0,B|204:144|184:138|184:138|158:141|158:141|111:123|57:148,1,180,4|0,0:0|0:0,0:0:0:0:
192,260,15142,2,0,P|171:239|90:207,1,90,8|0,0:0|0:0,0:0:0:0:
197,369,15428,1,0,0:0:0:0:
273,229,15571,1,0,0:0:0:0:
43,321,15714,2,0,L|34:199,1,90,8|0,0:0|0:0,0:0:0:0:
106,62,16000,5,0,0:0:0:0:
285,126,16142,1,0,0:0:0:0:
95,41,16285,1,8,0:0:0:0:
294,142,16428,1,0,0:0:0:0:
153,241,16571,5,0,0:0:0:0:
379,206,16714,1,0,0:0:0:0:
229,15,16857,1,8,0:0:0:0:
273,238,17000,6,0,P|377:242|476:257,1,180,4|0,0:0|0:0,0:0:0:0:
196,158,17428,2,0,P|176:115|169:47,1,90,8|0,0:0|0:0,0:0:0:0:
200,340,17714,1,0,0:0:0:0:
352,276,17857,1,0,0:0:0:0:
103,175,18000,2,0,B|56:169|56:169|-24:165,1,90,8|0,0:0|0:0,0:0:0:0:
267,233,18285,5,0,0:0:0:0:
303,76,18428,1,4,0:3:0:0:
351,62,18500,1,0,0:0:0:0:
403,62,18571,1,8,0:3:0:0:
208,167,18714,1,8,0:3:0:0:
198,24,18857,1,4,0:3:0:0:
274,243,19000,1,4,0:3:0:0:
300,88,19142,1,4,0:3:0:0:
242,333,19285,5,4,0:0:0:0:
257,337,22714,5,0,0:1:0:0:
172,105,22857,1,8,0:0:0:0:
304,95,23000,1,0,0:0:0:0:
164,112,23142,1,8,0:3:0:0:
349,166,23285,1,4,0:3:0:0:
122,38,23428,5,8,0:0:0:0:
229,199,23571,1,8,0:3:0:0:
13,68,23714,1,4,0:3:0:0:
145,222,23857,6,0,B|214:230|214:230|230:242|230:242|274:245|319:259,1,161.999995056153,4|0,0:0|0:0,0:0:0:0:
44,280,24285,1,8,0:0:0:0:
51,288,24571,1,0,0:0:0:0:
128,356,24714,1,0,0:0:0:0:
229,199,24857,1,8,0:0:0:0:
288,296,25000,6,0,B|334:290|334:290|350:282|350:282|381:286|381:286|417:274|441:225,1,161.999995056153,0|0,0:0|0:0,0:0:0:0:
431,62,25428,1,8,0:0:0:0:
437,69,25714,2,0,L|319:64,1,80.9999975280763,0|0,0:0|0:0,0:0:0:0:
136,21,26000,1,8,0:0:0:0:
269,123,26142,6,0,P|302:187|323:305,1,161.999995056153,0|0,0:0|0:0,0:0:0:0:
295,20,26571,1,8,0:0:0:0:
288,29,26857,2,0,P|356:40|398:53,1,80.9999975280763,0|0,0:0|0:0,0:0:0:0:
169,121,27142,1,8,0:0:0:0:
323,220,27285,6,0,L|491:228,1,161.999995056153,0|0,0:0|0:0,0:0:0:0:
227,264,27714,1,8,0:0:0:0:
219,273,28000,1,0,0:0:0:0:
189,369,28142,1,0,0:0:0:0:
164,133,28285,1,8,0:0:0:0:
48,218,28428,6,0,B|35:155|35:155|38:131|38:131|27:54,1,161.999995056153,0|0,0:0|0:0,0:0:0:0:
140,311,28857,2,0,L|149:215,1,80.9999975280763,8|0,0:0|0:0,0:0:0:0:
135,321,29142,1,0,0:0:0:0:
54,231,29285,1,0,0:0:0:0:
189,61,29428,1,8,0:0:0:0:
307,231,29571,6,0,B|317:211|316:188|316:188|328:173|328:173|332:110|341:58,1,161.999995056153
431,311,30000,2,0,L|421:214,1,80.9999975280763,8|0,0:0|0:0,0:0:0:0:
424,320,30285,1,0,0:0:0:0:
316,238,30428,1,0,0:0:0:0:
502,97,30571,1,8,0:0:0:0:
347,152,30714,6,0,B|324:156|290:152|290:152|271:156|271:156|233:136|188:150,1,161.999995056153
215,316,31142,2,0,P|218:277|229:217,1,80.9999975280763,8|0,0:0|0:0,0:0:0:0:
208,325,31428,1,0,0:0:0:0:
332,300,31571,1,0,0:0:0:0:
108,231,31714,1,8,0:0:0:0:
291,189,31857,6,0,L|463:204,1,161.999995056153,0|8,0:0|0:0,0:0:0:0:
467,194,32214,1,0,0:0:0:0:
481,185,32285,1,8,0:0:0:0:
441,330,32428,1,8,0:0:0:0:
318,94,32571,1,8,0:0:0:0:
187,236,32714,1,8,0:3:0:0:
304,186,32857,1,4,0:3:0:0:
160,29,33000,6,0,B|94:16|94:16|-29:8,1,161.999995056153,4|0,0:0|0:0,0:0:0:0:
101,215,33428,2,0,P|150:208|196:207,1,80.9999975280763,8|0,0:0|0:0,0:0:0:0:
92,211,33714,1,0,0:0:0:0:
144,316,33857,1,0,0:0:0:0:
217,117,34000,1,8,0:0:0:0:
311,260,34142,6,0,B|351:246|372:213|372:213|390:213|390:213|416:197|459:202,1,161.999995056153,0|0,0:0|0:0,0:0:0:0:
191,238,34571,1,0,0:0:0:0:
177,243,34857,1,0,0:0:0:0:
225,124,35000,1,0,0:0:0:0:
293,350,35142,1,8,0:0:0:0:
141,138,35285,6,0,P|50:119|-37:126,1,161.999995056153,0|0,0:2|0:0,0:0:0:0:
293,207,35714,2,0,B|302:177|302:177|332:126,1,80.9999975280763,8|0,0:0|0:0,0:0:0:0:
286,215,36000,1,0,0:0:0:0:
184,256,36142,1,0,0:0:0:0:
333,23,36285,1,8,0:0:0:0:
410,113,36428,6,0,P|350:62|272:71,1,161.999995056153
235,289,36857,1,8,0:0:0:0:
243,295,37142,2,0,B|203:306|203:306|150:326,1,80.9999975280763,0|0,0:0|0:0,0:0:0:0:
32,212,37428,1,0,0:0:0:0:
250,302,37571,6,0,L|422:308,1,161.999995056153,0|0,0:0|0:0,0:0:0:0:
238,147,38000,2,0,L|346:142,1,80.9999975280763,8|0,0:0|0:0,0:0:0:0:
230,154,38285,1,0,0:0:0:0:
329,228,38428,1,0,0:0:0:0:
215,50,38571,1,8,0:0:0:0:
160,212,38714,6,0,B|128:217|106:220|106:220|64:214|64:214|31:220|-13:224,1,161.999995056153,0|0,0:0|0:0,0:0:0:0:
261,298,39142,2,0,L|163:291,1,80.9999975280763
268,306,39428,1,0,0:0:0:0:
190,380,39571,1,0,0:0:0:0:
238,158,39714,1,8,0:0:0:0:
343,257,39857,6,0,P|396:260|451:241,2,80.9999975280763,0|0|0,0:0|0:0|0:0,0:0:0:0:
160,96,40285,2,0,L|149:-4,1,80.9999975280763,8|0,0:0|0:0,0:0:0:0:
169,104,40571,1,0,0:0:0:0:
285,43,40714,1,0,0:0:0:0:
192,298,40857,1,8,0:0:0:0:
177,112,41000,6,0,B|219:100|219:100|243:104|243:104|295:58|385:104,1,180,4|0,0:0|0:0,0:0:0:0:
280,336,41428,1,8,0:0:0:0:
280,336,41500,1,0,0:0:0:0:
280,336,41571,1,0,0:0:0:0:
256,108,41714,1,0,0:0:0:0:
252,156,41785,1,0,0:0:0:0:
248,204,41857,1,0,0:0:0:0:
335,30,42000,1,8,0:0:0:0:
373,221,42142,5,4,0:0:0:0:
381,210,42428,1,0,0:0:0:0:
328,108,42571,2,0,L|233:103,1,67.5000025749208,8|0,0:0|0:0,0:0:0:0:
454,273,42857,1,8,0:3:0:0:
370,304,43000,1,0,0:0:0:0:
232,186,43142,2,0,B|196:188|196:188|154:195,1,67.5000025749208,8|8,0:0|0:3,0:0:0:0:
313,373,43428,5,0,0:0:0:0:
377,296,43571,1,0,0:0:0:0:
154,276,43714,2,0,B|119:270|119:270|57:263,1,67.5000025749208,8|0,0:0|0:0,0:0:0:0:
291,264,44000,1,8,0:3:0:0:
308,362,44142,1,0,0:0:0:0:
368,196,44285,1,8,0:0:0:0:
228,155,44428,5,4,0:0:0:0:
236,164,44714,1,0,0:0:0:0:
364,55,44857,2,0,L|450:49,1,67.5000025749208,8|0,0:0|0:0,0:0:0:0:
360,193,45142,1,0,0:0:0:0:
468,214,45285,1,0,0:0:0:0:
249,273,45428,1,8,0:0:0:0:
350,191,45571,1,0,0:0:0:0:
168,195,45714,5,8,0:0:0:0:
125,181,45785,1,0,0:0:0:0:
100,142,45857,1,0,0:0:0:0:
101,97,45928,1,0,0:0:0:0:
128,61,46000,1,8,0:0:0:0:
245,170,46142,1,8,0:0:0:0:
205,3,46285,1,8,0:0:0:0:
30,190,46428,1,8,0:3:0:0:
173,123,46571,1,4,0:3:0:0:
245,300,46714,6,0,B|283:337|338:324|338:324|361:339|361:339|386:329|421:326,1,188.999994232178,4|0,0:0|0:0,0:0:0:0:
133,332,47142,2,0,L|39:322,1,94.499997116089,8|0,0:0|0:0,0:0:0:0:
307,248,47428,1,0,0:0:0:0:
257,139,47571,1,0,0:0:0:0:
140,326,47714,1,8,0:0:0:0:
183,106,47857,6,0,B|272:99|272:99|291:104|291:104|406:96,1,188.999994232178
103,51,48285,2,0,P|59:49|8:44,1,94.499997116089,8|0,0:0|0:0,0:0:0:0:
236,190,48571,1,0,0:0:0:0:
356,28,48714,2,0,P|404:13|473:25,1,94.499997116089,0|8,0:0|0:0,0:0:0:0:
488,260,49000,6,0,B|460:235|455:203|455:203|437:181|437:181|443:122|393:59,1,188.999994232178,4|0,0:0|0:0,0:0:0:0:
171,137,49428,1,8,0:0:0:0:
216,15,49571,1,0,0:0:0:0:
228,222,49714,1,0,0:0:0:0:
335,104,49857,1,0,0:0:0:0:
308,332,50000,1,0,0:0:0:0:
257,124,50142,1,0,0:0:0:0:
159,287,50285,6,0,B|124:305|124:305|50:320,1,94.499997116089
163,47,50571,1,8,0:0:0:0:
212,212,50714,1,0,0:0:0:0:
46,77,50857,1,0,0:0:0:0:
279,149,51000,2,0,L|393:156,1,94.499997116089,0|8,0:0|0:0,0:0:0:0:
187,296,51285,6,0,B|166:272|167:239|167:239|156:225|156:225|157:172|96:130,1,188.999994232178,4|0,0:0|0:0,0:0:0:0:
343,347,51714,2,0,B|401:353|401:353|454:346,1,94.499997116089,8|0,0:0|0:0,0:0:0:0:
284,167,52000,1,0,0:0:0:0:
334,359,52142,1,0,0:0:0:0:
180,302,52285,2,0,B|47:289,1,94.499997116089,8|0,0:0|0:0,0:0:0:0:
302,191,52571,5,0,0:0:0:0:
171,311,52714,1,0,0:0:0:0:
221,84,52857,1,8,0:0:0:0:
283,272,53000,1,0,0:0:0:0:
87,192,53142,6,0,P|74:102|114:63,1,107.999996704102,0|0,0:0|0:0,0:0:0:0:
229,94,53428,1,8,0:0:0:0:
82,202,53571,6,0,P|57:143|159:42,1,203.400000620728,4|0,0:0|0:0,0:0:0:0:
363,171,54000,2,0,B|405:175|405:175|468:166,1,94.499997116089,8|0,0:0|0:0,0:0:0:0:
276,186,54285,1,0,0:0:0:0:
380,339,54428,1,0,0:0:0:0:
176,215,54571,2,0,L|167:109,1,94.499997116089,8|0,0:0|0:0,0:0:0:0:
257,319,54857,5,0,0:0:0:0:
181,227,55000,1,0,0:0:0:0:
92,343,55142,1,8,0:0:0:0:
47,349,55214,1,0,0:0:0:0:
0,353,55285,1,0,0:0:0:0:
44,187,55428,5,8,0:3:0:0:
58,232,55500,1,0,0:0:0:0:
97,257,55571,1,4,0:3:0:0:
143,256,55642,1,0,0:0:0:0:
181,227,55714,1,8,0:0:0:0:
273,312,55857,6,0,B|179:300|179:300|158:305|158:305|127:296|86:307,1,188.999994232178,4|0,0:0|0:0,0:0:0:0:
330,373,56285,2,0,P|375:366|446:324,1,94.499997116089,8|0,0:0|0:0,0:0:0:0:
338,124,56571,1,0,0:0:0:0:
352,282,56714,1,0,0:0:0:0:
418,49,56857,1,8,0:0:0:0:
217,197,57000,6,0,B|161:191|161:191|122:174|122:174|-7:159,1,188.999994232178
230,334,57428,2,0,P|276:318|337:326,1,94.499997116089,8|0,0:0|0:0,0:0:0:0:
139,225,57714,1,0,0:0:0:0:
225,342,57857,1,0,0:0:0:0:
262,115,58000,1,8,0:0:0:0:
131,231,58142,6,0,B|105:217|95:200|95:200|70:191|70:191|65:125|4:80,1,188.999994232178,4|0,0:0|0:0,0:0:0:0:
83,343,58571,1,8,0:0:0:0:
167,162,58714,1,0,0:0:0:0:
286,272,58857,1,0,0:0:0:0:
277,143,59000,1,0,0:0:0:0:
158,312,59142,1,8,0:0:0:0:
391,191,59285,1,0,0:0:0:0:
292,266,59428,6,0,B|288:306|288:306|294:382,1,94.499997116089,0|0,0:0|0:0,0:0:0:0:
404,57,59714,1,8,0:0:0:0:
275,151,59857,1,0,0:0:0:0:
464,259,60000,1,0,0:0:0:0:
298,263,60142,2,0,P|264:245|181:255,1,94.499997116089,0|8,0:0|0:0,0:0:0:0:
424,320,60428,6,0,L|435:116,1,188.999994232178,4|0,0:0|0:0,0:0:0:0:
420,328,60857,2,0,B|368:345|368:345|322:349,1,94.499997116089,8|0,0:0|0:0,0:0:0:0:
104,222,61142,1,0,0:0:0:0:
230,371,61285,1,0,0:0:0:0:
209,126,61428,2,0,B|181:111|181:111|102:92,1,94.499997116089,8|0,0:0|0:0,0:0:0:0:
108,350,61714,6,0,P|66:370|19:372,1,94.499997116089
204,116,62000,1,8,0:0:0:0:
267,293,62142,1,0,0:0:0:0:
437,189,62285,6,0,P|386:126|324:120,1,107.999996704102
262,300,62571,1,8,0:0:0:0:
445,187,62714,6,0,P|399:126|266:128,1,203.400000620728,4|0,0:0|0:0,0:0:0:0:
397,337,63142,2,0,B|456:349|456:349|492:346,1,94.499997116089,8|0,0:0|0:0,0:0:0:0:
360,69,63428,1,0,0:0:0:0:
334,236,63571,1,0,0:0:0:0:
106,142,63714,2,0,L|101:46,1,94.499997116089,8|0,0:0|0:0,0:0:0:0:
23,317,64000,6,0,B|61:286|61:286|90:244,1,94.499997116089
101,204,64214,1,0,0:0:0:0:
97,155,64285,1,8,0:0:0:0:
239,369,64428,1,8,0:0:0:0:
195,175,64571,1,8,0:0:0:0:
332,316,64714,1,8,0:3:0:0:
284,147,64857,1,4,0:3:0:0:
376,224,65000,1,4,0:3:0:0:
292,52,65142,6,0,L|148:40,1,112.5,4|0,0:0|0:0,0:0:0:0:
179,42,65570,1,0,0:0:0:0:
391,7,65713,1,8,0:0:0:0:
199,199,65999,2,0,P|225:224|252:243,1,56.25,0|0,0:0|0:0,0:0:0:0:
338,261,66284,5,0,0:0:0:0:
347,254,66836,1,8,0:0:0:0:
264,329,67389,6,0,L|129:338,1,112.5,0|0,0:0|0:0,0:0:0:0:
151,336,67807,1,0,0:0:0:0:
46,177,67947,1,8,0:0:0:0:
271,336,68226,2,0,P|300:331|341:317,1,56.25,0|0,0:0|0:0,0:0:0:0:
356,244,68505,6,0,L|369:120,1,112.5,0|0,0:0|0:0,0:0:0:0:
81,362,69055,1,8,0:0:0:0:
137,79,69332,1,8,0:3:0:0:
165,151,69471,1,8,0:3:0:0:
161,229,69610,6,0,L|292:218,1,112.5,4|0,0:0|0:0,0:0:0:0:
273,219,70019,1,0,0:0:0:0:
346,25,70155,1,8,0:0:0:0:
381,289,70438,2,0,P|351:240|345:208,1,56.25,0|0,0:0|0:0,0:0:0:0:
358,155,70721,5,0,0:0:0:0:
367,162,71279,1,8,0:0:0:0:
269,109,71837,6,0,L|132:121,1,112.5,0|0,0:0|0:0,0:0:0:0:
156,118,72251,1,0,0:0:0:0:
415,245,72389,1,8,0:0:0:0:
128,216,72665,2,0,B|169:219|169:219|236:235,1,107.999996704102,0|0,0:0|0:0,0:0:0:0:
445,368,73217,5,0,0:0:0:0:
339,146,73494,2,0,L|331:217,1,51.7500009870529,8|0,0:0|0:0,0:0:0:0:
250,99,73770,2,0,L|258:171,1,49.5000015106202,8|0,0:0|0:0,0:0:0:0:
320,327,74046,6,0,B|300:296|300:296|246:240,1,112.5,4|0,0:0|0:0,0:0:0:0:
247,241,74460,1,0,0:0:0:0:
465,211,74598,1,8,0:0:0:0:
234,354,74879,2,0,L|163:348,1,56.25,0|0,0:0|0:0,0:0:0:0:
112,280,75161,5,0,0:0:0:0:
102,288,75706,1,8,0:0:0:0:
48,195,76258,6,0,L|36:75,1,112.5,0|0,0:0|0:0,0:0:0:0:
36,83,76671,1,0,0:0:0:0:
116,291,76809,1,8,0:0:0:0:
346,111,77085,2,0,L|350:40,1,56.25,0|0,0:0|0:0,0:0:0:0:
378,185,77361,6,0,P|320:186|270:144,1,112.5,0|0,0:0|0:0,0:0:0:0:
196,18,77913,1,8,0:0:0:0:
72,199,78193,1,8,0:3:0:0:
130,267,78333,1,8,0:3:0:0:
146,351,78473,6,0,L|273:356,1,112.5,4|0,0:0|0:0,0:0:0:0:
258,355,78897,1,0,0:0:0:0:
128,124,79039,1,8,0:0:0:0:
339,322,79314,2,0,P|402:310|421:302,1,56.25
428,217,79589,5,0,0:0:0:0:
439,220,80144,1,8,0:0:0:0:
350,168,80700,6,0,L|227:158,1,112.5,0|0,0:0|0:0,0:0:0:0:
237,158,81112,1,0,0:0:0:0:
181,351,81250,1,8,0:0:0:0:
401,104,81525,2,0,P|428:156|419:213,1,112.5,0|0,0:0|0:0,0:0:0:0:
317,317,82076,5,0,0:0:0:0:
187,103,82351,1,8,0:0:0:0:
180,124,82626,1,8,0:0:0:0:
174,143,82902,6,0,L|103:149,1,49.5000015106202,2|0,0:0|0:0,0:0:0:0:
107,237,83181,2,0,L|35:228,1,49.5000015106202,0|0,0:0|0:0,0:0:0:0:
262,99,83460,2,0,B|282:89|282:89|314:80,1,49.5000015106202,8|0,0:0|0:0,0:0:0:0:
387,152,83736,2,0,L|443:157,1,49.5000015106202,0|0,0:0|0:0,0:0:0:0:
300,231,84012,6,0,L|292:158,1,49.5000015106202,2|0,0:0|0:0,0:0:0:0:
214,288,84291,2,0,L|218:222,1,49.5000015106202,0|0,0:0|0:0,0:0:0:0:
74,102,84570,2,0,L|3:113,1,49.5000015106202,8|0,0:0|0:0,0:0:0:0:
130,174,84849,2,0,L|65:194,1,49.5000015106202,0|0,0:0|0:0,0:0:0:0:
54,315,85128,6,0,L|114:324,1,49.5000015106202,2|0,0:0|0:0,0:0:0:0:
189,379,85405,2,0,L|241:376,1,49.5000015106202,0|0,0:0|0:0,0:0:0:0:
405,224,85683,2,0,L|334:215,1,49.5000015106202,8|0,0:0|0:0,0:0:0:0:
471,125,85961,2,0,L|411:131,1,49.5000015106202,0|0,0:0|0:0,0:0:0:0:
284,107,86239,6,0,B|262:94|262:94|219:80,1,49.5000015106202,2|0,0:0|0:0,0:0:0:0:
238,220,86516,2,0,L|228:157,1,49.5000015106202,0|0,0:0|0:0,0:0:0:0:
44,199,86794,1,8,0:0:0:0:
101,122,86934,1,0,0:0:0:0:
53,217,87074,1,0,0:3:0:0:
120,124,87214,1,0,0:3:0:0:
61,234,87354,6,0,L|55:297,1,49.5000015106202,2|0,0:0|0:0,0:0:0:0:
150,271,87630,2,0,L|156:332,1,49.5000015106202,0|0,0:0|0:0,0:0:0:0:
253,122,87907,2,0,L|319:111,1,49.5000015106202,8|0,0:0|0:0,0:0:0:0:
426,159,88184,2,0,L|369:153,1,49.5000015106202,0|0,0:0|0:0,0:0:0:0:
235,47,88461,6,0,B|213:53|213:53|190:65,1,49.5000015106202,2|0,0:0|0:0,0:0:0:0:
354,51,88738,2,0,L|420:56,1,49.5000015106202,0|0,0:0|0:0,0:0:0:0:
309,293,89015,2,0,L|318:203,1,49.5000015106202,8|0,0:0|0:0,0:0:0:0:
405,345,89292,2,0,L|399:282,1,49.5000015106202,0|0,0:0|0:0,0:0:0:0:
281,374,89569,6,0,B|252:367|252:367|195:346,1,49.5000015106202,2|0,0:0|0:0,0:0:0:0:
181,247,89845,2,0,L|174:316,1,49.5000015106202,0|0,0:0|0:0,0:0:0:0:
74,69,90122,2,0,L|145:79,1,49.5000015106202,8|0,0:0|0:0,0:0:0:0:
21,162,90399,2,0,L|81:157,1,49.5000015106202,0|0,0:0|0:0,0:0:0:0:
188,259,90676,6,0,L|269:268,1,49.5000015106202,2|0,0:0|0:0,0:0:0:0:
329,213,90953,2,0,B|354:207|354:207|387:204,1,49.5000015106202,0|0,0:0|0:0,0:0:0:0:
199,26,91230,1,8,0:3:0:0:
211,113,91368,1,0,0:0:0:0:
304,57,91507,1,0,0:0:0:0:
268,166,91645,1,0,0:3:0:0:
104,128,91784,6,0,L|15:118,1,51.7500009870529,6|0,0:0|0:0,0:0:0:0:
0,221,92057,2,0,L|87:217,1,51.7500009870529,0|0,0:0|0:0,0:0:0:0:
278,172,92331,2,0,B|270:198|270:198|262:250,1,51.7500009870529,8|0,0:0|0:0,0:0:0:0:
366,102,92610,2,0,L|368:158,1,51.7500009870529,0|0,0:0|0:0,0:0:0:0:
421,272,92889,6,0,L|473:277,1,51.7500009870529,2|0,0:0|0:0,0:0:0:0:
338,296,93166,2,0,L|259:300,1,51.7500009870529,0|0,0:0|0:0,0:0:0:0:
124,136,93443,2,0,L|176:143,1,51.7500009870529,8|0,0:0|0:0,0:0:0:0:
177,45,93720,2,0,L|227:61,1,51.7500009870529,0|0,0:0|0:0,0:0:0:0:
156,236,93997,6,0,L|160:305,1,51.7500009870529,2|0,0:0|0:0,0:0:0:0:
64,369,94274,2,0,B|88:360|88:360|129:351,1,51.7500009870529,0|0,0:0|0:0,0:0:0:0:
341,353,94551,2,0,L|349:259,1,51.7500009870529,8|0,0:0|0:0,0:0:0:0:
437,304,94828,2,0,L|424:220,1,51.7500009870529,0|0,0:0|0:0,0:0:0:0:
290,131,95105,6,0,L|376:143,1,51.7500009870529,2|0,0:0|0:0,0:0:0:0:
252,53,95382,2,0,L|187:61,1,51.7500009870529,0|0,0:0|0:0,0:0:0:0:
242,297,95659,1,8,0:0:0:0:
217,200,95797,1,0,0:0:0:0:
226,309,95936,1,0,0:3:0:0:
316,251,96074,1,0,0:3:0:0:
140,269,96213,6,0,L|58:261,1,51.7500009870529,2|0,0:0|0:0,0:0:0:0:
206,186,96488,2,0,L|121:165,1,51.7500009870529,0|0,0:0|0:0,0:0:0:0:
408,304,96763,2,0,B|433:301|433:301|497:283,1,51.7500009870529,8|0,0:0|0:0,0:0:0:0:
330,241,97038,2,0,L|336:163,1,51.7500009870529,0|0,0:0|0:0,0:0:0:0:
331,33,97313,6,0,L|416:47,1,51.7500009870529,2|0,0:0|0:0,0:0:0:0:
234,67,97589,2,0,L|154:72,1,51.7500009870529,0|0,0:0|0:0,0:0:0:0:
30,307,97864,2,0,B|59:301|59:301|111:282,1,51.7500009870529,8|0,0:0|0:0,0:0:0:0:
140,180,98139,2,0,L|135:247,1,51.7500009870529,0|0,0:0|0:0,0:0:0:0:
228,359,98414,6,0,L|287:369,1,51.7500009870529,2|0,0:0|0:0,0:0:0:0:
417,320,98692,2,0,L|348:328,1,51.7500009870529,0|0,0:0|0:0,0:0:0:0:
220,129,98970,2,0,L|237:213,1,51.7500009870529,8|0,0:0|0:0,0:0:0:0:
328,55,99249,2,0,L|316:133,1,51.7500009870529,0|0,0:0|0:0,0:0:0:0:
238,8,99527,6,0,L|186:1,1,51.7500009870529,2|0,0:0|0:0,0:0:0:0:
341,45,99806,2,0,L|392:40,1,51.7500009870529,0|0,0:0|0:0,0:0:0:0:
334,195,100084,1,8,0:0:0:0:
422,114,100223,1,0,0:0:0:0:
346,202,100362,1,0,0:0:0:0:
452,227,100502,1,0,0:0:0:0:
240,194,100641,6,0,B|128:186,1,80.9999975280763,8|0,0:0|0:0,0:0:0:0:
316,295,100922,2,0,B|282:302|282:302|219:306,1,82.7999972204591,8|0,0:0|0:0,0:0:0:0:
41,115,101203,1,8,0:0:0:0:
54,268,101343,1,0,0:0:0:0:
152,177,101484,1,8,0:0:0:0:
115,364,101624,1,0,0:0:0:0:
252,204,101765,6,0,B|284:185|284:185|359:159,1,88.1999991925049,8|0,0:0|0:0,0:0:0:0:
116,81,102050,2,0,L|239:90,1,90,8|0,0:0|0:0,0:0:0:0:
505,267,102336,1,8,0:0:0:0:
457,123,102479,1,0,0:0:0:0:
311,330,102622,1,8,0:0:0:0:
342,180,102765,1,0,0:0:0:0:
177,298,102907,6,0,B|135:295|135:295|53:273,1,95.4000001455689,8|0,0:0|0:0,0:0:0:0:
331,171,103193,2,0,L|198:178,1,97.2000023730469,8|0,0:0|0:0,0:0:0:0:
0,154,103479,1,8,0:0:0:0:
122,242,103622,1,0,0:0:0:0:
257,42,103765,1,8,0:0:0:0:
225,196,103907,1,0,0:0:0:0:
88,3,104050,5,8,0:0:0:0:
33,253,105050,6,0,B|63:294|112:300|112:300|132:320|132:320|162:310|195:327,1,188.999994232178,4|0,0:0|0:0,0:0:0:0:
112,214,105479,2,0,L|123:89,1,94.499997116089,8|0,0:0|0:0,0:0:0:0:
202,338,105765,1,0,0:0:0:0:
120,223,105907,1,0,0:0:0:0:
293,373,106050,1,8,0:0:0:0:
346,195,106193,6,0,P|387:137|523:166,1,188.999994232178,0|0,0:0|0:0,0:0:0:0:
342,206,106622,2,0,B|332:158|332:158|302:98,1,94.499997116089,8|0,0:0|0:0,0:0:0:0:
200,353,106907,1,0,0:0:0:0:
439,202,107050,2,0,B|475:206|475:206|536:219,1,94.499997116089,0|8,0:0|0:0,0:0:0:0:
279,282,107336,6,0,B|237:257|235:206|235:206|209:183|209:183|206:150|183:125,1,188.999994232178,4|0,0:0|0:0,0:0:0:0:
104,342,107765,1,8,0:0:0:0:
128,184,107907,1,0,0:0:0:0:
5,368,108050,1,0,0:0:0:0:
123,197,108193,1,0,0:0:0:0:
359,298,108336,1,8,0:0:0:0:
182,336,108479,1,0,0:0:0:0:
326,212,108622,6,0,L|420:217,1,94.499997116089
180,63,108907,1,8,0:0:0:0:
267,334,109050,1,0,0:0:0:0:
144,264,109193,1,0,0:0:0:0:
272,145,109336,2,0,P|319:138|377:136,1,94.499997116089,0|8,0:0|0:0,0:0:0:0:
256,323,109622,6,0,B|173:311|173:311|140:296|140:296|71:285,1,188.999994232178,4|0,0:0|0:0,0:0:0:0:
351,365,110050,2,0,B|392:356|392:356|458:332,1,94.499997116089,8|0,0:0|0:0,0:0:0:0:
223,234,110336,1,0,0:0:0:0:
340,360,110479,1,0,0:0:0:0:
323,116,110622,2,0,P|327:69|336:9,1,94.499997116089,8|0,0:0|0:0,0:0:0:0:
233,229,110907,5,0,0:0:0:0:
179,114,111050,1,0,0:0:0:0:
318,293,111193,1,8,0:0:0:0:
332,124,111336,1,0,0:0:0:0:
231,336,111479,6,0,P|178:344|111:308,1,107.999996704102,0|0,0:0|0:0,0:0:0:0:
115,161,111765,1,8,0:0:0:0:
241,340,111907,6,0,P|177:353|76:244,1,203.400000620728,4|0,0:0|0:0,0:0:0:0:
44,33,112336,2,0,B|32:93|32:93|27:157,1,101.700000310364,8|0,0:0|0:0,0:0:0:0:
99,352,112622,1,0,0:0:0:0:
125,164,112765,1,0,0:0:0:0:
249,345,112907,2,0,L|388:355,1,101.700000310364,8|0,0:0|0:0,0:0:0:0:
223,194,113193,5,0,0:0:0:0:
256,351,113336,1,0,0:0:0:0:
357,135,113479,1,8,0:0:0:0:
402,129,113550,1,0,0:0:0:0:
444,147,113622,1,0,0:0:0:0:
274,39,113765,5,8,0:3:0:0:
254,80,113836,1,0,0:0:0:0:
265,124,113907,1,4,0:3:0:0:
305,146,113979,1,0,0:0:0:0:
349,142,114050,1,8,0:0:0:0:
265,30,114193,6,0,L|59:14,1,188.999994232178,4|0,0:0|0:0,0:0:0:0:
97,270,114622,2,0,P|116:193|98:147,1,94.499997116089,8|0,0:0|0:0,0:0:0:0:
155,358,114907,1,0,0:0:0:0:
38,208,115050,1,0,0:0:0:0:
283,315,115193,1,8,0:0:0:0:
207,146,115336,6,0,B|180:111|140:107|140:107|126:91|126:91|40:80,1,188.999994232178
295,161,115765,2,0,L|402:151,1,94.499997116089,8|0,0:0|0:0,0:0:0:0:
289,330,116050,1,0,0:0:0:0:
319,31,116193,2,0,P|279:10|222:18,1,94.499997116089,0|8,0:0|0:0,0:0:0:0:
94,264,116479,6,0,B|89:234|86:189|86:189|102:151|102:151|105:113|81:55,1,188.999994232178,4|0,0:0|0:0,0:0:0:0:
174,314,116907,1,8,0:0:0:0:
23,133,117050,1,0,0:0:0:0:
165,211,117193,1,0,0:0:0:0:
167,43,117336,1,0,0:0:0:0:
261,253,117479,1,8,0:0:0:0:
123,125,117622,1,0,0:0:0:0:
286,138,117765,6,0,L|425:127,1,94.499997116089,0|0,0:0|0:0,0:0:0:0:
159,37,118050,1,8,0:0:0:0:
277,145,118193,1,0,0:0:0:0:
398,18,118336,1,0,0:0:0:0:
203,111,118479,2,0,P|198:132|217:203,1,94.499997116089,0|8,0:0|0:0,0:0:0:0:
470,279,118765,6,0,B|381:277|381:277|363:274|363:274|248:270,1,188.999994232178,4|0,0:0|0:0,0:0:0:0:
20,158,119193,2,0,B|62:163|62:163|138:184,1,94.499997116089,8|0,0:0|0:0,0:0:0:0:
276,264,119479,1,0,0:0:0:0:
184,365,119622,1,0,0:0:0:0:
463,286,119765,2,0,L|455:187,1,94.499997116089,8|0,0:0|0:0,0:0:0:0:
291,127,120050,5,0,0:0:0:0:
157,196,120193,1,0,0:0:0:0:
337,52,120336,1,8,0:0:0:0:
373,223,120479,1,0,0:0:0:0:
247,53,120622,6,0,P|166:47|117:93,1,107.999996704102,0|0,0:0|0:0,0:0:0:0:
267,245,120907,1,8,0:0:0:0:
249,46,121050,6,0,P|174:35|103:166,1,203.400000620728,4|0,0:0|0:0,0:0:0:0:
214,362,121479,2,0,B|196:322|196:322|146:252,1,101.700000310364,8|0,0:0|0:0,0:0:0:0:
23,175,121765,1,0,0:0:0:0:
257,244,121907,1,0,0:0:0:0:
130,360,122050,2,0,L|28:370,1,101.700000310364,8|0,0:0|0:0,0:0:0:0:
219,200,122336,5,0,0:0:0:0:
275,336,122479,1,0,0:0:0:0:
257,116,122622,2,0,P|268:66|291:5,1,101.700000310364,8|0,0:0|0:0,0:0:0:0:
181,264,122907,1,8,0:0:0:0:
145,75,123050,1,0,0:0:0:0:
281,324,123193,1,8,0:0:0:0:
344,102,123336,6,0,B|390:97|390:97|426:108|426:108|473:79|532:102,1,188.999994232178,4|0,0:0|0:0,0:0:0:0:
273,57,123765,2,0,P|228:41|181:34,1,94.499997116089,8|0,0:0|0:0,0:0:0:0:
287,312,124050,1,0,0:0:0:0:
270,142,124193,1,0,0:0:0:0:
199,368,124336,2,0,P|157:378|102:380,1,94.499997116089,8|0,0:0|0:0,0:0:0:0:
44,160,124622,6,0,L|164:172,1,94.499997116089
413,69,124907,2,0,B|366:75|366:75|323:94,1,94.499997116089,8|0,0:0|0:0,3:0:0:0:
208,232,125193,1,0,0:0:0:0:
400,168,125336,1,0,0:0:0:0:
152,88,125479,1,8,0:0:0:0:
256,331,125622,6,0,B|319:324|319:324|349:329|349:329|377:282|445:275,1,188.999994232178,4|0,0:0|0:0,0:0:0:0:
173,310,126050,2,0,P|103:293|63:266,1,94.499997116089,8|0,0:0|0:0,0:0:0:0:
321,214,126336,1,0,0:0:0:0:
262,348,126479,1,0,0:0:0:0:
416,197,126622,2,0,L|424:93,1,94.499997116089,8|0,0:0|0:0,0:0:0:0:
156,227,126907,6,0,L|147:127,1,94.499997116089,0|0,0:0|0:0,0:0:0:0:
479,256,127193,2,0,P|417:279|356:273,1,94.499997116089,8|0,0:0|0:0,0:0:0:0:
164,223,127479,1,0,0:0:0:0:
300,344,127622,1,0,0:0:0:0:
217,80,127765,1,8,0:0:0:0:
202,295,127907,6,0,B|153:310|108:285|108:285|90:288|90:288|57:274|0:278,1,188.999994232178,4|0,0:0|0:0,0:0:0:0:
294,334,128336,2,0,B|354:341|354:341|419:342,1,94.499997116089,8|0,0:0|0:0,0:0:0:0:
164,223,128622,1,0,0:0:0:0:
45,358,128765,1,0,0:0:0:0:
103,167,128907,2,0,P|172:142|220:142,1,94.499997116089,8|0,0:0|0:0,0:0:0:0:
362,209,129193,5,0,0:0:0:0:
289,49,129336,1,0,0:0:0:0:
94,172,129479,2,0,L|-12:163,2,94.499997116089,8|0|0,0:0|0:0|0:0,0:0:0:0:
244,208,129907,1,0,0:0:0:0:
71,88,130050,1,8,0:0:0:0:
148,261,130193,6,0,P|237:237|350:244,1,188.999994232178,4|0,0:0|0:0,0:0:0:0:
92,177,130622,1,8,0:0:0:0:
112,342,130765,1,0,0:0:0:0:
0,184,130907,1,0,0:0:0:0:
146,252,131050,1,0,0:0:0:0:
118,13,131193,1,8,0:0:0:0:
182,169,131336,1,0,0:0:0:0:
234,44,131479,6,0,P|276:26|343:24,1,94.499997116089,0|0,0:0|0:0,0:0:0:0:
463,205,131765,2,0,L|396:199,1,47.2499985580445,8|0,0:0|0:0,0:0:0:0:
268,151,131907,1,0,0:0:0:0:
482,294,132050,1,8,0:0:0:0:
288,332,132193,1,0,0:0:0:0:
351,121,132336,1,8,0:0:0:0:
221,252,132479,6,0,P|173:215|68:229,1,161.999995056153,4|0,0:0|0:0,0:0:0:0:
186,342,132907,1,0,0:0:0:0:
193,351,133193,1,8,0:0:0:0:
302,299,133336,1,0,0:0:0:0:
178,114,133479,1,0,0:0:0:0:
227,246,133622,1,0,0:0:0:0:
318,130,133765,6,0,L|429:124,1,80.9999975280763,0|0,0:0|0:0,0:0:0:0:
332,46,134050,2,0,L|212:52,1,80.9999975280763,0|0,0:0|0:0,0:0:0:0:
129,276,134336,1,8,0:0:0:0:
158,175,134479,1,0,0:0:0:0:
45,303,134622,1,0,0:0:0:0:
237,225,134765,6,0,P|305:219|401:240,1,161.999995056153,4|0,0:0|0:0,0:0:0:0:
157,81,135193,1,0,0:0:0:0:
164,86,135479,2,0,L|252:72,1,80.9999975280763,8|0,0:0|0:0,0:0:0:0:
77,151,135765,2,0,P|20:146|-16:133,1,80.9999975280763,0|0,0:0|0:0,0:0:0:0:
176,203,136050,6,0,L|185:296,1,80.9999975280763,0|0,0:0|0:0,0:0:0:0:
84,159,136336,2,0,L|77:265,1,80.9999975280763,0|0,0:0|0:0,0:0:0:0:
342,342,136622,1,8,0:0:0:0:
262,172,136765,1,8,0:0:0:0:
359,355,136907,1,8,0:0:0:0:
347,221,137050,6,0,B|280:207|280:207|254:209|254:209|168:191,1,161.999995056153,4|0,0:0|0:0,0:0:0:0:
413,58,137479,1,0,0:0:0:0:
408,65,137765,2,0,L|301:74,1,80.9999975280763,8|0,0:0|0:0,0:0:0:0:
169,10,138050,2,0,P|211:13|280:37,1,80.9999975280763,0|0,0:0|0:0,0:0:0:0:
446,242,138336,6,0,L|442:162,1,80.9999975280763,0|0,0:0|0:0,0:0:0:0:
348,299,138622,2,0,L|354:219,1,80.9999975280763,0|0,0:0|0:0,0:0:0:0:
172,357,138907,1,8,0:0:0:0:
218,260,139050,1,0,0:0:0:0:
196,156,139193,1,0,0:0:0:0:
180,364,139336,6,0,B|229:351|266:356|266:356|297:368|297:368|373:374,1,161.999995056153,4|0,0:0|0:0,0:0:0:0:
482,151,139765,1,0,0:0:0:0:
477,161,140050,2,0,L|485:258,1,80.9999975280763,8|0,0:0|0:0,0:0:0:0:
402,111,140336,2,0,P|366:92|326:84,1,80.9999975280763,0|0,0:0|0:0,0:0:0:0:
232,260,140622,5,8,0:0:0:0:
184,270,140693,1,0,0:0:0:0:
135,279,140765,1,8,0:0:0:0:
305,180,140907,1,8,0:0:0:0:
161,142,141050,1,8,0:0:0:0:
339,283,141193,1,8,0:0:0:0:
377,61,141336,1,8,0:3:0:0:
299,190,141479,1,4,0:3:0:0:
256,22,141622,5,4,0:0:0:0:
256,192,141765,12,0,146336,0:0:0:0:
