osu file format v14

[General]
AudioFilename: drugs are bad.mp3
AudioLeadIn: 2000
PreviewTime: 23857
Countdown: 0
SampleSet: Normal
StackLeniency: 0.7
Mode: 0
LetterboxInBreaks: 0
WidescreenStoryboard: 0

[Editor]
Bookmarks: 25249,140845
DistanceSpacing: 1
BeatDivisor: 4
GridSize: 4
TimelineZoom: 1.5

[Metadata]
Title:Injection
TitleUnicode:Injection
Artist:Rise Against
ArtistUnicode:Rise Against
Creator:pishifat
Version:Easy
Source:
Tags:the sufferer & and witness metal punk okoratu yauxo
BeatmapID:513402
BeatmapSetID:214092

[Difficulty]
HPDrainRate:3
CircleSize:3
OverallDifficulty:2
ApproachRate:3
SliderMultiplier:0.599999999999999
SliderTickRate:1

[Events]
//Background and Video events
0,0,"doggy.jpg",0,0
//Break Periods
2,19714,22417
2,83460,90344
//Storyboard Layer 0 (Background)
//Storyboard Layer 1 (Fail)
//Storyboard Layer 2 (Pass)
//Storyboard Layer 3 (Foreground)
//Storyboard Sound Samples

[TimingPoints]
0,285.714285714286,4,1,1,35,1,0
1000,-100,4,1,1,50,0,0
23857,-100,4,1,1,45,0,0
46714,-100,4,1,1,55,0,1
55142,-100,4,1,1,55,0,0
55857,-100,4,1,1,55,0,1
65142,571.428571428571,4,1,1,40,1,0
65142,-50,4,1,1,40,0,0
66284,552.995391705069,4,1,1,40,1,8
67389,558.139534883721,4,1,1,40,1,0
67389,-50,4,1,1,40,0,0
68505,550.45871559633,4,1,1,40,1,8
69055,555.555555555556,4,1,1,40,1,8
69610,545.454545454546,4,1,1,40,1,0
69610,-50,4,1,1,40,0,0
70155,566.037735849057,4,1,1,40,1,8
70721,558.139534883721,4,1,1,40,1,8
71837,552.359033371692,4,1,1,40,1,0
71837,-50,4,1,1,40,0,0
74598,563.380281690141,4,1,1,40,1,8
75161,545.454545454546,4,1,1,40,1,8
75706,552.995391705069,4,1,1,40,1,8
76258,551.724137931035,4,1,1,40,1,0
76258,-50,4,1,1,40,0,0
77913,560.747663551402,4,1,1,40,1,8
78473,566.037735849057,4,1,1,40,1,0
78473,-50,4,1,1,40,0,0
79039,550.45871559633,4,1,1,40,1,8
79589,555.555555555556,4,1,1,40,1,8
80700,550.45871559633,4,1,1,40,1,0
80700,-50,4,1,1,40,0,0
82902,558.139534883721,4,3,2,50,1,0
83460,552.995391705069,4,3,2,50,1,8
84012,558.139534883721,4,3,2,50,1,8
85128,555.555555555556,4,3,2,50,1,0
86794,560.747663551402,4,3,2,50,1,8
87354,553.76095985233,4,3,2,50,1,0
91784,547.945205479452,4,3,2,50,1,0
91784,-50,4,3,2,50,0,0
92331,558.139534883721,4,3,2,50,1,8
92889,554.016620498615,4,3,2,50,1,8
92889,-50,4,3,2,50,0,8
93997,554.016620498615,4,3,2,50,1,0
93997,-50,4,3,2,50,0,0
96213,550.45871559633,4,3,2,50,1,0
96213,-50,4,3,2,50,0,0
98414,556.844547563805,4,3,2,50,1,0
98414,-50,4,3,2,50,0,0
100641,281.030444964871,4,1,1,45,1,0
101765,285.714285714286,4,1,1,45,1,0
105050,-100,4,1,1,55,0,1
113479,-100,4,1,1,55,0,0
114193,-100,4,1,1,55,0,1
123336,-100,4,1,1,50,0,0
132479,-100,4,1,1,45,0,0
142907,-100,4,1,1,35,0,0
144050,-100,4,1,1,25,0,0
145193,-100,4,1,1,15,0,0
146336,-100,4,2,1,5,0,0

[Colours]
Combo1 : 135,61,92
Combo2 : 93,93,93

[HitObjects]
256,359,0,5,2,3:0:0:0:
449,277,1000,6,0,B|424:194|424:194|428:168|428:168|424:122,1,150,4|0,0:0|0:0,0:0:0:0:
337,48,2285,2,0,P|293:62|243:125,1,120,0|0,0:0|0:0,0:0:0:0:
203,196,3285,6,0,B|143:221|143:221|122:242|122:242|60:266,1,150,4|0,0:0|0:0,0:0:0:0:
27,150,4571,2,0,P|91:124|150:137,1,120,0|0,0:0|0:0,0:0:0:0:
203,196,5571,6,0,B|241:213|241:213|270:214|270:214|312:231|355:226,1,150,4|0,0:0|0:0,0:0:0:0:
466,212,6857,1,0,0:0:0:0:
390,305,7428,1,0,0:0:0:0:
348,227,7857,6,0,B|324:174|324:174|318:135|318:135|291:80,1,150,4|0,0:0|0:0,0:0:0:0:
174,91,9142,2,0,B|101:87,2,59.9999999999999,0|8|8,0:0|0:0|0:0,0:0:0:0:
203,176,10142,6,0,B|146:173|146:173|46:196,1,150,4|0,0:0|0:0,0:0:0:0:
143,279,11428,2,0,P|201:298|254:327,1,120,0|0,0:0|0:0,0:0:0:0:
330,371,12428,6,0,B|339:308|339:308|336:274|336:274|352:253|361:221,1,150,4|0,0:0|0:0,0:0:0:0:
346,108,13714,1,0,0:0:0:0:
230,141,14285,1,0,0:0:0:0:
141,127,14714,6,0,B|91:116|91:116|49:93|49:93|-1:84,1,150,4|0,0:0|0:0,0:0:0:0:
43,195,16000,2,0,P|111:220|150:255,1,120,0|0,0:0|0:0,0:0:0:0:
197,324,17000,6,0,B|194:246|194:246|214:169,1,150,4|0,0:0|0:0,0:0:0:0:
326,136,18285,1,0,0:0:0:0:
382,242,18857,2,0,L|479:255,1,89.9999999999999,4|4,0:3|0:0,0:0:0:0:
125,319,23857,6,0,B|199:287|199:287|274:278|274:278|352:241,1,240,4|0,0:0|0:0,0:0:0:0:
391,163,25428,2,0,P|353:156|321:160,1,59.9999999999999,8|0,0:0|0:0,0:0:0:0:
250,198,26142,6,0,B|182:204|182:204|144:220|144:220|113:165|45:138,1,240,0|0,0:0|0:0,0:0:0:0:
78,54,27714,2,0,P|116:71|137:85,1,59.9999999999999,8|0,0:0|0:0,0:0:0:0:
213,116,28428,6,0,B|282:113|282:113|315:126|334:160|334:160|376:152|376:152|435:159,1,240,0|0,0:0|0:0,0:0:0:0:
512,199,30000,2,0,P|490:223|463:239,1,59.9999999999999,8|0,0:0|0:0,0:0:0:0:
377,240,30714,6,0,B|323:247|323:247|279:237|258:200|258:200|208:212|208:212|144:209,1,240,0|0,0:0|0:0,0:0:0:0:
67,200,32285,2,0,P|50:226|37:260,1,59.9999999999999,8|8,0:0|0:0,0:0:0:0:
30,342,33000,6,0,B|79:338|79:338|117:317|117:317|171:372|256:367,1,240,4|0,0:0|0:0,0:0:0:0:
338,348,34571,2,0,P|346:317|350:284,1,59.9999999999999,8|0,0:0|0:0,0:0:0:0:
333,200,35285,6,0,B|294:189|294:189|228:146|228:146|160:151|105:111,1,240,0|0,0:0|0:0,0:0:0:0:
162,42,36857,2,0,P|187:53|225:57,1,59.9999999999999,8|0,0:0|0:0,0:0:0:0:
307,47,37571,6,0,B|352:44|352:44|382:75|382:75|472:85|494:177,1,240,0|0,0:0|0:0,0:0:0:0:
482,255,39142,2,0,L|418:262,1,59.9999999999999,8|0,0:0|0:0,0:0:0:0:
333,233,39857,6,0,B|263:219|263:219|206:226|206:226|157:209|89:205,1,240,0|4,0:0|0:0,0:0:0:0:
111,296,41428,2,0,P|142:300|176:309,1,59.9999999999999,8|0,0:0|0:0,0:0:0:0:
257,328,42142,6,0,B|299:315|299:315|356:313,1,89.9999999999999,4|8,0:0|0:0,0:0:0:0:
404,323,42857,1,8,0:3:0:0:
358,210,43428,1,0,0:0:0:0:
399,97,44000,1,8,0:3:0:0:
309,109,44428,6,0,B|265:106|265:106|214:93,1,89.9999999999999,4|8,0:0|0:0,0:0:0:0:
167,66,45142,1,0,0:0:0:0:
182,185,45714,2,0,L|244:200,2,59.9999999999999,8|8|8,0:0|0:0|0:0,0:0:0:0:
140,264,46714,6,0,B|169:291|202:307|202:307|214:335|214:335|243:369,1,150,4|0,0:0|0:0,0:0:0:0:
361,333,48000,2,0,B|367:255|367:255|377:215,1,120,0|0,0:0|0:0,0:0:0:0:
427,139,49000,6,0,B|387:175|342:177|342:177|320:171|320:171|276:169,1,150,4|0,0:0|0:0,0:0:0:0:
186,234,50285,2,0,B|105:227|105:227|68:213,1,120,0|0,0:0|0:0,0:0:0:0:
127,144,51285,6,0,B|176:147|176:147|196:134|196:134|231:128|270:101,1,150,4|0,0:0|0:0,0:0:0:0:
354,22,52571,1,0,0:0:0:0:
379,139,53142,1,0,0:0:0:0:
463,106,53571,6,0,B|479:154|450:194|450:194|454:220|454:220|445:263,1,150,4|0,0:0|0:0,0:0:0:0:
328,237,54857,2,0,B|314:212|314:212|294:188,2,59.9999999999999,0|8|8,0:0|0:0|0:3,0:0:0:0:
330,327,55857,6,0,B|259:325|259:325|228:314|228:314|199:316|159:309,1,150,4|0,0:0|0:0,0:0:0:0:
107,218,57142,2,0,P|140:167|199:132,1,120,0|0,0:0|0:0,0:0:0:0:
279,138,58142,6,0,B|339:143|339:143|373:135|373:135|435:140,1,150,4|0,0:0|0:0,0:0:0:0:
352,230,59428,2,0,B|274:224|274:224|220:233,1,120,0|0,0:0|0:0,0:0:0:0:
143,245,60428,6,0,B|151:160|151:160|163:132|163:132|168:88,1,150,4|0,0:0|0:0,0:0:0:0:
47,99,61714,1,0,0:0:0:0:
58,218,62285,1,0,0:0:0:0:
143,245,62714,6,0,B|194:259|194:259|229:261|229:261|256:282|295:292,1,150,4|0,0:0|0:0,0:0:0:0:
383,222,64000,2,0,L|376:160,2,59.9999999999999,0|8|8,0:0|0:0|0:0,0:0:0:0:
388,339,65142,6,0,P|339:330|279:279,1,120,4|8,0:0|0:0,0:0:0:0:
258,167,66284,1,0,0:0:0:0:
158,100,66836,1,8,0:0:0:0:
148,223,67389,6,0,L|23:229,1,120,0|8,0:0|0:0,0:0:0:0:
72,340,68505,1,0,0:0:0:0:
186,305,69055,1,8,0:0:0:0:
299,351,69610,6,0,P|357:361|408:334,1,120,4|8,0:0|0:0,0:0:0:0:
432,210,70721,1,0,0:0:0:0:
476,98,71279,1,8,0:0:0:0:
350,112,71837,6,0,B|268:118|268:118|229:116,1,120,0|8,0:0|0:0,0:0:0:0:
170,121,72665,2,0,B|164:152|164:152|166:179|166:179|118:217|104:283,1,180,0|8,0:0|0:0,0:0:0:0:
187,370,74046,6,0,P|252:360|294:324,1,120,4|8,0:0|0:0,0:0:0:0:
320,204,75161,1,0,0:0:0:0:
438,217,75706,1,8,0:0:0:0:
387,108,76258,6,0,L|264:117,1,120,0|8,0:0|0:0,0:0:0:0:
154,76,77361,1,0,0:0:0:0:
136,193,77913,1,8,0:0:0:0:
127,312,78473,6,0,P|208:349|242:338,1,120,4|8,0:0|0:0,0:0:0:0:
317,255,79589,1,0,0:0:0:0:
422,197,80144,1,8,0:0:0:0:
454,312,80700,6,0,B|379:330|379:330|337:347,1,120,0|8,0:0|0:0,0:0:0:0:
279,345,81525,2,0,B|274:314|274:314|258:290|258:290|248:225|191:195,1,180,0|8,0:0|0:0,0:0:0:0:
72,207,82901,5,2,0:0:0:0:
395,64,91784,6,0,B|336:59|336:59|276:40,1,120,6|8,0:0|0:0,0:0:0:0:
159,20,92889,2,0,B|176:78|176:78|180:141,1,120,2|8,0:0|0:0,0:0:0:0:
168,256,93997,6,0,B|206:303|206:303|263:340,1,120,2|8,0:0|0:0,0:0:0:0:
375,322,95105,1,2,0:0:0:0:
306,223,95659,1,8,0:0:0:0:
425,242,96213,6,0,B|474:208|474:208|513:160,1,120,2|8,0:0|0:0,0:0:0:0:
397,124,97313,2,0,B|337:130|337:130|272:123,1,120,2|8,0:0|0:0,0:0:0:0:
158,108,98414,6,0,B|99:127|99:127|42:160,1,120,2|8,0:0|0:0,0:0:0:0:
125,248,99527,1,2,0:0:0:0:
244,234,100084,1,8,0:0:0:0:
315,327,100641,6,0,P|373:320|430:277,1,120,8|8,0:0|0:0,0:0:0:0:
481,180,101765,1,8,0:0:0:0:
464,61,102336,1,8,0:0:0:0:
371,136,102907,6,0,P|305:136|252:111,1,120,8|8,0:0|0:0,0:0:0:0:
187,14,104050,1,8,0:0:0:0:
159,227,105050,6,0,B|187:244|217:244|217:244|241:263|241:263|302:284,1,150,4|0,0:0|0:0,0:0:0:0:
411,242,106336,2,0,B|377:216|377:216|294:187,1,120,0|0,0:0|0:0,0:0:0:0:
261,111,107336,6,0,B|241:59|190:47|190:47|167:55|167:55|128:57,1,150,4|0,0:0|0:0,0:0:0:0:
51,135,108622,2,0,B|127:151|127:151|168:171,1,120,0|0,0:0|0:0,0:0:0:0:
211,246,109622,6,0,P|292:263|342:214,1,150,4|0,0:0|0:0,0:0:0:0:
351,102,110907,1,0,0:0:0:0:
460,52,111479,1,0,0:0:0:0:
374,24,111907,6,0,B|317:13|285:54|285:54|261:55|261:55|230:65,1,150,4|0,0:0|0:0,0:0:0:0:
200,177,113193,2,0,B|189:244,2,59.9999999999999,0|8|8,0:0|0:0|0:3,0:0:0:0:
114,147,114193,6,0,B|99:239|99:239|103:266|103:266|98:287|96:308,1,150,4|0,0:0|0:0,0:0:0:0:
205,348,115479,2,0,P|259:300|312:309,1,120,0|0,0:0|0:0,0:0:0:0:
363,370,116479,6,0,B|354:329|354:329|358:296|358:296|337:264|331:220,1,150,4|0,0:0|0:0,0:0:0:0:
307,109,117765,2,0,B|239:151|239:151|206:186,1,120,0|0,0:0|0:0,0:0:0:0:
192,268,118765,6,0,P|146:245|124:153,1,150,4|0,0:0|0:0,0:0:0:0:
167,43,120050,1,0,0:0:0:0:
247,131,120622,1,0,0:0:0:0:
305,62,121050,6,0,B|336:75|370:74|370:74|385:94|385:94|413:104|435:127,1,150,4|0,0:0|0:0,0:0:0:0:
345,206,122336,2,0,B|312:209|312:209|277:219,2,59.9999999999999,0|8|8,0:0|0:0|0:0,0:0:0:0:
410,280,123336,6,0,B|376:318|334:326|334:326|306:318|306:318|265:320,1,150,4|0,0:0|0:0,0:0:0:0:
155,328,124622,2,0,P|139:239|112:215,1,120,0|0,0:0|0:0,0:0:0:0:
46,168,125622,6,0,B|85:139|85:139|142:130|142:130|184:114,1,150,4|0,0:0|0:0,0:0:0:0:
283,179,126907,2,0,P|332:221|392:213,1,120,0|0,0:0|0:0,0:0:0:0:
450,156,127907,6,0,B|422:108|422:108|413:13,1,150,4|0,0:0|0:0,0:0:0:0:
298,51,129193,1,0,0:0:0:0:
178,42,129765,1,0,0:0:0:0:
216,123,130193,6,0,B|181:149|181:149|155:155|155:155|129:185|87:202,1,150,4|0,0:0|0:0,0:0:0:0:
168,291,131479,2,0,B|191:275|191:275|221:242,2,59.9999999999999,0|8|8,0:0|0:0|0:0,0:0:0:0:
209,370,132479,6,0,P|283:345|359:342,1,150,4|8,0:0|0:0,0:0:0:0:
472,353,133765,2,0,L|456:228,1,120,0|8,0:0|0:0,0:0:0:0:
374,197,134765,6,0,P|280:215|232:195,1,150,4|8,0:0|0:0,0:0:0:0:
184,83,136050,2,0,B|221:101|221:101|305:117,1,120,0|8,0:0|0:0,0:0:0:0:
379,77,137050,6,0,P|427:89|472:173,1,150,4|8,0:0|0:0,0:0:0:0:
428,285,138336,2,0,L|301:300,1,120,0|8,0:0|0:0,0:0:0:0:
234,350,139336,6,0,P|179:363|91:331,1,150,4|8,0:0|0:0,0:0:0:0:
57,224,140622,1,8,0:0:0:0:
177,254,141193,2,0,L|268:245,1,89.9999999999999,8|4,0:0|0:0,0:0:0:0:
256,192,141765,12,0,146336,0:0:0:0:
