osu file format v9

[General]
AudioFilename: 12 - Give it All.mp3
AudioLeadIn: 0
PreviewTime: 25611
Countdown: 0
SampleSet: Normal
StackLeniency: 0.5
Mode: 0
LetterboxInBreaks: 1

[Editor]
DistanceSpacing: 1
BeatDivisor: 4
GridSize: 8

[Metadata]
Title:Give it All
Artist:Rise Against
Creator:Kitsunemimi
Version:Normal
Source:
Tags:DiamondCrash Roley Siren Song of the Counter Culture

[Difficulty]
HPDrainRate:4
CircleSize:4
OverallDifficulty:4
ApproachRate:4
SliderMultiplier:1
SliderTickRate:1

[Events]
//Background and Video events
0,0,"rise1.jpg"
//Break Periods
2,28156,30419
2,67740,70004
2,104997,112791
2,123625,125889
//Storyboard Layer 0 (Background)
//Storyboard Layer 1 (Fail)
//Storyboard Layer 2 (Pass)
//Storyboard Layer 3 (Foreground)
//Storyboard Sound Samples
//Background Colour Transformations
3,100,237,226,203

[TimingPoints]
26,1164.25730086349,4,1,0,70,1,0
9328,291.064325215873,4,1,0,70,1,0
46582,-100,4,1,1,70,0,0
48912,-100,4,1,0,70,0,0
104797,-200,4,2,0,70,0,0
123424,-100,4,1,0,70,0,0
142052,-100,4,1,1,70,0,1
159224,-100,4,1,0,70,0,0
159734,-100,4,1,1,70,0,0
160680,1164.25730086349,4,1,0,70,1,0
165337,-100,4,1,0,70,0,0

[Colours]
Combo1 : 254,252,186
Combo2 : 48,37,16
Combo3 : 54,248,113
Combo4 : 241,141,193

[HitObjects]
256,192,8757,5,2
256,192,9048,1,6
256,96,9328,5,4
160,128,9619,1,0
96,208,9910,1,4
112,304,10201,1,0
208,304,10492,2,4,B|312:304,1,100,6|4
308,304,11074,1,6
256,40,11947,5,0
352,40,12238,1,4
304,128,12529,1,0
208,128,12820,2,4,B|144:47,3,100,6|4|6|6
344,56,14276,5,0
344,152,14567,1,4
344,248,14858,1,0
240,248,15149,1,6
240,248,15440,1,4
136,248,15731,2,2,B|112:232|96:200|104:160|136:144|168:120|216:120,1,200,6|0
312,120,16604,5,0
416,120,16895,1,4
416,216,17186,1,0
312,216,17477,2,0,B|264:176|219:220,3,100,6|0|6|2
176,128,18642,6,4,B|240:82|311:85|369:140,2,200
104,200,20097,1,0
104,296,20388,2,2,B|104:352,2,50,6|2|2
200,120,21261,5,0
280,64,21552,1,4
376,48,21843,1,0
472,48,22134,2,2,B|472:104,2,50,6|2|2
472,144,22716,2,2,B|472:207,2,50,6|2|2
368,144,23299,6,4,B|290:144|402:248|410:272|314:272,1,200
216,272,24172,1,0
128,232,24463,1,4
136,136,24754,1,0
232,104,25045,2,2,B|288:104,2,50,6|2|2
256,192,25773,12,4,27956
144,40,31739,5,0
240,40,32031,1,0
336,40,32322,1,4
406,110,32613,1,4
476,180,32904,1,0
476,279,33195,2,0,B|476:359|336:360|344:273,2,200,0|4|0
408,88,34941,1,4
312,88,35232,6,0,B|192:88,1,100
128,136,35814,2,0,B|232:136,1,100
256,232,36396,1,0
206,318,36688,1,0
305,318,36979,1,0
256,192,37270,12,4,39598
168,280,40180,6,0,B|224:280,4,50,0|0|8|0|8
72,280,41054,5,8
120,192,41345,1,8
216,192,41636,1,8
320,192,41927,2,0,B|432:192,1,100,4|0
490,121,42509,1,0
419,50,42800,2,0,B|317:50,1,100,4|0
216,48,43382,1,0
120,48,43673,2,0,B|88:48|80:88|96:120|128:120,2,100,0|4|4
256,192,44401,12,4,46584
160,192,47166,6,2,B|160:128|232:128,1,100,0|2
304,192,47748,2,2,B|368:192|368:264,1,100,0|2
320,272,48185,2,0,B|264:272,3,50,8|4|8|4
112,144,49203,5,0
208,144,49494,2,0,B|272:144|272:208,1,100,4|0
272,304,50077,1,6
176,304,50368,1,0
80,304,50659,2,0,B|16:304|16:224,1,100,6|4
136,80,51532,5,0
240,80,51823,1,4
336,80,52114,1,0
432,80,52405,2,4,B|496:80|496:160,3,100,6|4|6|6
408,328,53860,6,0,B|440:288|376:280|408:224,1,100,0|4
408,136,54442,1,0
312,136,54734,1,4
312,136,55025,1,0
216,136,55316,2,2,B|192:152|176:184|184:224|216:240|248:264|296:264,1,200,6|0
392,264,56189,5,0
392,360,56480,1,4
288,360,56771,1,0
192,360,57062,2,0,B|192:328|208:296|256:272,1,100,0|4
344,280,57644,2,0,B|344:248|328:216|280:192,1,100,0|6
192,200,58226,1,12
264,136,58517,5,0
344,192,58808,1,4
424,136,59099,1,0
416,40,59391,1,4
320,40,59682,1,0
224,40,59973,2,2,B|168:40,3,50,6|2|2|2
176,192,60846,5,0
128,280,61137,1,4
32,296,61428,1,0
32,200,61719,2,2,B|32:136,3,50,6|2|2|2
32,96,62301,2,2,B|96:96,3,50,6|2|2|2
232,96,63174,5,0
328,136,63465,1,4
376,224,63757,1,0
328,312,64048,1,4
232,352,64339,1,0
136,312,64630,2,2,B|136:240,3,50,6|2|2|2
256,192,65357,12,4,67540
368,344,71324,5,0
272,344,71615,1,0
176,344,71906,1,4
106,274,72197,1,4
36,204,72488,1,0
36,105,72780,2,0,B|36:25|176:24|168:111,2,200,0|4|0
224,40,74526,1,4
312,88,74817,6,0,B|200:88,1,100
128,136,75399,2,0,B|248:136,1,100
256,232,75981,1,0
206,318,76272,1,0
305,318,76563,1,0
256,192,76854,12,4,79183
368,256,79765,6,0,B|368:312,4,50,0|0|8|0|8
368,160,80638,5,8
368,64,80929,1,8
280,112,81220,1,8
280,216,81511,2,0,B|280:328,1,100,4|0
192,264,82094,1,0
192,168,82385,2,0,B|90:168,1,100,4|0
92,68,82967,1,0
191,68,83258,2,0,B|223:68|231:108|215:140|183:140,2,100,0|4|4
256,192,83985,12,4,85586
256,192,86168,5,4
352,192,86460,1,0
448,192,86751,1,6
400,280,87042,1,0
304,280,87333,2,0,B|216:272|256:192|136:160,1,200,0|4
328,72,88497,5,0
328,168,88788,1,0
328,264,89079,1,6
240,216,89370,1,0
240,120,89661,2,0,B|240:64|120:72|120:208,1,200,0|4
256,336,90826,5,0
352,336,91117,1,0
448,336,91408,1,6
448,240,91699,1,0
448,144,91990,2,0,B|400:176|336:168|304:120|320:64,1,200,0|4
160,192,93154,5,0
256,192,93445,1,0
256,288,93736,1,4
256,96,94318,1,0
424,192,94900,2,0,B|320:192,2,100,4|0|4
232,256,96065,5,6
136,256,96356,1,0
40,256,96647,2,0,B|40:168|80:128|168:120,2,200,0|4|0
40,352,98102,5,0
136,352,98393,1,6
232,352,98684,1,0
232,256,98975,2,0,B|232:168|192:128|104:120,2,200,0|4|0
336,256,100431,5,0
336,160,100722,1,6
336,64,101013,1,0
240,64,101304,2,0,B|152:64|112:104|104:192,2,200,0|4|0
240,160,102759,5,0
336,160,103050,1,4
432,160,103341,1,0
432,256,103632,1,0
336,256,103923,1,0
336,352,104214,1,4
256,296,104506,2,0,B|256:240,2,50,0|0|4
256,192,114111,5,4
304,192,114402,1,0
352,192,114693,2,0,B|408:192,1,50,2|0
402,241,115275,1,0
331,311,115857,1,2
280,312,116148,1,0
232,312,116439,1,0
232,216,117021,5,2
161,145,117603,1,0
248,96,118186,1,2
256,192,118768,2,0,B|288:192|304:232|280:280|232:272|184:256|160:224,2,200,2|0|0
256,192,121678,12,4,123425
256,96,127209,5,0
256,192,127500,1,0
256,288,127791,1,4
256,288,128082,2,0,B|328:296|344:256,1,100,4|0
344,160,128664,1,0
414,230,128955,1,0
416,328,129246,5,4
216,328,129828,1,0
128,152,130410,1,4
200,88,130701,6,0,B|320:88,1,100
384,136,131283,2,0,B|272:136,1,100
256,232,131866,1,0
306,318,132157,1,0
207,318,132448,1,0
256,192,132739,12,4,135067
280,216,135649,6,0,B|224:216,4,50,0|0|8|0|8
192,168,136523,5,8
192,64,136814,1,8
280,112,137105,1,8
368,64,137396,2,0,B|368:176,1,100,4|0
368,264,137978,1,0
280,216,138269,2,0,B|280:114,1,100,4|0
192,168,138851,1,0
192,264,139142,2,0,B|192:296|152:304|120:288|120:256,1,100
256,192,139724,12,4,141471
344,192,142053,6,0,B|240:192,1,100,4|0
160,136,142635,2,0,B|280:136,1,100,4|0
176,192,143217,2,0,B|72:192,1,100,4|0
160,248,143799,2,0,B|272:248,1,100,4|0
360,248,144381,6,0,B|360:128,1,100,4|0
408,64,144963,2,0,B|304:64,1,100,4|0
240,136,145546,2,0,B|240:248,1,100,4|0
312,304,146128,2,0,B|312:192,1,100,4|0
328,104,146710,5,4
424,104,147001,1,0
424,200,147292,1,4
328,200,147583,1,0
232,200,147874,1,4
136,200,148165,1,0
136,104,148456,1,4
232,104,148747,1,0
232,200,149038,5,4
232,296,149329,1,0
328,296,149621,1,4
424,296,149912,1,0
424,200,150203,1,6
328,200,150494,1,2
376,112,150785,1,6
280,112,151076,1,2
184,112,151367,6,0,B|112:112,2,50,4|0|8
184,216,151949,2,0,B|240:216,2,50,4|0|8
128,304,152531,2,0,B|240:304,1,100,4|8
328,304,153113,1,12
424,304,153404,1,8
352,248,153695,6,0,B|424:248,2,50,4|0|8
352,144,154278,2,0,B|296:144,2,50,4|0|8
408,56,154860,2,0,B|296:56,1,100,4|8
208,56,155442,1,12
112,56,155733,1,8
64,144,156024,6,2,B|64:200|104:240|160:240,1,150,6|2
256,240,156752,1,2
392,304,157188,2,0,B|332:288|452:256|392:240,1,100,4|0
392,136,157770,1,4
392,136,158061,1,0
296,136,158352,2,0,B|288:160|256:168|224:160|216:136,1,100,4|0
256,48,158935,2,0,B|256:112,4,50,12|8|8|0|8
104,192,159953,6,0,B|168:192,1,50
256,192,160390,1,8
360,192,160680,1,4
