osu file format v9

[General]
AudioFilename: 12 - Give it All.mp3
AudioLeadIn: 0
PreviewTime: 25611
Countdown: 0
SampleSet: Normal
StackLeniency: 0.5
Mode: 0
LetterboxInBreaks: 1

[Editor]
DistanceSpacing: 0.9
BeatDivisor: 4
GridSize: 8

[Metadata]
Title:Give it All
Artist:Rise Against
Creator:Kitsunemimi
Version:Easy
Source:
Tags:DiamondCrash Roley Siren Song of the Counter Culture

[Difficulty]
HPDrainRate:3
CircleSize:4
OverallDifficulty:2
ApproachRate:3
SliderMultiplier:0.6
SliderTickRate:1

[Events]
//Background and Video events
0,0,"rise1.jpg"
//Break Periods
2,28156,30289
2,67740,69874
2,104997,112661
//Storyboard Layer 0 (Background)
//Storyboard Layer 1 (Fail)
//Storyboard Layer 2 (Pass)
//Storyboard Layer 3 (Foreground)
//Storyboard Sound Samples
//Background Colour Transformations
3,100,237,226,203

[TimingPoints]
26,1164.25730086349,4,1,0,70,1,0
9328,291.064325215873,4,1,0,70,1,0
104797,-100,4,2,0,70,0,0
118768,-200,4,2,0,70,0,0
121387,-100,4,1,0,70,0,0
142052,-100,4,1,1,70,0,1
159007,-100,4,2,0,70,0,0
159734,-100,4,1,0,70,0,0
160680,1164.25730086349,4,1,0,70,1,0

[Colours]
Combo1 : 254,252,186
Combo2 : 69,53,22
Combo3 : 54,248,113
Combo4 : 241,141,193

[HitObjects]
304,272,9619,6,0,B|240:272,1,60
144,272,10492,1,4
144,272,11074,1,6
144,128,11947,6,0,B|168:104|160:88|136:80,1,60
56,128,12820,2,4,B|32:152|32:192|48:216,2,90,4|0|6
128,192,14276,6,0,B|192:192,1,60
280,192,15149,1,4
376,192,15731,1,6
384,48,16604,6,0,B|352:48|352:96,1,60
352,184,17477,2,0,B|352:208|384:216|376:248|328:248,2,90,4|0|6
312,152,18642,5,4
248,80,19224,1,0
184,152,19806,1,4
120,224,20388,1,2
184,288,20970,5,4
248,224,21552,1,0
184,152,22134,1,6
120,80,22716,1,2
184,8,23299,5,4
248,80,23881,1,0
312,152,24463,1,4
376,224,25045,1,2
256,192,25627,12,4,27956
144,88,31739,6,0,B|272:88,1,120
320,88,32613,1,4
408,112,33195,1,0
472,184,33777,1,4
464,280,34359,1,0
408,352,34941,1,4
336,288,35523,5,2
336,192,36105,1,2
288,192,36396,6,0,B|224:192,2,60
256,192,37270,12,4,39598
136,104,41054,6,0,B|136:40,2,60
136,152,41927,1,4
136,248,42509,1,0
136,296,42800,2,0,B|136:360,2,60,0|4|0
136,248,43673,1,4
256,192,44255,12,4,46584
272,128,49203,6,0,B|272:192,1,60
272,280,50077,1,4
272,280,50659,1,6
136,328,51532,6,0,B|112:336|88:296,1,60
88,200,52405,2,0,B|88:152|120:152,3,60,4|0|4|2
200,200,53860,6,0,B|264:200,1,60
352,200,54734,1,4
456,200,55316,1,6
368,88,56189,6,0,B|376:72|400:112|392:136,1,60
456,200,57062,2,0,B|440:200|424:184|440:224|408:224,3,60,4|0|4|2
316,192,58517,6,0,B|244:192,1,60,0|4
136,192,59391,2,0,B|200:192,1,60,0|0
256,192,59973,1,6
256,312,60555,6,0,B|256:248,1,60
256,192,61137,1,4
256,72,61719,2,2,B|256:136,1,60,2|2
256,192,62301,1,6
264,288,62883,6,0,B|272:320|304:336,1,60
344,344,63465,1,4
440,328,64048,2,0,B|480:312|488:288,1,60
504,240,64630,2,2,B|512:192|496:176,1,60,6|2
256,192,65503,12,4,67540
312,224,71324,5,0
312,224,71615,1,4
256,304,72197,2,0,B|192:304,2,60,0|0|4
368,304,73362,2,0,B|432:304,2,60,0|0|4
312,224,74526,1,4
256,192,75981,5,0
232,232,76272,2,0,B|256:264|280:232,1,60
256,192,76854,12,4,79183
168,312,80638,6,0,B|104:312,2,60
216,312,81511,1,4
312,312,82094,1,0
312,264,82385,2,0,B|312:200,2,60,0|4|0
312,312,83258,1,4
352,224,83840,2,4,B|368:160|312:134|256:160|272:224,2,180
256,256,86168,5,4
368,256,86751,2,0,B|408:256|426:239,1,60,6|0
424,184,87333,1,0
424,80,87915,1,4
320,80,88497,1,0
243,156,89079,6,0,B|219:156|195:180|195:188,1,60,6|0
192,240,89661,1,0
192,344,90243,1,4
304,344,90826,1,0
380,267,91408,6,0,B|396:259|396:243|388:227|364:227,1,60,6|0
312,224,91990,1,0
235,147,92572,1,4
127,147,93154,2,0,B|103:139|87:115|119:91|167:91|167:67,2,120,0|4|0
234,147,94900,2,0,B|306:147,1,60,4|0
348,147,95483,1,4
400,240,96065,5,6
344,240,96356,2,0,B|344:304,1,60
240,312,97229,2,0,B|112:312,1,120,4|0
196,235,98393,5,6
142,235,98684,2,0,B|128:200|168:184,1,60
120,88,99557,2,0,B|248:88,1,120,4|0
316,164,100722,5,6
349,206,101013,2,0,B|277:206,1,60
316,312,101886,1,4
208,312,102468,2,0,B|184:304|164:264|184:224|208:216,3,120,0|4|0|4
256,248,104506,1,0
256,192,104797,5,4
256,192,114111,5,4
256,288,114693,6,0,B|256:352,2,60
256,192,115857,1,0
256,96,116439,1,0
352,264,117603,5,0
256,264,118186,1,0
160,264,118768,2,0,B|112:272|64:264|32:216|48:144|80:128|112:120,1,240
352,240,122552,6,6,B|304:280,2,60
256,192,123425,12,4,125753
256,88,127209,5,0
256,136,127500,1,0
256,232,128082,2,0,B|256:296,1,60
256,336,128664,1,4
160,336,129246,2,0,B|160:272,1,60
160,232,129828,1,4
160,232,130410,1,4
256,192,131866,5,0
280,232,132157,2,0,B|256:264|232:232,1,60
256,192,132739,12,4,135067
232,320,136523,6,0,B|256:352|280:320,2,60
256,280,137396,2,0,B|256:216,1,60,4|0
256,176,137978,1,0
256,128,138269,2,0,B|256:64,1,60,0|4
304,152,139142,1,0
208,152,139724,2,4,B|152:168|141:216|152:264|208:280,2,180
280,72,142053,6,0,B|304:136,1,60,4|0
288,184,142635,2,0,B|272:248,1,60
224,264,143217,2,0,B|168:240,1,60,4|0
168,184,143799,2,0,B|168:120,1,60
216,96,144381,2,0,B|272:64,1,60,4|0
312,96,144963,2,0,B|368:128,1,60
400,168,145546,2,0,B|440:216,1,60,4|0
432,264,146128,2,0,B|376:296,1,60
328,296,146710,5,4
328,184,147292,1,0
216,184,147874,1,4
216,296,148456,1,0
104,296,149038,1,4
104,184,149621,1,0
216,184,150203,1,4
272,184,150494,2,0,B|336:184,2,60,0|4|4
272,128,151367,6,0,B|272:64,2,60,4|0|4
320,32,152531,2,0,B|384:32,2,60,4|0|4
385,121,153695,1,4
384,232,154278,1,4
272,232,154860,2,0,B|208:232,3,60,4|0|4|0
232,280,156024,6,2,B|324:280,1,90,6|2
456,280,157188,1,4
456,168,157770,1,4
344,168,158352,2,2,B|248:168,1,90,6|2
256,88,159226,6,0,B|288:88,2,30
256,168,159953,6,0,B|256:256,1,90
256,312,160680,1,4
