osu file format v14

[General]
AudioFilename: redownloadscrub.mp3
AudioLeadIn: 0
PreviewTime: 22400
Countdown: 0
SampleSet: None
StackLeniency: 0.7
Mode: 0
LetterboxInBreaks: 0
WidescreenStoryboard: 0

[Editor]
Bookmarks: 15448,22329,26916,51074,96590,113006
DistanceSpacing: 1.3
BeatDivisor: 4
GridSize: 8
TimelineZoom: 0.9

[Metadata]
Title:Drones
TitleUnicode:Drones
Artist:Rise Against
ArtistUnicode:Rise Against
Creator:pishifat
Version:Normal
Source:
Tags:the sufferer & and witness metal punk hardcore
BeatmapID:716787
BeatmapSetID:309607

[Difficulty]
HPDrainRate:3
CircleSize:3
OverallDifficulty:2
ApproachRate:3
SliderMultiplier:0.85
SliderTickRate:1

[Events]
//Background and Video events
0,0,"s.jpg",0,0
//Break Periods
2,81075,88627
//Storyboard Layer 0 (Background)
//Storyboard Layer 1 (Fail)
//Storyboard Layer 2 (Pass)
//Storyboard Layer 3 (Foreground)
//Storyboard Sound Samples

[TimingPoints]
6409,284.697508896797,4,3,2,40,1,0
14380,-100,4,1,1,45,0,0
15519,286.73835125448,4,1,1,50,1,1
15519,-100,4,1,1,50,0,1
15590,-100,4,1,1,50,0,0
22400,-100,4,1,1,45,0,0
31576,-100,4,1,1,45,0,0
40751,-100,4,1,1,50,0,1
45053,-100,4,1,1,50,0,1
45339,-100,4,1,1,45,0,0
47633,-100,4,1,1,45,0,0
49927,-100,4,1,1,50,0,1
54228,-100,4,1,1,50,0,1
54515,-100,4,1,1,45,0,0
56809,-100,4,1,1,45,0,0
58243,-100,4,1,1,45,0,0
59103,281.030444964871,4,1,1,45,1,0
61351,549.199084668192,4,1,1,50,1,1
61351,-50,4,1,1,50,0,1
78101,-50,4,1,1,45,0,0
81075,562.060889929742,4,1,1,45,1,0
90067,286.73835125448,4,1,1,45,1,0
106124,-100,4,1,1,45,0,0
108418,-100,4,1,1,50,0,1
112719,-100,4,1,1,50,0,1
113006,-100,4,1,1,45,0,0
115299,-100,4,1,1,45,0,0
117593,-100,4,1,1,50,0,1
121894,-100,4,1,1,50,0,1
122181,-100,4,1,1,45,0,0
124475,289.855072463768,4,1,1,45,1,0
125634,-111.111111111111,4,1,1,45,0,0
126793,286.73835125448,4,1,1,50,1,1
126793,-100,4,1,1,50,0,1
126864,-100,4,1,1,50,0,0

[Colours]
Combo1 : 192,175,122
Combo2 : 119,113,96
Combo3 : 143,143,143

[HitObjects]
152,179,6408,5,0,0:0:0:0:
223,118,6693,2,0,B|307:110|307:110|390:131,1,170,8|8,0:0|0:0,0:0:0:0:
479,157,7547,1,0,0:0:0:0:
412,222,7832,2,0,B|408:299|408:299|414:321|414:321|405:358|359:388,1,170,10|4,0:0|0:0,0:0:0:0:
286,345,8686,5,0,0:0:0:0:
268,253,8971,2,0,P|219:216|111:222,1,170,8|8,0:0|0:0,0:0:0:0:
54,292,9825,1,0,0:0:0:0:
23,203,10110,2,0,L|35:16,1,170,10|8,0:0|0:0,0:0:0:0:
124,10,10964,5,0,0:0:0:0:
189,76,11248,2,0,B|270:99|270:99|356:89,1,170,10|8,0:0|0:0,0:0:0:0:
447,73,12102,1,0,0:0:0:0:
490,155,12387,2,0,B|468:162|436:166|436:166|414:177|414:177|369:173|317:218,1,170,8|4,0:0|0:0,0:0:0:0:
285,288,13241,5,0,0:0:0:0:
200,328,13526,2,0,L|192:148,1,170,8|10,0:0|0:0,0:0:0:0:
160,70,14380,2,0,B|119:59|119:59|65:55,1,85,2|8,0:0|0:0,0:0:0:0:
59,147,14949,1,8,0:0:0:0:
100,230,15234,1,8,0:0:0:0:
38,304,15519,5,6,0:0:0:0:
119,352,15805,2,0,B|161:345|161:345|208:324,1,85,12|2,0:2|0:0,0:0:0:0:
272,268,16379,2,0,L|366:274,2,85,8|2|8,0:2|0:0|0:0,0:0:0:0:
206,201,17239,2,0,P|203:161|219:105,1,85,2|8,0:0|0:0,0:0:0:0:
295,73,17812,5,2,0:0:0:0:
371,127,18099,2,0,L|466:131,1,85,8|2,0:0|0:0,0:0:0:0:
512,204,18673,2,0,B|516:245|516:245|507:296,1,85,8|2,0:0|0:0,0:0:0:0:
440,352,19246,2,0,L|342:362,2,85,8|2|12,0:0|0:0|0:2,0:0:0:0:
422,260,20106,5,2,0:0:0:0:
329,272,20393,2,0,B|285:264|285:264|238:246,1,85,8|2,0:0|0:0,0:0:0:0:
194,171,20967,2,0,L|99:164,1,85,8|2,0:0|0:0,0:0:0:0:
71,79,21540,2,0,P|109:56|164:44,2,85,8|8|8,0:0|0:0|0:3,0:0:0:0:
17,156,22400,6,0,L|25:341,1,170,6|2,0:0|0:0,0:0:0:0:
111,360,23260,1,8,0:0:0:0:
163,282,23547,2,0,L|170:192,2,85,2|8|2,0:0|0:0|0:0,0:0:0:0:
236,339,24407,1,8,0:0:0:0:
296,267,24694,6,0,L|394:260,1,85,2|8,0:0|0:0,0:0:0:0:
456,316,25268,2,0,P|469:270|467:223,1,85,2|8,0:0|0:0,0:0:0:0:
399,170,25841,2,0,B|332:174|332:174|225:130,1,170,2|2,0:0|0:0,0:0:0:0:
176,63,26701,1,12,0:2:0:0:
268,44,26988,6,0,B|335:40|335:40|363:49|363:49|452:43,1,170,2|2,0:0|0:0,0:0:0:0:
480,126,27848,1,8,0:0:0:0:
399,170,28135,2,0,L|306:176,2,85,2|8|2,0:0|0:0|0:0,0:0:0:0:
463,237,28995,1,8,0:0:0:0:
434,326,29282,6,0,P|364:366|268:335,1,170,2|2,0:0|0:0,0:0:0:0:
235,265,30142,1,8,0:0:0:0:
159,320,30429,2,0,L|62:328,1,85,2|8,0:0|0:0,0:0:0:0:
64,233,31002,2,0,L|156:227,1,85,2|12,0:0|0:2,0:0:0:0:
225,173,31576,6,0,P|233:117|257:38,2,127.5,6|0|8,0:0|0:0|0:0,0:0:0:0:
235,265,32723,2,0,L|335:253,2,85,2|8|2,0:0|0:0|0:0,0:0:0:0:
158,319,33583,1,12,0:2:0:0:
244,358,33870,6,0,L|377:367,2,127.5,2|0|8,0:0|0:0|0:0,0:0:0:0:
158,319,35017,2,0,P|123:309|66:302,1,85,2|12,0:0|0:2,0:0:0:0:
28,220,35590,2,0,L|129:210,1,85,2|12,0:0|0:2,0:0:0:0:
204,232,36164,6,0,P|277:256|334:244,2,127.5,2|0|8,0:0|0:0|0:0,0:0:0:0:
177,142,37311,2,0,L|272:129,2,85,2|8|2,0:0|0:0|0:0,0:0:0:0:
89,108,38171,1,6,0:2:0:0:
104,200,38458,6,0,B|105:238|105:238|97:288,1,85,2|8,0:0|0:0,0:0:0:0:
160,353,39031,2,0,L|256:361,1,85,2|12,0:0|0:2,0:0:0:0:
315,298,39605,2,0,P|352:273|408:273,2,85,2|8|8,0:0|0:0|0:0,0:0:0:0:
383,361,40465,1,6,0:2:0:0:
470,327,40751,6,0,B|481:278|481:278|468:211|468:211|476:158,1,170,6|2,0:0|0:0,0:0:0:0:
502,70,41612,1,8,0:0:0:0:
410,90,41898,2,0,L|308:98,1,85,2|8,0:0|0:0,0:0:0:0:
235,67,42472,2,0,P|179:58|134:60,1,85,2|8,0:0|0:0,0:0:0:0:
181,146,43045,6,0,B|215:154|215:154|273:188,2,85,6|8|2,0:0|0:0|0:0,0:0:0:0:
93,180,43906,1,8,0:0:0:0:
166,237,44192,2,0,B|197:257|197:257|234:298,2,85,2|8|2,0:0|0:0|0:0,0:0:0:0:
79,274,45053,1,12,0:2:0:0:
93,366,45339,5,2,0:0:0:0:
187,376,45626,2,0,L|364:367,1,170,12|8,0:2|0:0,0:0:0:0:
456,209,46773,2,0,L|277:198,1,170,12|8,0:2|0:0,0:0:0:0:
209,145,47633,6,0,P|154:131|116:129,1,85,2|8,0:0|0:0,0:0:0:0:
164,43,48207,2,0,L|259:38,1,85,2|10,0:0|0:3,0:0:0:0:
323,95,48780,2,0,P|363:121|414:125,2,85,2|8|2,0:0|0:0|0:0,0:0:0:0:
394,35,49640,1,12,0:2:0:0:
481,68,49927,6,0,B|487:125|487:125|472:188|472:188|481:250,1,170,6|2,0:0|0:0,0:0:0:0:
500,326,50787,1,8,0:0:0:0:
409,302,51074,2,0,L|315:294,1,85,2|8,0:0|0:0,0:0:0:0:
239,333,51648,2,0,P|188:346|148:340,1,85,2|8,0:0|0:0,0:0:0:0:
187,254,52221,6,0,B|203:220|203:220|212:168,2,85,6|8|2,0:0|0:0|0:0,0:0:0:0:
94,269,53081,1,8,0:0:0:0:
34,196,53368,2,0,B|24:163|24:163|21:94,2,85,2|8|2,0:0|0:0|0:0,0:0:0:0:
126,181,54228,1,12,0:2:0:0:
187,254,54515,5,2,0:0:0:0:
269,209,54802,2,0,L|448:198,1,170,12|8,0:2|0:0,0:0:0:0:
307,64,55949,2,0,L|135:53,1,170,12|8,0:2|0:0,0:0:0:0:
49,84,56809,6,0,P|25:123|17:169,1,85,6|8,0:0|0:0,0:0:0:0:
86,223,57382,2,0,L|171:216,1,85,2|8,0:0|0:0,0:0:0:0:
259,247,57956,1,2,0:0:0:0:
331,188,58243,2,0,L|337:94,2,85,8|8|8,0:0|0:0|0:0,0:0:0:0:
345,282,59103,6,0,P|410:302|443:298,1,85,6|8,0:0|0:0,0:0:0:0:
494,237,59665,2,0,L|490:134,1,85,2|8,0:0|0:0,0:0:0:0:
454,65,60227,1,8,0:0:0:0:
386,129,60508,2,0,B|347:132|347:132|333:129|333:129|289:133,2,85,8|8|8,0:0|0:0|3:0,0:0:0:0:
344,42,61351,6,0,B|276:46|276:46|255:55|255:55|214:54|145:78,1,170,6|8,0:0|0:0,0:0:0:0:
62,213,62449,2,0,L|54:315,2,85,2|2|8,0:0|0:0|0:0,0:0:0:0:
149,178,63273,1,2,0:0:0:0:
205,252,63547,6,0,P|278:271|355:222,1,170,6|8,0:0|0:0,0:0:0:0:
315,40,64646,2,0,L|424:52,1,85,2|2,0:0|0:0,0:0:0:0:
482,93,65195,2,0,P|497:133|499:195,1,85,8|2,0:0|0:0,0:0:0:0:
411,151,65744,6,0,L|228:140,1,170,6|8,0:0|0:0,0:0:0:0:
123,285,66842,2,0,L|207:279,1,85,2|2,0:0|0:0,0:0:0:0:
301,275,67392,2,0,P|376:310|394:330,1,85,8|2,0:0|0:0,0:0:0:0:
441,378,67941,6,0,B|474:323|474:323|481:216,1,170,6|8,0:0|0:0,0:0:0:0:
387,55,69039,2,0,L|382:153,1,85,2|2,0:0|0:0,0:0:0:0:
291,163,69588,2,0,P|201:145|181:145,1,85,8|2,0:0|0:0,0:0:0:0:
140,205,70138,5,6,0:0:0:0:
315,268,70687,2,0,L|415:258,2,85,8|2|2,0:0|0:0|0:0,0:0:0:0:
226,299,71511,1,2,0:0:0:0:
165,370,71785,2,0,P|128:373|66:352,1,85,8|2,0:0|0:0,0:0:0:0:
34,282,72334,5,6,0:0:0:0:
150,135,72884,2,0,L|160:31,2,85,8|2|2,0:0|0:0|0:0,0:0:0:0:
164,227,73707,1,2,0:0:0:0:
236,168,73982,2,0,P|276:160|323:163,1,85,8|2,0:0|0:0,0:0:0:0:
400,210,74531,5,6,0:0:0:0:
341,32,75080,2,0,L|216:24,2,85,8|2|2,0:0|0:0|0:0,0:0:0:0:
426,69,75904,1,2,0:0:0:0:
486,140,76179,2,0,L|498:254,1,85,8|2,0:0|0:0,0:0:0:0:
481,317,76728,5,6,0:0:0:0:
313,233,77277,2,0,P|272:223|219:222,2,85,8|2|2,0:0|0:0|0:0,0:0:0:0:
363,311,78101,1,12,0:0:0:0:
32,120,90067,5,6,0:0:0:0:
92,191,90353,2,0,B|174:215|174:215|269:207,1,170,8|8,0:0|0:0,0:0:0:0:
345,174,91213,1,2,0:0:0:0:
407,104,91500,2,0,L|409:18,2,85,8|2|8,0:0|0:0|0:0,0:0:0:0:
436,192,92360,5,2,0:0:0:0:
374,262,92647,2,0,P|271:277|205:309,1,170,8|8,0:0|0:0,0:0:0:0:
155,379,93507,1,2,0:0:0:0:
79,323,93794,2,0,L|76:231,1,85,8|2,0:0|0:0,0:0:0:0:
32,155,94368,1,12,0:2:0:0:
86,79,94654,5,2,0:0:0:0:
127,163,94941,2,0,P|193:179|279:133,1,170,8|8,0:0|0:0,0:0:0:0:
292,40,95801,1,2,0:0:0:0:
377,78,96088,2,0,B|388:131|388:131|377:249,1,170,8|8,0:0|0:0,0:0:0:0:
342,333,96948,5,2,0:0:0:0:
285,258,97235,2,0,P|233:244|124:296,1,170,8|8,0:0|0:0,0:0:0:0:
85,370,98095,1,2,0:0:0:0:
37,289,98382,2,0,L|27:193,2,85,8|2|8,0:0|0:0|0:0,0:0:0:0:
130,288,99242,6,0,P|140:202|161:108,1,170,6|2,0:0|0:0,0:0:0:0:
235,68,100102,1,8,0:0:0:0:
289,144,100389,2,0,B|330:153|330:153|386:157,1,85,2|8,0:0|0:0,0:0:0:0:
464,135,100963,2,0,L|469:230,1,85,2|8,0:0|0:0,0:0:0:0:
469,313,101536,6,0,P|412:359|322:341,1,170,2|2,0:0|0:0,0:0:0:0:
278,258,102396,1,8,0:0:0:0:
196,304,102683,2,0,L|107:308,1,85,2|8,0:0|0:0,0:0:0:0:
33,255,103256,2,0,P|66:230|118:218,1,85,2|8,0:0|0:0,0:0:0:0:
201,216,103830,6,0,B|195:146|195:146|183:122|183:122|178:31,1,170,2|2,0:0|0:0,0:0:0:0:
265,13,104690,1,8,0:0:0:0:
283,104,104977,2,0,L|456:120,1,170,2|2,0:0|0:0,0:0:0:0:
510,193,105837,1,8,0:0:0:0:
417,208,106124,6,0,P|360:246|345:264,1,85,2|8,0:0|0:0,0:0:0:0:
329,347,106697,2,0,L|234:341,1,85,2|12,0:0|0:2,0:0:0:0:
176,276,107271,2,0,B|139:253|139:253|94:240,2,85,2|8|8,0:0|0:0|0:0,0:0:0:0:
152,366,108131,1,6,0:2:0:0:
64,332,108418,6,0,L|58:151,1,170,6|2,0:0|0:0,0:0:0:0:
85,72,109278,1,8,0:0:0:0:
147,141,109565,2,0,P|208:160|243:158,1,85,2|8,0:0|0:0,0:0:0:0:
312,118,110138,2,0,L|408:114,1,85,2|8,0:0|0:0,0:0:0:0:
462,46,110712,6,0,B|425:31|425:31|377:20,2,85,6|8|2,0:0|0:0|0:0,0:0:0:0:
487,135,111572,1,8,0:0:0:0:
425,205,111859,2,0,L|439:296,2,85,2|8|2,0:0|0:0|0:0,0:0:0:0:
397,115,112719,1,12,0:2:0:0:
333,183,113006,5,2,0:0:0:0:
246,150,113292,2,0,L|77:140,1,170,12|8,0:2|0:0,0:0:0:0:
188,280,114439,2,0,L|369:274,1,170,12|8,0:2|0:0,0:0:0:0:
446,245,115299,6,0,P|457:207|459:161,1,85,2|8,0:0|0:0,0:0:0:0:
366,143,115873,2,0,L|272:138,1,85,2|10,0:0|0:3,0:0:0:0:
192,107,116446,2,0,P|156:89|108:81,2,85,2|8|2,0:0|0:0|0:0,0:0:0:0:
211,198,117307,1,8,0:0:0:0:
186,288,117593,6,0,P|123:326|25:305,1,170,6|2,0:0|0:0,0:0:0:0:
16,217,118454,1,8,0:0:0:0:
95,164,118740,2,0,B|107:123|107:123|113:74,1,85,2|8,0:0|0:0,0:0:0:0:
184,21,119314,2,0,L|285:27,1,85,2|8,0:0|0:0,0:0:0:0:
361,39,119887,6,0,B|406:27|406:27|459:22,2,85,6|8|2,0:0|0:0|0:0,0:0:0:0:
308,116,120748,1,8,0:0:0:0:
376,179,121034,2,0,L|473:185,2,85,2|8|2,0:0|0:0|0:0,0:0:0:0:
286,205,121894,1,12,0:2:0:0:
259,294,122181,5,2,0:0:0:0:
171,261,122468,2,0,L|-9:256,1,170,12|8,0:2|0:0,0:0:0:0:
146,138,123615,2,0,L|326:129,1,170,12|8,0:2|0:0,0:0:0:0:
395,176,124475,5,2,0:0:0:0:
395,176,125634,2,0,B|411:210|434:224|434:224|431:248|431:248|497:298|468:374,1,229.499992996216,6|0,0:2|0:0,0:0:0:0:
383,331,126793,5,6,0:0:0:0:
292,354,127079,2,0,L|196:357,1,85,8|2,0:0|0:0,0:0:0:0:
120,320,127653,2,0,B|79:306|79:306|24:300,2,85,8|2|8,0:0|0:0|0:0,0:0:0:0:
198,268,128513,2,0,P|210:189|206:172,1,85,2|12,0:0|0:2,0:0:0:0:
156,108,129086,5,2,0:0:0:0:
225,45,129373,2,0,B|268:36|268:36|325:38,1,85,8|2,0:0|0:0,0:0:0:0:
380,98,129947,2,0,L|481:107,1,85,8|2,0:0|0:0,0:0:0:0:
432,193,130520,2,0,L|330:184,2,85,8|2|12,0:0|0:0|0:2,0:0:0:0:
502,254,131380,5,2,0:0:0:0:
459,337,131667,2,0,L|361:343,1,85,8|2,0:0|0:0,0:0:0:0:
291,297,132241,1,8,0:0:0:0:
203,329,132527,2,0,B|190:288|190:288|186:230,1,85,2|8,0:0|0:0,0:0:0:0:
259,186,133101,2,0,B|271:146|271:146|276:90,1,85,8|6,0:0|0:2,0:0:0:0:
227,22,133674,5,2,0:0:0:0:
