osu file format v14

[General]
AudioFilename: redownloadscrub.mp3
AudioLeadIn: 0
PreviewTime: 22400
Countdown: 0
SampleSet: None
StackLeniency: 0.7
Mode: 0
LetterboxInBreaks: 0
WidescreenStoryboard: 0

[Editor]
Bookmarks: 15448,22329,26916,51074,113006
DistanceSpacing: 1.3
BeatDivisor: 6
GridSize: 8
TimelineZoom: 1.6

[Metadata]
Title:Drones
TitleUnicode:Drones
Artist:Rise Against
ArtistUnicode:Rise Against
Creator:pishifat
Version:Insane
Source:
Tags:the sufferer & and witness metal punk hardcore
BeatmapID:716786
BeatmapSetID:309607

[Difficulty]
HPDrainRate:6
CircleSize:4.5
OverallDifficulty:7.5
ApproachRate:9
SliderMultiplier:1.65
SliderTickRate:1

[Events]
//Background and Video events
0,0,"s.jpg",0,0
//Break Periods
2,81075,88765
//Storyboard Layer 0 (Background)
//Storyboard Layer 1 (Fail)
//Storyboard Layer 2 (Pass)
//Storyboard Layer 3 (Foreground)
//Storyboard Sound Samples

[TimingPoints]
6409,284.697508896797,4,3,2,40,1,0
6409,-133.333333333333,4,3,2,40,0,0
7832,-117.647058823529,4,3,2,40,0,0
8117,-133.333333333333,4,3,2,40,0,0
10110,-117.647058823529,4,3,2,40,0,0
10394,-133.333333333333,4,3,2,40,0,0
10821,-117.647058823529,4,3,2,40,0,0
10964,-133.333333333333,4,3,2,40,0,0
14095,-117.647058823529,4,3,2,40,0,0
14380,-105.263157894737,4,1,1,45,0,0
15519,286.73835125448,4,1,1,50,1,1
15519,-95.2380952380952,4,1,1,50,0,1
15590,-95.2380952380952,4,1,1,50,0,0
21397,-95.2380952380952,4,1,1,35,0,0
21827,-90.9090909090909,4,1,1,35,0,0
22400,-117.647058823529,4,1,1,45,0,0
30429,-100,4,1,1,45,0,0
30716,-111.111111111111,4,1,1,45,0,0
31576,-105.263157894737,4,1,1,45,0,0
39891,-100,4,1,1,35,0,0
40465,-117.647058823529,4,1,1,45,0,0
40751,-95.2380952380952,4,1,1,50,0,1
45053,-100,4,1,1,50,0,1
45339,-117.64705882353,4,1,1,45,0,0
45626,-105.263157894737,4,1,1,45,0,0
45913,-117.64705882353,4,1,1,45,0,0
46200,-105.263157894737,4,1,1,45,0,0
46486,-117.64705882353,4,1,1,45,0,0
46773,-105.263157894737,4,1,1,45,0,0
47060,-117.64705882353,4,1,1,45,0,0
47346,-105.263157894737,4,1,1,45,0,0
47633,-100,4,1,1,45,0,0
49927,-95.2380952380952,4,1,1,50,0,1
54228,-100,4,1,1,50,0,1
54515,-117.64705882353,4,1,1,45,0,0
54802,-105.263157894737,4,1,1,45,0,0
55088,-117.64705882353,4,1,1,45,0,0
55375,-105.263157894737,4,1,1,45,0,0
55662,-117.64705882353,4,1,1,45,0,0
55949,-105.263157894737,4,1,1,45,0,0
56235,-117.64705882353,4,1,1,45,0,0
56522,-105.263157894737,4,1,1,45,0,0
56809,-100,4,1,1,45,0,0
58099,-100,4,1,1,35,0,0
59103,281.030444964871,4,1,1,45,1,0
59103,-105.263157894737,4,1,1,45,0,0
59313,-95.2380952380952,4,1,1,45,0,0
60367,-95.2380952380952,4,1,1,35,0,0
60789,-105.263157894737,4,1,1,35,0,0
61070,-117.647058823529,4,1,1,35,0,0
61351,549.199084668192,4,1,1,50,1,1
61351,-66.6666666666667,4,1,1,50,0,1
78101,-200,4,1,1,45,0,0
81075,562.060889929742,4,1,1,45,1,0
89786,-62.5,4,1,1,45,0,0
90067,286.73835125448,4,1,1,45,1,0
90067,-111.111111111111,4,1,1,45,0,0
98095,-100,4,1,1,45,0,0
99242,-105.263157894737,4,1,1,45,0,0
106124,-100,4,1,1,45,0,0
107414,-100,4,1,1,35,0,0
108131,-117.647058823529,4,1,1,45,0,0
108418,-95.2380952380952,4,1,1,50,0,1
112719,-105.263157894737,4,1,1,50,0,1
113006,-117.64705882353,4,1,1,45,0,0
113292,-105.263157894737,4,1,1,45,0,0
113579,-117.64705882353,4,1,1,45,0,0
113866,-105.263157894737,4,1,1,45,0,0
114153,-117.64705882353,4,1,1,45,0,0
114439,-105.263157894737,4,1,1,45,0,0
114726,-117.64705882353,4,1,1,45,0,0
115013,-105.263157894737,4,1,1,45,0,0
115299,-100,4,1,1,45,0,0
117593,-95.2380952380952,4,1,1,50,0,1
121894,-105.263157894737,4,1,1,50,0,1
122181,-117.64705882353,4,1,1,45,0,0
122468,-105.263157894737,4,1,1,45,0,0
122755,-117.64705882353,4,1,1,45,0,0
123041,-105.263157894737,4,1,1,45,0,0
123328,-117.64705882353,4,1,1,45,0,0
123615,-105.263157894737,4,1,1,45,0,0
123902,-117.64705882353,4,1,1,45,0,0
124188,-105.263157894737,4,1,1,45,0,0
124475,289.855072463768,4,1,1,45,1,0
125634,-240,4,1,1,45,0,0
125706,-280,4,1,1,5,0,0
126648,-280,4,1,1,45,0,0
126793,286.73835125448,4,1,1,50,1,1
126793,-95.2380952380952,4,1,1,50,0,1
126864,-95.2380952380952,4,1,1,50,0,0

[Colours]
Combo1 : 192,175,122
Combo2 : 119,113,96
Combo3 : 143,143,143

[HitObjects]
188,222,6409,6,0,L|269:229,1,61.875002360344,0|0,0:0|0:0,0:0:0:0:
136,161,6693,2,0,L|132:110,2,30.937501180172,8|8|0,0:0|0:0|0:0,0:0:0:0:
110,238,6978,2,0,P|59:258|32:264,1,61.875002360344,0|0,0:0|0:0,0:0:0:0:
217,149,7263,2,0,L|223:103,2,30.937501180172,8|8|0,0:0|0:0|0:0,0:0:0:0:
196,236,7547,6,0,L|202:317,1,61.875002360344,0|0,0:0|0:0,0:0:0:0:
295,341,7832,2,0,P|328:308|425:314,1,140.250002675056,10|0,0:0|0:0,0:0:0:0:
488,375,8259,1,0,0:0:0:0:
438,219,8401,1,4,0:0:0:0:
507,285,8544,1,4,0:0:0:0:
412,131,8686,6,0,L|331:126,1,61.875002360344,0|0,0:0|0:0,0:0:0:0:
211,67,8971,2,0,L|161:50,2,30.937501180172,8|8|0,0:0|0:0|0:0,0:0:0:0:
262,138,9255,2,0,P|276:187|277:219,1,61.875002360344,0|0,0:0|0:0,0:0:0:0:
297,60,9540,2,0,L|302:19,2,30.937501180172,8|8|0,0:0|0:0|0:0,0:0:0:0:
174,146,9825,6,0,L|91:149,1,61.875002360344,0|0,0:0|0:0,0:0:0:0:
19,234,10110,2,0,P|89:220|145:259,1,140.250002675056,10|0,0:0|0:0,0:0:0:0:
162,339,10537,1,0,0:0:0:0:
277,211,10679,2,0,L|330:203,3,30.937501180172,8|8|8|0,0:0|0:0|0:0|0:0,0:0:0:0:
327,217,10964,6,0,L|409:224,1,61.875002360344,0|0,0:0|0:0,0:0:0:0:
494,317,11248,2,0,L|343:324,1,123.750004720688,10|0,0:0|0:0,0:0:0:0:
370,322,11675,1,0,0:0:0:0:
405,226,11818,2,0,L|451:207,2,30.937501180172,8|8|0,0:0|0:0|0:0,0:0:0:0:
298,286,12102,6,0,B|268:290|268:290|214:291,1,61.875002360344,0|0,0:0|0:0,0:0:0:0:
128,207,12387,2,0,L|118:153,2,30.937501180172,8|8|0,0:0|0:0|0:0,0:0:0:0:
150,291,12672,2,0,L|146:366,1,61.875002360344,0|0,0:0|0:0,0:0:0:0:
37,224,12957,1,4,0:0:0:0:
58,310,13099,1,4,0:0:0:0:
141,215,13241,6,0,P|171:211|223:209,1,61.875002360344,0|0,0:0|0:0,0:0:0:0:
348,235,13526,2,0,L|395:240,2,30.937501180172,8|8|0,0:0|0:0|0:0,0:0:0:0:
279,182,13811,2,0,P|261:137|257:106,1,61.875002360344,0|0,0:0|0:0,0:0:0:0:
349,52,14095,2,0,L|342:126,1,70.1250013375282,10|0,0:0|0:0,0:0:0:0:
190,70,14380,6,0,B|157:66|157:66|102:77,1,78.3749979071618,2|8,0:0|0:0,0:0:0:0:
94,90,14594,1,8,0:0:0:0:
74,103,14665,1,8,0:0:0:0:
200,156,14807,1,8,0:0:0:0:
203,179,14878,1,8,0:0:0:0:
205,202,14949,2,0,B|173:215|173:215|98:220,1,78.3749979071618,8|8,0:0|0:0,0:0:0:0:
256,271,15234,1,8,0:0:0:0:
176,340,15376,1,8,0:0:0:0:
294,194,15519,6,0,B|329:180|329:180|393:176,1,86.6249973564149,6|0,0:0|0:0,0:0:0:0:
504,295,15805,1,12,0:2:0:0:
393,267,15949,1,0,0:0:0:0:
274,361,16092,2,0,L|177:351,1,86.6249973564149,2|0,0:0|0:0,0:0:0:0:
44,229,16379,2,0,P|80:214|145:216,1,86.6249973564149,8|0,0:2|0:0,0:0:0:0:
290,278,16665,6,0,B|300:244|300:244|292:177,1,86.6249973564149,2|0,0:0|0:0,0:0:0:0:
194,67,16952,1,8,0:0:0:0:
215,184,17096,1,0,0:0:0:0:
281,8,17239,2,0,P|334:13|379:33,1,86.6249973564149,2|0,0:0|0:0,0:0:0:0:
183,55,17526,2,0,L|92:51,1,86.6249973564149,8|0,0:0|0:0,0:0:0:0:
44,229,17812,6,0,P|101:244|146:237,1,86.6249973564149,2|0,0:0|0:0,0:0:0:0:
297,177,18099,1,8,0:0:0:0:
376,274,18243,1,0,0:0:0:0:
226,258,18386,2,0,B|201:284|201:284|176:347,1,86.6249973564149,2|0,0:0|0:0,0:0:0:0:
283,188,18673,2,0,L|273:95,1,86.6249973564149,8|0,0:0|0:0,0:0:0:0:
108,163,18959,6,0,P|167:181|211:175,1,86.6249973564149,2|0,0:0|0:0,0:0:0:0:
257,17,19246,1,8,0:0:0:0:
163,106,19389,1,0,0:0:0:0:
283,113,19533,2,0,L|386:107,1,86.6249973564149,2|0,0:0|0:0,0:0:0:0:
183,195,19820,2,0,B|172:230|172:230|166:302,1,86.6249973564149,12|0,0:2|0:0,0:0:0:0:
298,182,20106,6,0,P|334:180|403:206,1,86.6249973564149,2|0,0:0|0:0,0:0:0:0:
427,373,20393,1,8,0:0:0:0:
469,274,20536,1,0,0:0:0:0:
312,337,20680,2,0,L|221:343,1,86.6249973564149,2|0,0:0|0:0,0:0:0:0:
74,268,20967,2,0,P|69:230|99:172,1,86.6249973564149,8|0,0:0|0:0,0:0:0:0:
271,126,21253,5,2,0:0:0:0:
174,228,21397,1,8,0:0:0:0:
162,233,21468,1,8,0:0:0:0:
150,238,21540,2,0,L|154:294,3,43.3124986782074,8|8|8|8,0:0|0:0|0:0|0:0,0:0:0:0:
175,153,21827,2,0,L|182:108,3,45.3750013847352,8|8|8|4,0:0|0:0|0:3|0:3,0:0:0:0:
93,173,22113,2,0,L|47:168,3,45.3750013847352,8|8|8|8,0:3|0:3|0:3|0:3,0:0:0:0:
150,238,22400,6,0,P|185:249|240:247,1,70.1250013375282,6|0,0:0|0:0,0:0:0:0:
326,163,22687,2,0,L|429:158,1,70.1250013375282,8|0,0:0|0:0,0:0:0:0:
490,223,22974,1,2,0:0:0:0:
490,223,23117,1,0,0:0:0:0:
457,69,23260,2,0,P|414:57|357:56,1,70.1250013375282,8|0,0:0|0:0,0:0:0:0:
315,175,23547,6,0,L|309:257,1,70.1250013375282,2|0,0:0|0:0,0:0:0:0:
219,148,23834,2,0,L|213:72,1,70.1250013375282,8|0,0:0|0:0,0:0:0:0:
154,223,24121,1,2,0:0:0:0:
154,223,24264,1,0,0:0:0:0:
19,205,24407,1,8,0:0:0:0:
60,290,24551,1,0,0:0:0:0:
13,190,24694,6,0,L|7:93,1,70.1250013375282,2|0,0:0|0:0,0:0:0:0:
154,223,24981,2,0,P|210:234|251:232,1,70.1250013375282,8|0,0:0|0:0,0:0:0:0:
328,196,25268,1,2,0:0:0:0:
328,196,25411,1,0,0:0:0:0:
366,326,25554,2,0,L|466:320,1,70.1250013375282,8|0,0:0|0:0,0:0:0:0:
275,303,25841,6,0,P|240:313|200:341,1,70.1250013375282,2|0,0:0|0:0,0:0:0:0:
154,223,26128,2,0,L|149:136,1,70.1250013375282,8|0,0:0|0:0,0:0:0:0:
131,41,26415,1,2,0:0:0:0:
53,112,26558,1,0,0:0:0:0:
229,81,26701,2,0,B|272:87|272:87|347:124,1,105.187502006292,12|0,0:2|0:0,0:0:0:0:
327,114,26988,6,0,L|428:109,1,70.1250013375282,2|0,0:0|0:0,0:0:0:0:
238,176,27275,2,0,P|233:225|236:262,1,70.1250013375282,8|0,0:0|0:0,0:0:0:0:
287,343,27562,1,2,0:0:0:0:
287,343,27705,1,0,0:0:0:0:
430,297,27848,2,0,L|529:305,1,70.1250013375282,8|0,0:0|0:0,0:0:0:0:
434,196,28135,6,0,P|367:210|341:227,1,70.1250013375282,2|0,0:0|0:0,0:0:0:0:
287,343,28422,2,0,L|191:347,1,70.1250013375282,8|0,0:0|0:0,0:0:0:0:
129,293,28708,1,2,0:0:0:0:
129,293,28852,1,0,0:0:0:0:
243,221,28995,1,8,0:0:0:0:
162,181,29139,1,0,0:0:0:0:
56,235,29282,6,0,P|6:230|-31:218,1,70.1250013375282,2|0,0:0|0:0,0:0:0:0:
63,101,29569,2,0,L|143:96,1,70.1250013375282,8|0,0:0|0:0,0:0:0:0:
242,130,29855,1,2,0:0:0:0:
242,130,29998,1,0,0:0:0:0:
331,34,30142,2,0,P|384:19|418:17,1,70.1250013375282,8|0,0:0|0:0,0:0:0:0:
486,177,30429,6,0,B|454:185|454:185|390:176,1,82.5,2|0,0:0|0:0,0:0:0:0:
237,55,30716,2,0,L|243:163,1,74.2499977340699,8|0,0:0|0:0,0:0:0:0:
264,308,31002,1,2,0:0:0:0:
305,217,31146,1,0,0:0:0:0:
168,257,31289,2,0,B|123:251|123:251|59:222,1,111.374996601105,12|0,0:2|0:0,0:0:0:0:
62,223,31576,5,6,0:0:0:0:
109,347,31719,2,0,L|212:340,1,78.3749979071618,0|8,0:0|0:0,0:0:0:0:
362,290,32006,1,0,0:0:0:0:
325,376,32149,1,2,0:0:0:0:
325,376,32293,1,0,0:0:0:0:
291,229,32436,2,0,P|293:197|307:140,1,78.3749979071618,8|0,0:0|0:0,0:0:0:0:
410,26,32723,6,0,L|418:113,1,78.3749979071618,2|0,0:0|0:0,0:0:0:0:
267,41,33010,2,0,P|231:42|183:52,1,78.3749979071618,8|0,0:0|0:0,0:0:0:0:
137,196,33296,1,2,0:0:0:0:
214,132,33439,1,0,0:0:0:0:
67,119,33583,2,0,B|54:89|54:89|50:26,1,78.3749979071618,12|0,0:2|0:0,0:0:0:0:
37,220,33870,5,2,0:0:0:0:
151,204,34013,2,0,L|251:211,1,78.3749979071618,0|8,0:0|0:0,0:0:0:0:
356,269,34300,1,0,0:0:0:0:
273,312,34443,1,2,0:0:0:0:
273,312,34587,1,0,0:0:0:0:
300,161,34730,2,0,P|296:124|283:69,1,78.3749979071618,8|0,0:0|0:0,0:0:0:0:
104,70,35017,5,2,0:0:0:0:
204,107,35160,1,0,0:0:0:0:
69,163,35303,2,0,L|-42:175,1,78.3749979071618,12|0,0:2|0:0,0:0:0:0:
176,208,35590,5,2,0:0:0:0:
124,304,35734,1,0,0:0:0:0:
268,250,35877,2,0,L|374:261,1,78.3749979071618,12|0,0:2|0:0,0:0:0:0:
478,315,36164,5,2,0:0:0:0:
419,205,36307,2,0,P|386:188|338:177,1,78.3749979071618,0|8,0:0|0:0,0:0:0:0:
256,262,36594,1,0,0:0:0:0:
176,208,36737,1,2,0:0:0:0:
176,208,36881,1,0,0:0:0:0:
109,316,37024,2,0,L|12:321,1,78.3749979071618,8|0,0:0|0:0,0:0:0:0:
225,349,37311,6,0,B|236:317|236:317|243:262,1,78.3749979071618,2|0,0:0|0:0,0:0:0:0:
172,129,37597,2,0,L|165:31,1,78.3749979071618,8|0,0:0|0:0,0:0:0:0:
269,176,37884,1,2,0:0:0:0:
283,91,38027,1,0,0:0:0:0:
367,209,38171,2,0,P|406:221|454:220,1,78.3749979071618,6|0,0:2|0:0,0:0:0:0:
258,191,38458,6,0,B|248:221|248:221|252:291,1,78.3749979071618,2|0,0:0|0:0,0:0:0:0:
370,370,38744,1,8,0:0:0:0:
346,286,38888,1,0,0:0:0:0:
225,349,39031,2,0,P|192:354|124:354,1,78.3749979071618,2|0,0:0|0:0,0:0:0:0:
18,237,39318,2,0,P|59:244|119:249,1,78.3749979071618,12|0,0:2|0:0,0:0:0:0:
194,120,39605,5,2,0:0:0:0:
65,156,39748,1,8,0:0:0:0:
59,142,39820,1,8,0:0:0:0:
52,129,39891,2,0,L|48:71,3,41.25,8|8|8|8,0:0|0:0|0:0|0:0,0:0:0:0:
128,67,40178,2,0,L|133:16,3,41.25,8|8|8|8,0:0|0:0|0:0|0:0,0:0:0:0:
194,120,40465,2,0,B|236:128|236:128|327:119,1,105.187502006292,6|0,0:2|3:0,0:0:0:0:
298,121,40751,6,0,L|288:221,1,86.6249973564149,6|0,0:0|0:0,0:0:0:0:
382,352,41038,2,0,P|376:308|363:263,1,86.6249973564149,8|0,0:0|0:0,0:0:0:0:
189,305,41325,1,2,0:0:0:0:
268,359,41468,1,0,0:0:0:0:
197,211,41612,2,0,L|97:203,1,86.6249973564149,8|0,0:0|0:0,0:0:0:0:
287,136,41898,6,0,B|319:144|319:144|379:179,1,86.6249973564149,2|0,0:0|0:0,0:0:0:0:
470,306,42185,2,0,L|476:195,1,86.6249973564149,8|0,0:0|0:0,0:0:0:0:
512,48,42472,2,0,B|484:74|484:74|446:132,1,86.6249973564149,2|0,0:0|0:0,0:0:0:0:
382,285,42759,1,8,0:0:0:0:
248,221,42902,1,0,0:0:0:0:
222,215,42974,1,0,3:0:0:0:
197,211,43045,6,0,L|86:204,1,86.6249973564149,6|0,0:0|0:0,0:0:0:0:
225,306,43332,2,0,P|268:301|309:288,1,86.6249973564149,8|0,0:0|0:0,0:0:0:0:
344,134,43619,1,2,0:0:0:0:
409,211,43762,1,0,0:0:0:0:
429,58,43906,2,0,P|462:44|517:29,1,86.6249973564149,8|0,0:0|0:0,0:0:0:0:
331,144,44192,6,0,L|244:136,1,86.6249973564149,2|0,0:0|0:0,0:0:0:0:
76,294,44479,2,0,P|129:316|180:313,1,86.6249973564149,8|0,0:0|0:0,0:0:0:0:
248,222,44766,1,2,0:0:0:0:
140,234,44909,1,0,0:0:0:0:
257,340,45053,2,0,L|364:346,1,82.5,12|0,0:2|0:0,0:0:0:0:
397,200,45339,6,0,L|304:195,1,70.1250013375282,2|0,0:0|0:0,0:0:0:0:
466,107,45626,2,0,P|483:71|488:19,1,78.3749979071618,12|0,0:2|0:0,0:0:0:0:
449,115,45913,6,0,L|376:111,1,70.1250013375282,2|0,0:0|0:0,0:0:0:0:
259,31,46200,2,0,P|295:21|335:21,1,78.3749979071618,8|0,0:0|0:0,0:0:0:0:
249,46,46486,6,0,L|240:114,1,70.1250013375282,2|0,0:0|0:0,0:0:0:0:
78,89,46773,2,0,P|90:52|112:19,1,78.3749979071618,12|0,0:2|0:0,0:0:0:0:
85,107,47060,6,0,L|93:189,1,70.1250013375282,2|0,0:0|0:0,0:0:0:0:
182,281,47346,2,0,P|198:251|204:188,1,78.3749979071618,8|0,0:0|0:0,0:0:0:0:
178,49,47633,6,0,B|283:25,1,82.5,2|0,0:0|0:0,0:0:0:0:
298,198,47920,1,8,0:0:0:0:
136,159,48063,1,8,0:0:0:0:
257,114,48207,2,0,P|294:114|363:123,1,82.5,2|0,0:0|0:0,0:0:0:0:
500,177,48493,1,10,0:3:0:0:
444,104,48637,1,0,0:0:0:0:
385,217,48780,6,0,L|288:227,1,82.5,2|0,0:0|0:0,0:0:0:0:
130,230,49067,1,8,0:0:0:0:
263,320,49210,1,8,0:0:0:0:
145,310,49354,2,0,L|45:316,1,82.5,2|0,0:0|0:0,0:0:0:0:
227,234,49640,2,0,P|245:190|214:119,1,123.75,12|0,0:2|3:0,0:0:0:0:
217,122,49927,6,0,L|309:131,1,86.6249973564149,6|0,0:0|0:0,0:0:0:0:
115,61,50214,2,0,P|51:77|7:110,1,86.6249973564149,8|0,0:0|0:0,0:0:0:0:
84,232,50501,1,2,0:0:0:0:
129,146,50644,1,0,0:0:0:0:
235,219,50787,2,0,P|252:269|255:317,1,86.6249973564149,8|0,0:0|0:0,0:0:0:0:
217,122,51074,6,0,L|228:17,1,86.6249973564149,2|0,0:0|0:0,0:0:0:0:
326,217,51361,2,0,B|361:224|361:224|448:215,1,86.6249973564149,8|0,0:0|0:0,0:0:0:0:
354,56,51648,2,0,L|363:153,1,86.6249973564149,2|0,0:0|0:0,0:0:0:0:
406,318,51934,1,8,0:0:0:0:
273,284,52078,1,0,0:0:0:0:
247,288,52149,1,0,3:0:0:0:
221,292,52221,6,0,L|123:285,1,86.6249973564149,6|0,0:0|0:0,0:0:0:0:
23,147,52508,2,0,L|141:138,1,86.6249973564149,8|0,0:0|0:0,0:0:0:0:
281,176,52794,1,2,0:0:0:0:
334,86,52938,1,0,0:0:0:0:
382,244,53081,2,0,B|419:255|419:255|479:258,1,86.6249973564149,8|0,0:0|0:0,0:0:0:0:
270,192,53368,6,0,L|171:200,1,86.6249973564149,2|0,0:0|0:0,0:0:0:0:
92,63,53655,2,0,L|210:76,1,86.6249973564149,8|0,0:0|0:0,0:0:0:0:
337,110,53941,1,2,0:0:0:0:
258,40,54085,1,0,0:0:0:0:
281,176,54228,2,0,P|285:215|289:298,1,82.5,12|0,0:2|0:0,0:0:0:0:
142,237,54515,6,0,L|147:158,1,70.1250013375282,2|0,0:0|0:0,0:0:0:0:
78,336,54802,2,0,P|139:354|177:349,1,78.3749979071618,12|0,0:2|0:0,0:0:0:0:
66,322,55088,6,0,L|60:231,1,70.1250013375282,2|0,0:0|0:0,0:0:0:0:
225,230,55375,2,0,P|219:268|198:301,1,78.3749979071618,8|0,0:0|0:0,0:0:0:0:
240,220,55662,6,0,L|318:212,1,70.1250013375282,2|0,0:0|0:0,0:0:0:0:
222,66,55949,2,0,P|158:73|126:93,1,78.3749979071618,12|0,0:2|0:0,0:0:0:0:
235,74,56235,6,0,L|244:161,1,70.1250013375282,2|0,0:0|0:0,0:0:0:0:
215,322,56522,2,0,P|177:310|149:283,1,78.3749979071618,8|0,0:0|0:0,0:0:0:0:
149,123,56809,5,6,0:0:0:0:
233,159,56952,1,0,0:0:0:0:
336,78,57096,2,0,P|367:74|438:72,1,82.5,8|0,0:0|0:0,0:0:0:0:
470,219,57382,1,2,0:0:0:0:
381,190,57526,1,0,0:0:0:0:
263,254,57669,2,0,P|224:260|166:257,1,82.5,8|0,0:0|0:0,0:0:0:0:
324,315,57956,5,2,0:0:0:0:
305,188,58099,1,8,0:0:0:0:
294,180,58171,1,8,0:0:0:0:
285,174,58243,2,0,L|243:169,3,41.25,8|8|8|8,0:0|0:0|0:0|0:0,0:0:0:0:
357,121,58529,2,0,L|398:117,3,41.25,8|8|8|8,0:0|0:0|0:0|0:0,0:0:0:0:
273,90,58816,2,0,L|232:84,3,41.25,8|8|8|8,0:0|0:0|0:0|0:0,0:0:0:0:
343,37,59103,6,0,B|372:26|372:26|437:12,1,78.3749979071618,6|0,0:0|0:0,0:0:0:0:
219,96,59384,2,0,L|116:99,1,86.6249973564149,8|0,0:0|0:0,0:0:0:0:
0,48,59665,1,2,0:0:0:0:
104,7,59805,1,0,0:0:0:0:
55,149,59946,2,0,B|52:186|52:186|62:256,1,86.6249973564149,8|0,0:0|0:0,0:0:0:0:
142,330,60227,6,0,L|153:207,1,115.49999647522,8|8,0:0|0:0,0:0:0:0:
146,117,60508,2,0,L|141:53,2,57.7499982376099,8|8|8,0:0|0:0|0:0,0:0:0:0:
230,159,60789,2,0,L|241:79,2,52.2499986047745,8|8|8,0:0|0:0|0:0,0:0:0:0:
289,230,61070,2,0,P|327:212|365:203,2,46.7500008916855,8|8|4,3:0|3:0|3:0,0:0:0:0:
309,317,61351,6,0,B|379:333|358:311|459:340,1,123.750004720688,6|2,0:0|0:0,0:0:0:0:
507,375,61762,1,0,0:0:0:0:
488,249,61900,1,8,0:0:0:0:
475,260,62174,1,2,0:0:0:0:
417,108,62449,6,0,P|361:81|268:115,2,123.750004720688,2|2|8,0:0|0:0|0:0,0:0:0:0:
264,184,63273,2,0,L|182:175,1,61.875002360344,2|0,0:0|0:0,0:0:0:0:
276,199,63547,6,0,B|289:244|289:244|284:329,1,123.750004720688,6|2,0:0|0:0,0:0:0:0:
246,384,63959,1,0,0:0:0:0:
361,359,64096,1,8,0:0:0:0:
370,371,64371,1,2,0:0:0:0:
201,250,64646,6,0,L|49:263,1,123.750004720688,2|2,0:0|0:0,0:0:0:0:
213,79,65195,1,8,0:0:0:0:
225,89,65469,2,0,P|260:94|307:96,1,61.875002360344,2|0,0:0|0:0,0:0:0:0:
142,40,65744,6,0,B|128:81|128:81|140:169,1,123.750004720688,6|2,0:0|0:0,0:0:0:0:
185,240,66156,1,0,0:0:0:0:
316,210,66293,1,8,0:0:0:0:
305,225,66568,1,2,0:0:0:0:
363,47,66842,6,0,P|445:18|503:42,1,123.750004720688,2|2,0:0|0:0,0:0:0:0:
494,232,67392,2,0,L|487:144,1,61.875002360344,8|0,0:0|0:0,0:0:0:0:
399,286,67666,2,0,L|405:201,1,61.875002360344,2|0,0:0|0:0,0:0:0:0:
316,348,67941,6,0,B|271:358|271:358|164:346,1,123.750004720688,6|2,0:0|0:0,0:0:0:0:
109,321,68353,1,0,0:0:0:0:
213,231,68490,1,8,0:0:0:0:
225,244,68765,1,2,0:0:0:0:
101,186,68902,1,8,0:0:0:0:
204,130,69039,6,0,L|350:120,1,123.750004720688,2|2,0:0|0:0,0:0:0:0:
73,66,69588,1,8,0:0:0:0:
85,80,69863,1,2,0:0:0:0:
193,4,70000,1,8,0:0:0:0:
214,142,70138,6,0,B|260:138|260:138|377:167,1,123.750004720688,6|2,0:0|0:0,0:0:0:0:
408,206,70550,1,0,0:0:0:0:
394,62,70687,2,0,P|444:27|504:30,1,123.750004720688,8|2,0:0|0:0,0:0:0:0:
396,219,71236,6,0,L|391:364,1,123.750004720688,2|2,0:0|0:0,0:0:0:0:
470,313,71648,1,0,0:0:0:0:
306,244,71785,2,0,P|263:246|221:253,1,61.875002360344,8|0,0:0|0:0,0:0:0:0:
331,158,72060,2,0,P|301:149|243:144,1,61.875002360344,2|0,0:0|0:0,0:0:0:0:
173,209,72334,6,0,P|103:235|23:187,1,123.750004720688,6|2,0:0|0:0,0:0:0:0:
36,140,72746,1,0,0:0:0:0:
116,274,72884,2,0,L|286:288,1,123.750004720688,8|2,0:0|0:0,0:0:0:0:
371,55,73433,6,0,B|350:89|350:89|341:172,1,123.750004720688,2|2,0:0|0:0,0:0:0:0:
361,260,73845,1,0,0:0:0:0:
255,166,73982,1,8,0:0:0:0:
243,178,74257,2,0,L|160:182,1,61.875002360344,2|0,0:0|0:0,0:0:0:0:
54,92,74531,6,0,P|96:84|200:77,1,123.750004720688,6|2,0:0|0:0,0:0:0:0:
264,94,74943,1,0,0:0:0:0:
283,253,75080,2,0,P|346:289|432:254,1,123.750004720688,8|2,0:0|0:0,0:0:0:0:
130,325,75630,6,0,L|-26:334,1,123.750004720688,2|2,0:0|0:0,0:0:0:0:
38,255,76042,1,0,0:0:0:0:
208,350,76179,2,0,L|303:359,1,61.875002360344,8|0,0:0|0:0,0:0:0:0:
209,250,76453,2,0,L|269:263,1,61.875002360344,2|0,0:0|0:0,0:0:0:0:
375,340,76728,6,0,B|392:295|392:295|396:184,1,123.750004720688,6|2,0:0|0:0,0:0:0:0:
379,136,77140,1,0,0:0:0:0:
255,179,77277,2,0,P|221:135|242:51,1,123.750004720688,8|2,0:0|0:0,0:0:0:0:
363,352,77826,6,0,P|326:357|275:359,1,61.875002360344,2|0,0:0|0:0,0:0:0:0:
209,250,78101,1,12,0:0:0:0:
57,203,89365,5,2,0:0:0:0:
85,325,89505,1,8,0:0:0:0:
85,325,89576,1,8,0:3:0:0:
85,325,89646,1,4,0:3:0:0:
174,240,89786,2,0,P|211:236|259:235,1,66,8|0,0:0|0:0,0:0:0:0:
384,304,90067,6,0,P|394:268|392:217,1,74.2499977340699,6|0,0:0|0:0,0:0:0:0:
312,104,90353,2,0,L|320:259,1,148.49999546814,8|2,0:0|0:0,0:0:0:0:
325,360,90783,1,0,0:0:0:0:
239,234,90927,2,0,P|188:216|154:212,1,74.2499977340699,8|0,0:0|0:0,0:0:0:0:
18,263,91213,6,0,L|122:258,1,74.2499977340699,2|0,0:0|0:0,0:0:0:0:
168,124,91500,2,0,P|210:105|325:108,1,148.49999546814,8|2,0:0|0:0,0:0:0:0:
389,161,91930,1,0,0:0:0:0:
488,49,92074,2,0,L|494:135,1,74.2499977340699,8|0,0:0|0:0,0:0:0:0:
485,134,92289,1,0,0:0:0:0:
479,144,92360,6,0,B|470:177|470:177|461:243,1,74.2499977340699,2|0,0:0|0:0,0:0:0:0:
488,337,92647,2,0,B|442:313|442:313|337:303,1,148.49999546814,8|2,0:0|0:0,0:0:0:0:
261,344,93077,1,0,0:0:0:0:
285,204,93221,2,0,P|322:193|390:188,1,74.2499977340699,8|0,0:0|0:0,0:0:0:0:
209,256,93507,6,0,L|115:249,1,74.2499977340699,2|0,0:0|0:0,0:0:0:0:
33,140,93794,2,0,P|139:152|211:163,1,148.49999546814,8|2,0:0|0:0,0:0:0:0:
271,196,94224,1,0,0:0:0:0:
285,67,94368,2,0,P|339:36|405:54,1,111.374996601105,12|0,0:2|3:0,0:0:0:0:
385,42,94654,6,0,L|392:139,1,74.2499977340699,2|0,0:0|0:0,0:0:0:0:
259,182,94941,2,0,P|222:211|234:322,1,148.49999546814,8|2,0:0|0:0,0:0:0:0:
313,346,95371,1,0,0:0:0:0:
175,235,95515,2,0,L|67:227,1,74.2499977340699,8|0,0:0|0:0,0:0:0:0:
48,102,95801,6,0,P|99:116|135:146,1,74.2499977340699,2|0,0:0|0:0,0:0:0:0:
247,170,96088,2,0,L|425:159,1,148.49999546814,8|2,0:0|0:0,0:0:0:0:
485,118,96518,1,0,0:0:0:0:
437,267,96661,2,0,P|479:275|537:274,1,74.2499977340699,8|0,0:0|0:0,0:0:0:0:
341,256,96948,6,0,P|329:310|326:357,1,74.2499977340699,2|0,0:0|0:0,0:0:0:0:
213,234,97235,2,0,B|203:183|203:183|227:59,1,148.49999546814,8|2,0:0|0:0,0:0:0:0:
286,25,97665,1,0,0:0:0:0:
132,69,97808,2,0,L|35:75,1,74.2499977340699,8|0,0:0|0:0,0:0:0:0:
157,238,98095,6,0,L|213:247,2,41.25,2|0|0,0:0|0:0|0:0,0:0:0:0:
28,179,98382,1,8,0:0:0:0:
36,298,98525,1,0,0:0:0:0:
142,246,98669,2,0,P|152:200|150:141,1,82.5,2|0,0:0|0:0,0:0:0:0:
181,343,98955,2,0,L|284:335,1,82.5,8|0,0:0|0:0,0:0:0:0:
432,373,99242,6,0,B|394:374|394:374|340:366,1,78.3749979071618,6|0,0:0|0:0,0:0:0:0:
262,235,99529,1,8,0:0:0:0:
354,275,99672,1,0,0:0:0:0:
339,178,99816,2,0,L|348:89,1,78.3749979071618,2|0,0:0|0:0,0:0:0:0:
481,15,100102,1,8,0:0:0:0:
454,110,100246,1,0,0:0:0:0:
309,18,100389,6,0,P|242:21|204:34,1,78.3749979071618,2|0,0:0|0:0,0:0:0:0:
158,151,100676,1,8,0:0:0:0:
249,118,100819,1,0,0:0:0:0:
97,35,100963,2,0,L|11:26,1,78.3749979071618,2|0,0:0|0:0,0:0:0:0:
10,188,101249,2,0,L|88:183,1,78.3749979071618,8|0,0:0|0:0,0:0:0:0:
258,130,101536,6,0,P|315:151|352:191,1,78.3749979071618,2|0,0:0|0:0,0:0:0:0:
357,349,101823,1,8,0:0:0:0:
267,298,101966,1,0,0:0:0:0:
378,233,102110,2,0,L|474:240,1,78.3749979071618,2|0,0:0|0:0,0:0:0:0:
328,161,102396,1,8,0:0:0:0:
219,216,102540,1,0,0:0:0:0:
208,211,102611,1,0,0:0:0:0:
198,205,102683,6,0,B|187:172|187:172|181:115,1,78.3749979071618,2|0,0:0|0:0,0:0:0:0:
288,23,102970,1,8,0:0:0:0:
273,115,103113,1,0,0:0:0:0:
392,43,103256,2,0,L|476:38,1,78.3749979071618,2|0,0:0|0:0,0:0:0:0:
418,171,103543,2,0,L|331:174,1,78.3749979071618,8|0,0:0|0:0,0:0:0:0:
182,128,103830,6,0,P|139:122|69:127,1,78.3749979071618,2|0,0:0|0:0,0:0:0:0:
24,260,104117,1,8,0:0:0:0:
116,236,104260,1,0,0:0:0:0:
195,292,104403,2,0,L|297:288,1,78.3749979071618,2|0,0:0|0:0,0:0:0:0:
339,173,104690,2,0,P|300:177|262:191,1,78.3749979071618,8|0,0:0|0:0,0:0:0:0:
257,366,104977,6,0,P|293:379|332:383,1,78.3749979071618,2|0,0:0|0:0,0:0:0:0:
473,305,105264,1,8,0:0:0:0:
420,228,105407,1,0,0:0:0:0:
435,136,105550,2,0,P|489:122|532:120,1,78.3749979071618,2|0,0:0|0:0,0:0:0:0:
337,57,105837,2,0,L|248:48,1,78.3749979071618,8|0,0:0|0:0,0:0:0:0:
103,84,106124,6,0,L|111:192,1,82.5,2|0,0:0|0:0,0:0:0:0:
187,302,106411,2,0,L|197:198,1,82.5,8|0,0:0|0:0,0:0:0:0:
343,338,106697,2,0,P|303:367|262:378,1,82.5,2|0,0:0|0:0,0:0:0:0:
299,205,106984,2,0,L|408:212,1,82.5,12|0,0:2|0:0,0:0:0:0:
512,329,107271,5,2,0:0:0:0:
468,237,107414,1,8,0:0:0:0:
472,222,107486,1,8,0:0:0:0:
476,207,107558,2,0,L|479:147,3,41.25,8|8|8|8,0:0|0:0|0:0|0:0,0:0:0:0:
429,101,107844,2,0,L|425:51,3,41.25,8|8|8|8,0:0|0:0|0:0|0:0,0:0:0:0:
356,139,108131,2,0,B|313:137|313:137|237:112,1,105.187502006292,6|0,0:2|3:0,0:0:0:0:
253,117,108418,6,0,B|258:217,1,86.6249973564149,6|0,0:0|0:0,0:0:0:0:
175,366,108704,2,0,P|159:326|163:277,1,86.6249973564149,8|0,0:0|0:0,0:0:0:0:
326,273,108991,1,2,0:0:0:0:
238,316,109135,1,0,0:0:0:0:
148,194,109278,2,0,P|79:169|29:166,1,86.6249973564149,8|0,0:0|0:0,0:0:0:0:
0,300,109565,6,0,L|107:294,1,86.6249973564149,2|0,0:0|0:0,0:0:0:0:
233,221,109851,2,0,P|285:203|343:206,1,86.6249973564149,8|0,0:0|0:0,0:0:0:0:
466,273,110138,2,0,B|478:240|478:240|482:174,1,86.6249973564149,2|0,0:0|0:0,0:0:0:0:
463,55,110425,1,8,0:0:0:0:
371,113,110568,1,0,0:0:0:0:
354,107,110640,1,0,3:0:0:0:
338,100,110712,6,0,B|214:93,1,86.6249973564149,6|0,0:0|0:0,0:0:0:0:
78,134,110998,2,0,P|136:150|188:143,1,86.6249973564149,8|0,0:0|0:0,0:0:0:0:
262,19,111285,1,2,0:0:0:0:
154,42,111429,1,0,0:0:0:0:
243,182,111572,2,0,L|247:293,1,86.6249973564149,8|0,0:0|0:0,0:0:0:0:
413,300,111859,6,0,P|412:236|384:196,1,86.6249973564149,2|0,0:0|0:0,0:0:0:0:
279,345,112145,2,0,P|241:347|189:329,1,86.6249973564149,8|0,0:0|0:0,0:0:0:0:
119,209,112432,1,2,0:0:0:0:
13,237,112575,1,0,0:0:0:0:
97,113,112719,2,0,L|192:109,1,78.3749979071618,12|0,0:2|0:0,0:0:0:0:
316,153,113006,6,0,L|400:161,1,70.1250013375282,2|0,0:0|0:0,0:0:0:0:
260,234,113292,2,0,P|221:225|188:205,1,78.3749979071618,12|0,0:2|0:0,0:0:0:0:
272,246,113579,6,0,L|277:319,1,70.1250013375282,2|0,0:0|0:0,0:0:0:0:
402,243,113866,2,0,P|395:206|373:169,1,78.3749979071618,8|0,0:0|0:0,0:0:0:0:
414,256,114153,6,0,L|501:263,1,70.1250013375282,2|0,0:0|0:0,0:0:0:0:
393,90,114439,2,0,P|326:98|302:116,1,78.3749979071618,12|0,0:2|0:0,0:0:0:0:
408,99,114726,6,0,L|414:26,1,70.1250013375282,2|0,0:0|0:0,0:0:0:0:
369,229,115013,2,0,P|331:217|297:198,1,78.3749979071618,8|0,0:0|0:0,0:0:0:0:
273,46,115299,6,0,B|222:44|222:44|165:52,1,82.5,2|0,0:0|0:0,0:0:0:0:
172,214,115586,1,8,0:0:0:0:
316,160,115730,1,8,0:0:0:0:
190,128,115873,2,0,L|81:120,1,82.5,2|0,0:0|0:0,0:0:0:0:
137,286,116160,1,10,0:3:0:0:
227,254,116303,1,0,0:0:0:0:
302,341,116446,6,0,B|338:348|338:348|415:349,1,82.5,2|0,0:0|0:0,0:0:0:0:
440,216,116733,1,8,0:0:0:0:
313,250,116877,1,8,0:0:0:0:
358,115,117020,2,0,B|394:104|394:104|462:97,1,82.5,2|0,0:0|0:0,0:0:0:0:
264,179,117307,2,0,L|120:171,1,123.75,8|0,0:0|3:0,0:0:0:0:
125,183,117593,6,0,P|98:238|95:267,1,86.6249973564149,6|0,0:0|0:0,0:0:0:0:
189,96,117880,2,0,P|186:64|179:4,1,86.6249973564149,8|0,0:0|0:0,0:0:0:0:
44,123,118167,1,2,0:0:0:0:
140,172,118310,1,0,0:0:0:0:
270,92,118454,2,0,P|300:87|365:84,1,86.6249973564149,8|0,0:0|0:0,0:0:0:0:
491,220,118740,6,0,P|435:223|391:203,1,86.6249973564149,2|0,0:0|0:0,0:0:0:0:
259,107,119027,2,0,L|266:210,1,86.6249973564149,8|0,0:0|0:0,0:0:0:0:
302,348,119314,1,2,0:0:0:0:
338,255,119457,1,0,0:0:0:0:
218,305,119601,2,0,P|186:308|124:307,1,86.6249973564149,8|0,0:0|0:0,0:0:0:0:
121,298,119816,1,0,3:0:0:0:
111,289,119887,6,0,B|114:253|114:253|101:191,1,86.6249973564149,6|0,0:0|0:0,0:0:0:0:
0,96,120174,2,0,L|108:101,1,86.6249973564149,8|0,0:0|0:0,0:0:0:0:
228,166,120461,1,2,0:0:0:0:
315,110,120604,1,0,0:0:0:0:
366,218,120748,2,0,P|417:232|465:228,1,86.6249973564149,8|0,0:0|0:0,0:0:0:0:
497,49,121034,6,0,L|390:56,1,86.6249973564149,2|0,0:0|0:0,0:0:0:0:
230,7,121321,2,0,P|269:5|337:31,1,86.6249973564149,8|0,0:0|0:0,0:0:0:0:
419,155,121608,1,2,0:0:0:0:
320,123,121752,1,0,0:0:0:0:
240,231,121894,2,0,L|237:328,1,78.3749979071618,12|0,0:2|0:0,0:0:0:0:
109,243,122181,6,0,L|103:166,1,70.1250013375282,2|0,0:0|0:0,0:0:0:0:
183,328,122468,2,0,P|141:342|90:340,1,78.3749979071618,12|0,0:2|0:0,0:0:0:0:
197,321,122755,6,0,L|292:331,1,70.1250013375282,2|0,0:0|0:0,0:0:0:0:
192,152,123041,2,0,P|174:113|174:63,1,78.3749979071618,8|0,0:0|0:0,0:0:0:0:
207,160,123328,6,0,L|295:157,1,70.1250013375282,2|0,0:0|0:0,0:0:0:0:
390,82,123615,2,0,P|426:68|465:63,1,78.3749979071618,12|0,0:2|0:0,0:0:0:0:
376,91,123902,6,0,L|288:84,1,70.1250013375282,2|0,0:0|0:0,0:0:0:0:
347,241,124188,2,0,P|383:266|422:274,1,78.3749979071618,8|0,0:0|0:0,0:0:0:0:
497,143,124475,5,2,0:0:0:0:
466,278,125634,6,0,B|416:272|416:272|394:261|394:261|379:271|362:275|362:275|314:249|259:277|250:326,1,240.625,6|0,0:2|3:0,0:0:0:0:
357,189,126793,6,0,P|308:173|263:169,1,86.6249973564149,6|0,0:0|0:0,0:0:0:0:
124,234,127079,1,8,0:0:0:0:
141,133,127223,1,0,0:0:0:0:
228,239,127366,2,0,L|241:338,1,86.6249973564149,2|0,0:0|0:0,0:0:0:0:
129,145,127653,2,0,B|93:131|93:131|22:119,1,86.6249973564149,8|0,0:0|0:0,0:0:0:0:
206,57,127939,6,0,L|322:52,1,86.6249973564149,2|0,0:0|0:0,0:0:0:0:
451,136,128226,1,8,0:0:0:0:
479,42,128370,1,0,0:0:0:0:
359,120,128513,2,0,B|357:155|357:155|376:225,1,86.6249973564149,2|0,0:0|0:0,0:0:0:0:
498,315,128800,2,0,L|490:201,1,86.6249973564149,12|0,0:2|0:0,0:0:0:0:
386,363,129086,6,0,P|347:375|299:372,1,86.6249973564149,2|0,0:0|0:0,0:0:0:0:
196,260,129373,1,8,0:0:0:0:
301,273,129517,1,0,0:0:0:0:
210,165,129660,2,0,L|112:171,1,86.6249973564149,2|0,0:0|0:0,0:0:0:0:
26,37,129947,2,0,P|61:38|131:62,1,86.6249973564149,8|0,0:0|0:0,0:0:0:0:
223,177,130233,6,0,L|230:77,1,86.6249973564149,2|0,0:0|0:0,0:0:0:0:
423,45,130520,1,8,0:0:0:0:
356,125,130663,1,0,0:0:0:0:
280,11,130807,2,0,P|238:2|186:4,1,86.6249973564149,2|0,0:0|0:0,0:0:0:0:
123,148,131094,2,0,L|127:241,1,86.6249973564149,12|0,0:2|0:0,0:0:0:0:
274,354,131380,6,0,L|280:242,1,86.6249973564149,2|0,0:0|0:0,0:0:0:0:
343,113,131667,1,8,0:0:0:0:
368,220,131810,1,0,0:0:0:0:
221,147,131954,2,0,L|214:49,1,86.6249973564149,2|0,0:0|0:0,0:0:0:0:
171,231,132241,2,0,P|129:241|86:238,1,86.6249973564149,8|0,0:0|0:0,0:0:0:0:
13,56,132527,6,0,B|52:59|52:59|124:77,1,86.6249973564149,2|0,0:0|0:0,0:0:0:0:
231,161,132814,1,8,0:0:0:0:
286,39,132957,1,0,0:0:0:0:
243,176,133101,1,8,0:0:0:0:
365,106,133244,1,0,0:0:0:0:
253,189,133387,2,0,B|238:231|238:231|226:341,1,129.937496034622,6|0,0:2|3:0,0:0:0:0:
284,380,133674,5,2,0:0:0:0:
