osu file format v12

[General]
AudioFilename: 38. (TV).mp3
AudioLeadIn: 0
PreviewTime: 48015
Countdown: 0
SampleSet: None
StackLeniency: 0.7
Mode: 0
LetterboxInBreaks: 1
WidescreenStoryboard: 0

[Editor]
DistanceSpacing: 0.8
BeatDivisor: 4
GridSize: 8
TimelineZoom: 2.4

[Metadata]
Title:Ichiban Boshi(TV Size)
TitleUnicode:いちばん星 (TV Size)
Artist:Risa Taneda, Aya Suzaki, Azusa Tadokoro, Mao Ichimichi
ArtistUnicode:種田 梨沙,綾 洲崎, 田所あずさ, 市道 真央
Creator:Tada
Version:Insane
Source:Brynhildr in the Darkness
Tags:極黒のブリュンヒルデ
BeatmapID:435949
BeatmapSetID:175260

[Difficulty]
HPDrainRate:5
CircleSize:4
OverallDifficulty:6
ApproachRate:8
SliderMultiplier:1.6
SliderTickRate:2

[Events]
//Background and Video events
0,0,"2.jpg",0,0
//Break Periods
//Storyboard Layer 0 (Background)
//Storyboard Layer 1 (Fail)
//Storyboard Layer 2 (Pass)
//Storyboard Layer 3 (Foreground)
//Storyboard Sound Samples
//Background Colour Transformations
3,100,163,162,255

[TimingPoints]
419.714285714286,576.923076923077,4,1,0,50,1,0
48881,-100,4,1,0,50,0,1
85804,-100,4,1,0,50,0,0
88112,-100,4,1,0,10,0,0

[Colours]
Combo1 : 56,158,214
Combo2 : 255,128,192
Combo3 : 170,170,255
Combo4 : 200,0,200
Combo5 : 128,0,255

[HitObjects]
24,96,419,6,0,P|80:72|128:72,1,80,2|0,0:0|0:0,0:0:0:0:
272,152,996,2,0,P|232:176|184:176,1,80,2|0,0:0|0:0,0:0:0:0:
88,232,1573,2,0,L|144:320,1,80,2|0,0:0|0:0,0:0:0:0:
136,312,2150,1,2,0:0:0:0:
144,325,2438,1,0,0:0:0:0:
377,70,3015,6,0,P|416:56|456:72,1,80,0|2,0:0|0:0,0:0:0:0:
391,208,3592,2,0,P|352:215|316:202,1,80,0|2,0:0|0:0,0:0:0:0:
224,104,4169,1,0,0:0:0:0:
192,216,4458,2,0,L|160:304,1,80,2|0,0:0|0:0,0:0:0:0:
16,360,5035,6,0,L|56:256,1,80,2|0,0:0|0:0,0:0:0:0:
192,216,5612,2,0,P|256:208|296:224,1,80,2|0,0:0|0:0,0:0:0:0:
448,336,6188,2,0,P|400:344|352:320,1,80,2|0,0:0|0:0,0:0:0:0:
168,192,6765,1,2,0:0:0:0:
152,176,7054,1,0,0:0:0:0:
256,192,7198,12,0,9073,0:0:0:0:
128,104,9362,5,0,0:0:0:0:
224,88,9650,2,0,P|272:80|320:88,1,80,4|0,0:0|0:0,0:0:0:0:
464,216,10227,1,8,0:0:0:0:
368,328,10515,1,0,0:0:0:0:
368,328,10660,1,0,0:0:0:0:
368,328,10804,6,0,L|352:232,1,80,0|0,0:0|0:0,0:0:0:0:
288,80,11381,1,8,0:0:0:0:
216,144,11669,1,0,0:0:0:0:
216,144,11813,1,0,0:0:0:0:
216,144,11958,6,0,P|144:144|112:160,1,80,0|0,0:0|0:0,0:0:0:0:
48,184,12535,1,8,0:0:0:0:
39,271,12823,1,0,0:0:0:0:
52,309,12967,1,0,0:0:0:0:
77,340,13111,5,0,0:0:0:0:
111,360,13255,1,0,0:0:0:0:
112,360,13400,2,0,L|176:352,1,40
176,264,13688,2,0,P|232:248|272:248,1,80,8|0,0:0|0:0,0:0:0:0:
384,304,14265,6,0,P|440:304|488:288,2,80,4|0|0,0:0|0:0|0:0,0:0:0:0:
312,208,15131,1,0,0:0:0:0:
312,208,15275,1,0,0:0:0:0:
312,208,15419,2,0,L|288:104,1,80
224,64,15996,1,0,0:0:0:0:
144,288,16285,1,0,0:0:0:0:
224,64,16573,6,0,L|192:144,1,80
272,288,17150,1,0,0:0:0:0:
328,208,17438,1,0,0:0:0:0:
328,208,17583,1,0,0:0:0:0:
328,208,17727,2,0,P|376:200|416:208,1,80
272,288,18304,5,0,0:0:0:0:
248,256,18448,1,0,0:0:0:0:
240,216,18592,1,0,0:0:0:0:
248,176,18737,1,0,0:0:0:0:
264,136,18881,6,0,P|216:104|176:104,1,80,8|0,0:0|0:0,0:0:0:0:
0,192,19458,2,0,P|40:216|88:208,1,80
320,216,20035,5,0,0:0:0:0:
512,96,20323,1,0,0:0:0:0:
440,32,20612,2,0,L|408:128,1,80
288,368,21188,2,0,L|320:280,1,80
344,200,21765,1,0,0:0:0:0:
272,136,22054,1,0,0:0:0:0:
272,136,22198,1,0,0:0:0:0:
272,136,22342,2,0,P|208:144|168:120,1,80
0,64,22919,2,0,P|64:56|96:64,1,80
104,152,23496,6,0,L|72:248,1,80,0|0,0:0|0:0,0:0:0:0:
192,360,24073,2,0,L|216:272,1,80
288,224,24650,5,0,0:0:0:0:
376,184,24938,1,0,0:0:0:0:
472,200,25227,1,0,0:0:0:0:
512,288,25515,2,0,L|480:368,1,80,4|0,0:0|0:0,0:0:0:0:
376,184,26092,2,0,L|416:96,1,80
344,32,26669,5,0,0:0:0:0:
344,32,26813,1,0,0:0:0:0:
344,32,26958,2,0,P|288:24|232:48,1,80
104,96,27535,2,0,L|160:88,1,40,8|0,0:0|0:0,0:0:0:0:
156,193,27823,2,0,L|192:176,2,40,0|0|4,0:0|0:0|0:0,0:0:0:0:
88,304,28400,5,0,0:0:0:0:
128,320,28544,1,0,0:0:0:0:
168,328,28688,1,0,0:0:0:0:
376,288,28977,1,0,0:0:0:0:
344,272,29121,1,0,0:0:0:0:
304,264,29265,1,0,0:0:0:0:
200,208,29554,6,0,L|240:128,1,80
408,48,30131,2,0,L|360:152,1,80
376,232,30708,1,0,0:0:0:0:
376,232,30996,1,0,0:0:0:0:
280,288,31285,5,0,0:0:0:0:
280,288,31429,1,0,0:0:0:0:
280,288,31573,2,0,P|352:320|384:312,1,80
504,192,32150,2,0,P|472:168|416:152,1,80
320,56,32727,1,0,0:0:0:0:
256,144,33015,5,0,0:0:0:0:
240,176,33160,1,0,0:0:0:0:
224,208,33304,1,0,0:0:0:0:
56,320,33592,1,0,0:0:0:0:
80,288,33737,1,0,0:0:0:0:
104,256,33881,1,0,0:0:0:0:
144,160,34169,6,0,P|96:160|48:136,1,80
192,48,34746,2,0,P|240:48|280:64,1,80
408,192,35323,2,0,P|448:168|472:120,1,80
328,144,35900,1,0,0:0:0:0:
304,176,36044,1,0,0:0:0:0:
280,208,36188,1,0,0:0:0:0:
224,304,36477,1,0,0:0:0:0:
56,224,36765,5,0,0:0:0:0:
56,224,36910,1,0,0:0:0:0:
56,224,37054,2,0,L|160:208,1,80,0|8,0:0|0:0,0:0:0:0:
224,120,37631,5,0,0:0:0:0:
257,140,37775,1,0,0:0:0:0:
275,176,37919,1,0,0:0:0:0:
291,212,38063,1,0,0:0:0:0:
318,241,38207,1,0,0:0:0:0:
350,240,38352,1,0,0:0:0:0:
350,240,38496,6,0,P|400:224|440:224,1,80
416,352,39073,2,0,P|344:368|320:368,1,80
216,328,39650,1,8,0:0:0:0:
40,280,39938,2,0,P|88:264|144:264,1,80,0|8,0:0|0:0,0:0:0:0:
256,176,40515,1,0,0:0:0:0:
256,176,40660,1,0,0:0:0:0:
256,176,40804,1,8,0:0:0:0:
104,344,41092,5,0,0:0:0:0:
72,136,41381,1,0,0:0:0:0:
160,96,41669,2,0,P|224:88|256:96,1,80,0|8,0:0|0:0,0:0:0:0:
440,144,42246,2,0,L|384:120,1,40
368,120,42535,1,0,0:0:0:0:
240,176,42823,2,0,L|312:200,1,40
312,200,43112,1,0,0:0:0:0:
480,296,43400,6,0,P|408:312|384:304,1,80
328,288,43977,1,0,0:0:0:0:
192,80,44265,1,0,0:0:0:0:
208,336,44554,2,0,L|192:248,1,80
112,192,45131,1,0,0:0:0:0:
152,176,45275,1,0,0:0:0:0:
192,168,45419,1,0,0:0:0:0:
320,160,45708,5,4,0:0:0:0:
464,256,45996,1,0,0:0:0:0:
432,280,46140,1,0,0:0:0:0:
392,288,46285,1,0,0:0:0:0:
352,288,46429,1,0,0:0:0:0:
312,272,46573,6,0,L|272:328,1,40
184,320,46862,2,0,L|216:272,1,40
152,208,47150,2,0,L|112:264,1,40
104,272,47438,1,0,0:0:0:0:
144,112,47727,5,8,0:0:0:0:
144,112,47823,1,0,0:0:0:0:
144,112,47919,1,0,0:0:0:0:
144,112,48015,2,0,L|184:120,1,40
312,56,48304,2,0,L|264:80,1,40,8|0,0:0|0:0,0:0:0:0:
272,168,48592,5,0,0:0:0:0:
272,168,48737,1,0,0:0:0:0:
272,168,48881,2,0,P|344:160|376:160,1,80,8|0,0:0|0:0,0:0:0:0:
496,280,49458,2,0,P|424:288|392:288,1,80,8|0,0:0|0:0,0:0:0:0:
304,288,50035,1,8,0:0:0:0:
114,273,50323,2,0,P|153:267|192:256,1,80,0|8,0:0|0:0,0:0:0:0:
272,168,50900,5,0,0:0:0:0:
272,168,51044,1,0,0:0:0:0:
272,168,51188,2,0,L|296:80,1,80,8|0,0:0|0:0,0:0:0:0:
448,56,51765,2,0,L|424:144,1,80,8|0,0:0|0:0,0:0:0:0:
416,280,52342,1,8,0:0:0:0:
328,312,52631,5,0,0:0:0:0:
328,312,52775,1,0,0:0:0:0:
328,312,52919,2,0,P|264:304|224:288,1,80,8|0,0:0|0:0,0:0:0:0:
80,200,53496,2,0,P|136:200|168:216,1,80,8|0,0:0|0:0,0:0:0:0:
248,240,54073,1,8,0:0:0:0:
112,280,54362,1,0,0:0:0:0:
184,112,54650,5,8,0:0:0:0:
280,96,54938,2,0,P|328:88|368:96,1,80,0|8,0:0|0:0,0:0:0:0:
480,208,55515,1,0,0:0:0:0:
440,216,55660,1,0,0:0:0:0:
400,208,55804,1,8,0:0:0:0:
288,184,56092,6,0,L|240:280,1,80
96,320,56669,2,0,L|152:216,1,80
176,168,57246,1,0,0:0:0:0:
264,40,57535,5,0,0:0:0:0:
264,40,57679,1,0,0:0:0:0:
264,40,57823,1,0,0:0:0:0:
288,216,58112,1,8,0:0:0:0:
384,200,58400,2,0,P|456:192|496:200,1,80,0|8,0:0|0:0,0:0:0:0:
448,320,58977,1,0,0:0:0:0:
352,336,59265,2,0,P|288:344|264:336,1,80,8|0,0:0|0:0,0:0:0:0:
272,160,59842,5,8,0:0:0:0:
264,200,59986,1,0,0:0:0:0:
256,240,60131,1,0,0:0:0:0:
288,56,60419,2,0,P|344:48|384:56,1,80,8|0,0:0|0:0,0:0:0:0:
432,128,60996,2,0,L|408:216,1,80,8|0,0:0|0:0,0:0:0:0:
232,320,61573,2,0,L|256:232,1,80,8|0,0:0|0:0,0:0:0:0:
240,144,62150,5,8,0:0:0:0:
144,120,62438,1,0,0:0:0:0:
48,144,62727,1,8,0:0:0:0:
72,240,63015,2,0,P|136:256|176:248,1,80,0|8,0:0|0:0,0:0:0:0:
320,152,63592,2,0,P|264:144|208:152,1,80,0|8,0:0|0:0,0:0:0:0:
288,248,64169,2,0,P|352:264|392:256,1,80,0|8,0:0|0:0,0:0:0:0:
448,216,64746,5,0,0:0:0:0:
448,216,64890,1,0,0:0:0:0:
448,216,65035,1,8,0:0:0:0:
328,352,65323,1,0,0:0:0:0:
304,136,65612,1,8,0:0:0:0:
304,136,65756,1,0,0:0:0:0:
304,136,65900,1,0,0:0:0:0:
144,88,66188,5,8,0:0:0:0:
144,88,66285,1,0,0:0:0:0:
144,88,66381,1,0,0:0:0:0:
144,88,66477,2,0,L|88:88,1,40
0,176,66765,2,0,L|72:160,1,40,8|8,0:0|0:0,0:0:0:0:
144,200,67054,5,0,0:0:0:0:
144,200,67198,1,0,0:0:0:0:
144,200,67342,2,0,L|160:288,1,80,8|0,0:0|0:0,0:0:0:0:
240,328,67919,2,0,P|288:336|344:328,1,80,8|0,0:0|0:0,0:0:0:0:
512,248,68496,2,0,P|464:240|416:256,1,80,8|0,0:0|0:0,0:0:0:0:
319,333,69073,5,8,0:0:0:0:
344,240,69362,1,0,0:0:0:0:
344,240,69506,1,0,0:0:0:0:
344,240,69650,2,0,L|368:160,1,80,8|0,0:0|0:0,0:0:0:0:
368,128,70083,1,0,0:0:0:0:
352,96,70227,2,0,P|328:64|272:56,1,80,8|0,0:0|0:0,0:0:0:0:
120,96,70804,2,0,P|168:120|224:120,1,80,8|0,0:0|0:0,0:0:0:0:
288,120,71381,5,8,0:0:0:0:
232,320,71669,1,0,0:0:0:0:
232,320,71813,1,0,0:0:0:0:
232,320,71958,2,0,L|264:232,1,80,8|0,0:0|0:0,0:0:0:0:
208,56,72535,2,0,L|168:144,1,80,8|0,0:0|0:0,0:0:0:0:
112,272,73112,5,8,0:0:0:0:
192,216,73400,1,0,0:0:0:0:
288,200,73688,2,0,P|328:192|384:200,1,80,8|0,0:0|0:0,0:0:0:0:
512,312,74265,2,0,P|448:320|416:312,1,80,8|0,0:0|0:0,0:0:0:0:
344,272,74842,1,8,0:0:0:0:
296,104,75131,1,0,0:0:0:0:
96,208,75419,5,0,0:0:0:0:
96,208,75708,1,0,0:0:0:0:
192,240,75996,2,0,L|232:232,1,40,8|0,0:0|0:0,0:0:0:0:
349,171,76285,2,0,L|312:184,1,40
360,88,76573,2,0,P|400:112|424:144,1,80,8|0,0:0|0:0,0:0:0:0:
408,288,77150,1,8,0:0:0:0:
408,288,77294,1,0,0:0:0:0:
408,288,77438,1,0,0:0:0:0:
272,320,77727,5,2,0:0:0:0:
232,320,77871,1,0,0:0:0:0:
192,312,78015,1,0,0:0:0:0:
21,251,78304,5,0,0:0:0:0:
57,235,78448,1,0,0:0:0:0:
97,230,78592,1,0,0:0:0:0:
136,240,78737,1,0,0:0:0:0:
136,240,78881,6,0,L|168:160,1,80,0|0,0:0|0:0,0:0:0:0:
232,96,79458,6,0,L|272:88,1,40,8|0,0:0|0:0,0:0:0:0:
320,24,79746,2,0,P|352:96|352:112,1,80,0|8,0:0|0:0,0:0:0:0:
328,192,80323,2,0,P|376:208|424:200,1,80
360,296,80900,1,0,0:0:0:0:
360,296,81044,1,0,0:0:0:0:
360,296,81188,2,0,P|272:312|176:280,1,160,8|8,0:0|0:0,0:0:0:0:
40,72,82054,6,0,P|112:64|144:80,1,80
192,144,82631,2,0,L|170:221,1,80
240,56,83208,1,0,0:0:0:0:
240,56,83496,2,0,P|328:40|400:64,1,160,2|8,0:0|0:0,0:0:0:0:
400,168,84362,5,0,0:0:0:0:
400,168,84506,1,0,0:0:0:0:
400,168,84650,2,0,L|376:208,1,26.6666666666667,8|0,0:0|0:0,0:0:0:0:
280,232,84842,2,0,L|304:192,1,26.6666666666667
288,168,85083,1,0,0:0:0:0:
256,144,85227,1,8,0:0:0:0:
218,131,85371,1,0,0:0:0:0:
178,130,85515,5,0,0:0:0:0:
140,141,85659,1,0,0:0:0:0:
107,164,85804,1,4,0:0:0:0:
256,192,85948,12,0,88112,0:0:0:0:
