osu file format v13

[General]
AudioFilename: 38. (TV).mp3
AudioLeadIn: 0
PreviewTime: 48015
Countdown: 0
SampleSet: Normal
StackLeniency: 0.7
Mode: 0
LetterboxInBreaks: 0
WidescreenStoryboard: 0

[Editor]
DistanceSpacing: 1.4
BeatDivisor: 4
GridSize: 16
TimelineZoom: 2.9

[Metadata]
Title:Ichiban Boshi(TV Size)
TitleUnicode:いちばん星 (TV Size)
Artist:Risa Taneda, Aya Suzaki, Azusa Tadokoro, Mao Ichimichi
ArtistUnicode:種田 梨沙,綾 洲崎, 田所あずさ, 市道 真央
Creator:Tada
Version:Easy
Source:Brynhildr in the Darkness
Tags:極黒のブリュンヒルデ
BeatmapID:423498
BeatmapSetID:175260

[Difficulty]
HPDrainRate:3
CircleSize:3
OverallDifficulty:3
ApproachRate:3
SliderMultiplier:1.1
SliderTickRate:1

[Events]
//Background and Video events
0,0,"2.jpg",0,0
//Break Periods
//Storyboard Layer 0 (Background)
//Storyboard Layer 1 (Fail)
//Storyboard Layer 2 (Pass)
//Storyboard Layer 3 (Foreground)
//Storyboard Sound Samples
//Background Colour Transformations
3,100,163,162,255

[TimingPoints]
419.714285714286,576.923076923077,4,1,0,50,1,0
48881,-100,4,1,0,50,0,1
85804,-100,4,1,0,50,0,0
88112,-100,4,1,0,10,0,0

[Colours]
Combo1 : 56,158,214
Combo2 : 255,128,192
Combo3 : 170,170,255
Combo4 : 200,0,200
Combo5 : 128,0,255

[HitObjects]
192,96,419,6,0,P|256:80|304:96,1,110,2|0,0:0|0:0,0:0:0:0:
256,160,1573,2,0,L|208:272,1,110,2|0,0:0|0:0,0:0:0:0:
212,261,2438,1,0,0:0:0:0:
288,288,3015,6,0,P|352:304|400:272,1,110
464,256,3881,2,0,L|496:128,1,110,0|0,0:0|0:0,0:0:0:0:
432,96,5035,2,0,P|368:80|320:80,1,110,0|0,0:0|0:0,0:0:0:0:
320,160,6188,5,0,0:0:0:0:
336,240,6765,2,0,P|272:240|240:192,1,110,0|0,0:0|0:0,0:0:0:0:
224,128,7919,2,0,P|160:160|160:208,2,110,0|8|0,0:0|0:0|0:0,0:0:0:0:
304,112,9650,6,0,L|384:112|416:112,1,110,4|8,0:0|0:0,0:0:0:0:
480,160,10804,1,0,0:0:0:0:
464,240,11381,1,8,0:0:0:0:
384,256,11958,6,0,L|272:256,1,110,0|8,0:0|0:0,0:0:0:0:
208,208,13112,1,0,0:0:0:0:
192,128,13688,2,0,P|128:160|128:208,1,110,8|4,0:0|0:0,0:0:0:0:
144,272,14842,6,0,P|96:272|48:224,1,110,8|0,0:0|0:0,0:0:0:0:
16,160,15996,1,8,0:0:0:0:
96,144,16573,1,0,0:0:0:0:
176,160,17150,6,0,L|256:160,2,55,8|0|4,0:0|0:0|0:0,0:0:0:0:
192,80,18304,2,0,P|256:64|304:96,1,110,8|4,0:0|0:0,0:0:0:0:
320,160,19458,1,8,0:0:0:0:
336,240,20035,6,0,L|224:304,1,110,0|8,0:0|0:0,0:0:0:0:
160,288,21188,2,0,P|128:224|160:176,1,110,0|8,0:0|0:0,0:0:0:0:
128,112,22342,1,0,0:0:0:0:
208,128,22919,5,8,0:0:0:0:
288,112,23496,1,0,0:0:0:0:
368,128,24073,2,0,P|416:176|416:240,1,110,8|8,0:0|0:0,0:0:0:0:
384,288,25227,6,0,L|272:240,1,110,0|8,0:0|0:0,0:0:0:0:
240,176,26381,2,0,P|192:224|192:272,1,110,0|8,0:0|0:0,0:0:0:0:
112,288,27535,2,0,P|160:336|224:336,1,110,0|8,0:0|0:0,0:0:0:0:
272,304,28688,5,0,0:0:0:0:
288,224,29265,2,0,L|336:112,1,110,8|0,0:0|0:0,0:0:0:0:
400,80,30419,1,8,0:0:0:0:
336,32,30996,6,0,P|272:48|240:80,1,110,0|8,0:0|0:0,0:0:0:0:
176,128,32150,1,0,0:0:0:0:
256,144,32727,1,8,0:0:0:0:
336,128,33304,6,0,P|400:112|448:112,2,110,0|8|0,0:0|0:0|0:0,0:0:0:0:
320,208,35035,2,0,P|256:224|208:208,1,110,8|0,0:0|0:0,0:0:0:0:
144,176,36188,1,0,0:0:0:0:
80,128,36765,5,8,0:0:0:0:
128,64,37342,2,0,P|192:48|256:64,1,110,0|8,0:0|0:0,0:0:0:0:
304,96,38496,2,0,L|272:208,1,110,0|8,0:0|0:0,0:0:0:0:
352,224,39650,6,0,P|320:288|272:304,1,110,0|8,0:0|0:0,0:0:0:0:
208,288,40804,1,0,0:0:0:0:
128,272,41381,2,0,P|144:208|112:160,1,110,8|0,0:0|0:0,0:0:0:0:
64,224,42535,5,8,0:0:0:0:
48,144,43112,1,0,0:0:0:0:
64,64,43688,1,8,0:0:0:0:
144,48,44265,6,0,P|224:32|256:48,1,110,0|8,0:0|0:0,0:0:0:0:
320,80,45419,1,0,0:0:0:0:
400,96,45996,1,8,0:0:0:0:
416,176,46573,6,0,L|448:240,2,55,0|0|8,0:0|0:0|0:0,0:0:0:0:
432,96,47727,2,0,P|368:80|320:80,1,110,0|8,0:0|0:0,0:0:0:0:
336,160,48881,1,4,0:0:0:0:
320,240,49458,2,0,P|240:240|208:224,1,110,8|0,0:0|0:0,0:0:0:0:
160,288,50612,6,0,P|128:304|96:304,2,55,0|0|8,0:0|0:0|0:0,0:0:0:0:
144,208,51765,2,0,P|160:144|208:96,1,110,0|8,0:0|0:0,0:0:0:0:
240,48,52919,1,8,0:0:0:0:
320,64,53496,2,0,P|400:48|432:64,1,110,8|0,0:0|0:0,0:0:0:0:
384,128,54650,6,0,L|352:256,1,110,0|8,0:0|0:0,0:0:0:0:
400,304,55804,1,0,0:0:0:0:
320,320,56381,1,8,0:0:0:0:
240,304,56958,5,0,0:0:0:0:
160,288,57535,2,0,P|112:240|112:176,1,110,8|0,0:0|0:0,0:0:0:0:
176,160,58688,2,0,P|144:112|96:96,2,110,8|0|8,0:0|0:0|0:0,0:0:0:0:
256,176,60419,6,0,P|320:160|384:176,1,110,0|8,0:0|0:0,0:0:0:0:
432,208,61573,1,0,0:0:0:0:
448,288,62150,1,8,0:0:0:0:
384,336,62727,6,0,P|320:352|256:336,1,110,0|8,0:0|0:0,0:0:0:0:
240,272,63881,2,0,L|272:160,1,110,0|8,0:0|0:0,0:0:0:0:
352,160,65035,2,0,P|336:112|288:80,1,110,0|8,0:0|0:0,0:0:0:0:
208,96,66188,6,0,L|160:144,2,55,0|0|8,0:0|0:0|0:0,0:0:0:0:
288,80,67342,2,0,P|352:64|400:80,1,110,0|8,0:0|0:0,0:0:0:0:
464,112,68496,1,0,0:0:0:0:
416,176,69073,6,0,L|352:272,1,110,8|0,0:0|0:0,0:0:0:0:
400,336,70227,1,8,0:0:0:0:
320,336,70804,2,0,P|256:336|224:288,1,110,0|8,0:0|0:0,0:0:0:0:
224,224,71958,5,0,0:0:0:0:
288,176,72535,1,8,0:0:0:0:
368,160,73112,2,0,P|336:112|288:96,1,110,0|8,0:0|0:0,0:0:0:0:
208,96,74265,6,0,P|144:112|112:160,1,110,0|8,0:0|0:0,0:0:0:0:
192,176,75419,1,0,0:0:0:0:
256,224,75996,2,0,P|320:208|384:224,1,110,0|8,0:0|0:0,0:0:0:0:
432,256,77150,6,0,L|480:144,1,110,0|8,0:0|0:0,0:0:0:0:
448,80,78304,1,0,0:0:0:0:
368,64,78881,2,0,P|304:48|240:64,1,110,8|0,0:0|0:0,0:0:0:0:
192,96,80035,5,8,0:0:0:0:
144,160,80612,2,8,P|208:208|256:208,1,110,0|0,0:0|0:0,0:0:0:0:
304,256,81765,1,0,0:0:0:0:
320,176,82342,6,0,P|400:160|432:176,1,110,8|0,0:0|0:0,0:0:0:0:
496,208,83496,1,8,0:0:0:0:
448,272,84073,1,0,0:0:0:0:
368,288,84650,5,8,0:0:0:0:
304,336,85227,2,0,B|272:336|256:336|240:320,1,55
256,192,85804,12,0,88112,0:0:0:0:
