osu file format v13

[General]
AudioFilename: Hashiru Sekai.mp3
AudioLeadIn: 0
PreviewTime: 68350
Countdown: 0
SampleSet: Normal
StackLeniency: 0.7
Mode: 1
LetterboxInBreaks: 0
WidescreenStoryboard: 0

[Editor]
Bookmarks: 45960
DistanceSpacing: 1.1
BeatDivisor: 4
GridSize: 4
TimelineZoom: 1

[Metadata]
Title:Hashiru Sekai to Bokura no Mirai (short version)
TitleUnicode:疾るセカイと僕らのミライ (short version)
Artist:Riryka
ArtistUnicode:Riryka
Creator:Charlotte
Version:Oni
Source:The planeta in the future world
Tags:visual novel Mirai Sekai no Planeta Nardoxyribonucleic
BeatmapID:433541
BeatmapSetID:180428

[Difficulty]
HPDrainRate:5
CircleSize:4
OverallDifficulty:5
ApproachRate:7
SliderMultiplier:1.4
SliderTickRate:1

[Events]
//Background and Video events
0,0,"BG.jpg",0,120
//Break Periods
//Storyboard Layer 0 (Background)
//Storyboard Layer 1 (Fail)
//Storyboard Layer 2 (Pass)
//Storyboard Layer 3 (Foreground)
//Storyboard Sound Samples
//Background Colour Transformations
3,100,163,162,255

[TimingPoints]
4360,400,4,1,0,50,1,0
17160,-100,4,1,0,65,0,0
29960,-100,4,1,0,80,0,0
68360,-100,4,1,0,90,0,1
93960,-100,4,1,0,80,0,0
106760,-100,4,1,0,40,0,0
107560,-100,4,1,0,30,0,0
108360,-100,4,1,0,20,0,0
109160,-100,4,1,0,10,0,0
109960,-100,4,1,0,5,0,0

[HitObjects]
256,192,4360,5,2,0:0:0:0:
256,192,5960,1,0,0:0:0:0:
256,192,6760,1,2,0:0:0:0:
256,192,7560,1,0,0:0:0:0:
256,192,9160,1,2,0:0:0:0:
256,192,10760,1,2,0:0:0:0:
256,192,12360,1,0,0:0:0:0:
256,192,13160,1,2,0:0:0:0:
256,192,13560,1,0,0:0:0:0:
256,192,13960,1,2,0:0:0:0:
256,192,15560,1,0,0:0:0:0:
256,192,17160,1,4,0:0:0:0:
256,192,17960,1,0,0:0:0:0:
256,192,18760,1,2,0:0:0:0:
256,192,19560,1,2,0:0:0:0:
256,192,20360,1,0,0:0:0:0:
256,192,21960,1,0,0:0:0:0:
256,192,22160,1,2,0:0:0:0:
256,192,22360,1,2,0:0:0:0:
256,192,22560,1,0,0:0:0:0:
256,192,22960,1,2,0:0:0:0:
256,192,23160,1,0,0:0:0:0:
256,192,23360,1,0,0:0:0:0:
256,192,23560,1,2,0:0:0:0:
256,192,24360,1,0,0:0:0:0:
256,192,25160,1,0,0:0:0:0:
256,192,25960,1,2,0:0:0:0:
256,192,26360,1,0,0:0:0:0:
256,192,26760,1,0,0:0:0:0:
256,192,27760,1,0,0:0:0:0:
256,192,27960,1,0,0:0:0:0:
256,192,28160,1,2,0:0:0:0:
256,192,28360,12,0,29760,0:0:0:0:
256,192,29960,5,4,0:0:0:0:
256,192,30160,1,0,0:0:0:0:
256,192,30260,1,0,0:0:0:0:
256,192,30360,1,2,0:0:0:0:
256,192,30560,1,0,0:0:0:0:
256,192,30960,1,2,0:0:0:0:
256,192,31160,1,0,0:0:0:0:
256,192,31360,1,2,0:0:0:0:
256,192,31560,1,0,0:0:0:0:
256,192,31760,1,0,0:0:0:0:
256,192,31860,1,0,0:0:0:0:
256,192,31960,1,2,0:0:0:0:
256,192,32160,1,0,0:0:0:0:
256,192,32360,1,2,0:0:0:0:
256,192,32760,1,2,0:0:0:0:
256,192,33160,1,2,0:0:0:0:
256,192,33360,1,0,0:0:0:0:
256,192,33460,1,0,0:0:0:0:
256,192,33560,1,0,0:0:0:0:
256,192,33760,1,2,0:0:0:0:
256,192,34160,1,2,0:0:0:0:
256,192,34360,1,0,0:0:0:0:
256,192,34560,1,2,0:0:0:0:
256,192,34760,1,0,0:0:0:0:
256,192,34960,1,2,0:0:0:0:
256,192,35060,1,2,0:0:0:0:
256,192,35160,1,2,0:0:0:0:
256,192,35360,1,0,0:0:0:0:
256,192,35560,1,2,0:0:0:0:
256,192,35960,1,2,0:0:0:0:
256,192,36360,1,0,0:0:0:0:
256,192,36560,1,2,0:0:0:0:
256,192,36660,1,2,0:0:0:0:
256,192,36760,1,0,0:0:0:0:
256,192,36960,1,2,0:0:0:0:
256,192,37360,1,2,0:0:0:0:
256,192,37560,1,0,0:0:0:0:
256,192,37760,1,2,0:0:0:0:
256,192,37960,1,2,0:0:0:0:
256,192,38160,1,0,0:0:0:0:
256,192,38260,1,0,0:0:0:0:
256,192,38360,1,2,0:0:0:0:
256,192,38560,1,0,0:0:0:0:
256,192,38760,1,2,0:0:0:0:
256,192,39160,1,2,0:0:0:0:
256,192,39560,1,0,0:0:0:0:
256,192,39760,1,2,0:0:0:0:
256,192,39860,1,2,0:0:0:0:
256,192,39960,1,2,0:0:0:0:
256,192,40160,1,0,0:0:0:0:
256,192,40560,1,2,0:0:0:0:
256,192,40960,1,4,0:0:0:0:
256,192,41360,1,2,0:0:0:0:
256,192,41560,1,2,0:0:0:0:
256,192,41760,1,4,0:0:0:0:
256,192,42160,1,0,0:0:0:0:
256,192,42360,1,6,0:0:0:0:
256,192,42760,1,4,0:0:0:0:
256,192,42960,1,0,0:0:0:0:
256,192,43060,1,0,0:0:0:0:
256,192,43160,1,2,0:0:0:0:
256,192,43360,1,0,0:0:0:0:
256,192,43760,1,2,0:0:0:0:
256,192,43960,1,0,0:0:0:0:
256,192,44160,1,2,0:0:0:0:
256,192,44360,1,0,0:0:0:0:
256,192,44560,1,0,0:0:0:0:
256,192,44660,1,0,0:0:0:0:
256,192,44760,1,2,0:0:0:0:
256,192,44960,1,0,0:0:0:0:
256,192,45160,1,2,0:0:0:0:
256,192,45560,1,2,0:0:0:0:
256,192,45960,1,0,0:0:0:0:
256,192,46160,1,2,0:0:0:0:
256,192,46260,1,2,0:0:0:0:
256,192,46360,1,2,0:0:0:0:
256,192,46560,1,0,0:0:0:0:
256,192,46960,1,2,0:0:0:0:
256,192,47160,1,0,0:0:0:0:
256,192,47360,1,2,0:0:0:0:
256,192,47560,1,0,0:0:0:0:
256,192,47760,1,2,0:0:0:0:
256,192,47860,1,2,0:0:0:0:
256,192,47960,1,0,0:0:0:0:
256,192,48160,1,2,0:0:0:0:
256,192,48360,1,0,0:0:0:0:
256,192,48760,1,2,0:0:0:0:
256,192,49160,1,0,0:0:0:0:
256,192,49360,1,0,0:0:0:0:
256,192,49460,1,0,0:0:0:0:
256,192,49560,1,2,0:0:0:0:
256,192,49760,1,0,0:0:0:0:
256,192,50160,1,2,0:0:0:0:
256,192,50360,1,0,0:0:0:0:
256,192,50560,1,2,0:0:0:0:
256,192,50760,1,0,0:0:0:0:
256,192,50960,1,2,0:0:0:0:
256,192,51060,1,0,0:0:0:0:
256,192,51160,1,2,0:0:0:0:
256,192,51360,1,2,0:0:0:0:
256,192,51560,1,0,0:0:0:0:
256,192,51960,1,2,0:0:0:0:
256,192,52360,1,0,0:0:0:0:
256,192,52560,1,2,0:0:0:0:
256,192,52660,1,2,0:0:0:0:
256,192,52760,1,2,0:0:0:0:
256,192,52960,1,0,0:0:0:0:
256,192,53360,1,2,0:0:0:0:
256,192,53760,1,4,0:0:0:0:
256,192,54160,1,2,0:0:0:0:
256,192,54360,1,0,0:0:0:0:
256,192,54560,1,4,0:0:0:0:
256,192,54960,1,2,0:0:0:0:
256,192,55160,1,2,0:0:0:0:
256,192,55260,1,2,0:0:0:0:
256,192,55360,1,0,0:0:0:0:
256,192,55460,1,0,0:0:0:0:
256,192,55560,1,2,0:0:0:0:
256,192,55760,1,2,0:0:0:0:
256,192,55960,1,0,0:0:0:0:
256,192,56160,1,2,0:0:0:0:
256,192,56560,1,2,0:0:0:0:
256,192,56760,1,2,0:0:0:0:
256,192,56960,1,0,0:0:0:0:
256,192,57360,1,2,0:0:0:0:
256,192,57460,1,2,0:0:0:0:
256,192,57560,1,2,0:0:0:0:
256,192,57760,1,0,0:0:0:0:
256,192,58160,1,0,0:0:0:0:
256,192,58360,1,2,0:0:0:0:
256,192,58560,1,2,0:0:0:0:
256,192,58660,1,2,0:0:0:0:
256,192,58760,1,0,0:0:0:0:
256,192,59160,1,2,0:0:0:0:
256,192,59360,1,0,0:0:0:0:
256,192,59460,1,0,0:0:0:0:
256,192,59560,1,0,0:0:0:0:
256,192,59960,1,2,0:0:0:0:
256,192,60160,1,0,0:0:0:0:
256,192,60260,1,0,0:0:0:0:
256,192,60360,1,2,0:0:0:0:
256,192,60560,1,0,0:0:0:0:
256,192,60760,1,2,0:0:0:0:
256,192,60960,1,0,0:0:0:0:
256,192,61360,1,0,0:0:0:0:
256,192,61560,1,2,0:0:0:0:
256,192,61760,1,0,0:0:0:0:
256,192,61960,1,4,0:0:0:0:
256,192,62160,1,0,0:0:0:0:
256,192,62360,1,2,0:0:0:0:
256,192,62560,1,2,0:0:0:0:
256,192,62960,1,0,0:0:0:0:
256,192,63160,1,2,0:0:0:0:
256,192,63360,1,2,0:0:0:0:
256,192,63460,1,2,0:0:0:0:
256,192,63560,1,0,0:0:0:0:
256,192,63760,1,0,0:0:0:0:
256,192,63960,1,2,0:0:0:0:
256,192,64160,1,0,0:0:0:0:
256,192,64560,1,0,0:0:0:0:
256,192,64760,1,2,0:0:0:0:
256,192,64960,1,0,0:0:0:0:
256,192,65160,1,2,0:0:0:0:
256,192,65260,1,2,0:0:0:0:
256,192,65360,1,0,0:0:0:0:
256,192,65460,1,0,0:0:0:0:
256,192,65560,1,2,0:0:0:0:
256,192,65760,1,0,0:0:0:0:
256,192,65960,1,2,0:0:0:0:
256,192,66160,1,2,0:0:0:0:
256,192,66260,1,2,0:0:0:0:
256,192,66360,1,2,0:0:0:0:
256,192,66560,1,4,0:0:0:0:
256,192,66960,1,0,0:0:0:0:
256,192,67160,1,0,0:0:0:0:
256,192,67360,1,6,0:0:0:0:
256,192,67760,1,6,0:0:0:0:
256,192,68360,1,4,0:0:0:0:
256,192,68560,1,0,0:0:0:0:
256,192,68660,1,0,0:0:0:0:
256,192,68760,1,2,0:0:0:0:
256,192,68960,1,0,0:0:0:0:
256,192,69160,1,0,0:0:0:0:
256,192,69360,1,0,0:0:0:0:
256,192,69460,1,0,0:0:0:0:
256,192,69560,1,2,0:0:0:0:
256,192,69760,1,0,0:0:0:0:
256,192,69960,1,2,0:0:0:0:
256,192,70060,1,2,0:0:0:0:
256,192,70160,1,0,0:0:0:0:
256,192,70260,1,0,0:0:0:0:
256,192,70360,1,2,0:0:0:0:
256,192,70560,1,0,0:0:0:0:
256,192,70960,1,0,0:0:0:0:
256,192,71160,1,2,0:0:0:0:
256,192,71360,1,0,0:0:0:0:
256,192,71560,1,0,0:0:0:0:
256,192,71660,1,2,0:0:0:0:
256,192,71760,1,0,0:0:0:0:
256,192,71860,1,0,0:0:0:0:
256,192,71960,1,2,0:0:0:0:
256,192,72160,1,0,0:0:0:0:
256,192,72360,1,2,0:0:0:0:
256,192,72560,1,2,0:0:0:0:
256,192,72660,1,2,0:0:0:0:
256,192,72760,1,2,0:0:0:0:
256,192,72960,1,0,0:0:0:0:
256,192,73160,1,2,0:0:0:0:
256,192,73260,1,0,0:0:0:0:
256,192,73360,1,0,0:0:0:0:
256,192,73460,1,0,0:0:0:0:
256,192,73560,1,2,0:0:0:0:
256,192,73760,1,0,0:0:0:0:
256,192,74160,1,0,0:0:0:0:
256,192,74360,1,0,0:0:0:0:
256,192,74560,1,2,0:0:0:0:
256,192,74660,1,0,0:0:0:0:
256,192,74760,1,2,0:0:0:0:
256,192,75160,1,0,0:0:0:0:
256,192,75260,1,0,0:0:0:0:
256,192,75360,1,2,0:0:0:0:
256,192,75560,1,0,0:0:0:0:
256,192,75760,1,2,0:0:0:0:
256,192,75960,1,2,0:0:0:0:
256,192,76160,1,0,0:0:0:0:
256,192,76260,1,2,0:0:0:0:
256,192,76360,1,0,0:0:0:0:
256,192,76760,1,2,0:0:0:0:
256,192,76960,1,0,0:0:0:0:
256,192,77360,1,0,0:0:0:0:
256,192,77560,1,2,0:0:0:0:
256,192,77760,1,0,0:0:0:0:
256,192,77860,1,0,0:0:0:0:
256,192,77960,1,2,0:0:0:0:
256,192,78160,1,0,0:0:0:0:
256,192,78360,1,2,0:0:0:0:
256,192,78560,1,2,0:0:0:0:
256,192,78660,1,2,0:0:0:0:
256,192,78760,1,0,0:0:0:0:
256,192,78960,1,2,0:0:0:0:
256,192,79160,1,2,0:0:0:0:
256,192,79360,12,0,80760,0:0:0:0:
256,192,81160,5,4,0:0:0:0:
256,192,81360,1,0,0:0:0:0:
256,192,81460,1,0,0:0:0:0:
256,192,81560,1,2,0:0:0:0:
256,192,81760,1,2,0:0:0:0:
256,192,81960,1,0,0:0:0:0:
256,192,82060,1,0,0:0:0:0:
256,192,82160,1,2,0:0:0:0:
256,192,82360,1,2,0:0:0:0:
256,192,82560,1,0,0:0:0:0:
256,192,82760,1,2,0:0:0:0:
256,192,82860,1,2,0:0:0:0:
256,192,82960,1,0,0:0:0:0:
256,192,83060,1,0,0:0:0:0:
256,192,83160,1,2,0:0:0:0:
256,192,83360,1,0,0:0:0:0:
256,192,83760,1,0,0:0:0:0:
256,192,83960,1,2,0:0:0:0:
256,192,84160,1,0,0:0:0:0:
256,192,84360,1,0,0:0:0:0:
256,192,84460,1,2,0:0:0:0:
256,192,84560,1,0,0:0:0:0:
256,192,84660,1,0,0:0:0:0:
256,192,84760,1,2,0:0:0:0:
256,192,84960,1,0,0:0:0:0:
256,192,85160,1,2,0:0:0:0:
256,192,85260,1,0,0:0:0:0:
256,192,85360,1,0,0:0:0:0:
256,192,85560,1,2,0:0:0:0:
256,192,85760,1,0,0:0:0:0:
256,192,85960,1,2,0:0:0:0:
256,192,86060,1,0,0:0:0:0:
256,192,86160,1,0,0:0:0:0:
256,192,86260,1,0,0:0:0:0:
256,192,86360,1,2,0:0:0:0:
256,192,86560,1,0,0:0:0:0:
256,192,86960,1,0,0:0:0:0:
256,192,87160,1,2,0:0:0:0:
256,192,87360,1,0,0:0:0:0:
256,192,87460,1,2,0:0:0:0:
256,192,87560,1,0,0:0:0:0:
256,192,87960,1,2,0:0:0:0:
256,192,88160,1,0,0:0:0:0:
256,192,88360,1,0,0:0:0:0:
256,192,88460,1,0,0:0:0:0:
256,192,88560,1,2,0:0:0:0:
256,192,88760,1,0,0:0:0:0:
256,192,88960,1,2,0:0:0:0:
256,192,89060,1,0,0:0:0:0:
256,192,89160,1,2,0:0:0:0:
256,192,89560,1,2,0:0:0:0:
256,192,89760,1,0,0:0:0:0:
256,192,90160,1,0,0:0:0:0:
256,192,90360,1,2,0:0:0:0:
256,192,90560,1,0,0:0:0:0:
256,192,90660,1,0,0:0:0:0:
256,192,90760,1,2,0:0:0:0:
256,192,90960,1,0,0:0:0:0:
256,192,91160,1,2,0:0:0:0:
256,192,91360,1,2,0:0:0:0:
256,192,91460,1,2,0:0:0:0:
256,192,91560,1,0,0:0:0:0:
256,192,91760,1,0,0:0:0:0:
256,192,91960,1,2,0:0:0:0:
256,192,92060,1,2,0:0:0:0:
256,192,92160,1,0,0:0:0:0:
256,192,92260,1,0,0:0:0:0:
256,192,92360,1,2,0:0:0:0:
256,192,92760,1,0,0:0:0:0:
256,192,92960,1,2,0:0:0:0:
256,192,93060,1,2,0:0:0:0:
256,192,93160,1,0,0:0:0:0:
256,192,93360,1,0,0:0:0:0:
256,192,93560,1,2,0:0:0:0:
256,192,93960,12,0,96760,0:0:0:0:
256,192,97160,5,0,0:0:0:0:
256,192,97560,1,2,0:0:0:0:
256,192,97960,1,0,0:0:0:0:
256,192,98160,1,0,0:0:0:0:
256,192,98360,1,2,0:0:0:0:
256,192,98760,1,0,0:0:0:0:
256,192,98960,1,2,0:0:0:0:
256,192,99060,1,2,0:0:0:0:
256,192,99160,1,2,0:0:0:0:
256,192,99360,1,0,0:0:0:0:
256,192,99760,1,0,0:0:0:0:
256,192,99960,1,2,0:0:0:0:
256,192,100160,1,2,0:0:0:0:
256,192,100360,1,4,0:0:0:0:
256,192,100760,1,2,0:0:0:0:
256,192,101160,1,0,0:0:0:0:
256,192,101560,1,2,0:0:0:0:
256,192,101960,1,0,0:0:0:0:
256,192,102760,1,2,0:0:0:0:
256,192,103160,1,0,0:0:0:0:
256,192,103560,1,0,0:0:0:0:
256,192,104560,1,0,0:0:0:0:
256,192,104760,1,0,0:0:0:0:
256,192,104960,1,6,0:0:0:0:
256,192,105360,1,0,0:0:0:0:
256,192,105560,1,2,0:0:0:0:
256,192,105760,1,4,0:0:0:0:
256,192,106160,1,2,0:0:0:0:
256,192,106360,1,2,0:0:0:0:
256,192,106460,1,2,0:0:0:0:
256,192,106560,1,2,0:0:0:0:
256,192,106660,1,2,0:0:0:0:
256,192,106760,1,2,0:0:0:0:
256,192,106960,12,0,109960,0:0:0:0:
