osu file format v12

[General]
AudioFilename: future.mp3
AudioLeadIn: 0
PreviewTime: 68338
Countdown: 0
SampleSet: Soft
StackLeniency: 0.7
Mode: 0
LetterboxInBreaks: 0

[Editor]
DistanceSpacing: 1
BeatDivisor: 4
GridSize: 4

[Metadata]
Title:Hashiru Sekai to Bokura no Mirai (Short Ver.)
TitleUnicode:疾るセカイと僕らのミライ (Short Ver.)
Artist:Riryka
ArtistUnicode:Riryka
Creator:alacat
Version:Easy
Source:The planeta in the future world
Tags:visual novel opening eroge hentai game angel note libre Guy cRyo[iceeicee] Meis Clauson Nyar Mirai Sekai no Planeta
BeatmapID:213748
BeatmapSetID:75697

[Difficulty]
HPDrainRate:2
CircleSize:3
OverallDifficulty:2
ApproachRate:3
SliderMultiplier:0.9
SliderTickRate:1

[Events]
//Background and Video events
0,0,"bg.jpg",0,0
Video,0,"op.avi"
//Break Periods
//Storyboard Layer 0 (Background)
//Storyboard Layer 1 (Fail)
//Storyboard Layer 2 (Pass)
//Storyboard Layer 3 (Foreground)
//Storyboard Sound Samples
//Background Colour Transformations
3,100,0,0,0

[TimingPoints]
4360,400,4,2,1,40,1,0
29960,-100,4,2,1,60,0,0
40760,-100,4,2,2,60,0,0
40960,-100,4,2,1,80,0,0
42760,-100,4,2,1,70,0,0
53560,-100,4,2,2,70,0,0
53760,-100,4,2,1,80,0,0
55560,-100,4,2,1,70,0,0
63960,-100,4,2,2,70,0,0
64060,-100,4,2,1,70,0,0
66360,-100,4,2,2,70,0,0
66560,-100,4,2,1,80,0,0
68360,-100,4,2,1,80,0,1
68760,-100,4,2,2,80,0,1
68860,-100,4,2,1,80,0,1
69560,-100,4,2,2,80,0,1
69660,-100,4,2,1,80,0,1
75160,-100,4,2,2,80,0,1
75260,-100,4,2,1,80,0,1
76760,-100,4,2,2,80,0,1
76860,-100,4,2,1,80,0,1
79160,-100,4,2,2,80,0,1
79360,-100,4,2,1,80,0,1
81060,-100,4,2,1,80,0,0
81160,-100,4,2,1,80,0,1
84760,-100,4,2,2,80,0,1
84860,-100,4,2,1,80,0,1
93960,-100,4,2,1,70,0,0
99160,-100,4,2,2,70,0,0
99260,-100,4,2,1,70,0,0
102360,-100,4,2,2,70,0,0
102460,-100,4,2,1,70,0,0
104760,-100,4,2,2,70,0,0
104960,-100,4,2,1,70,0,0
106760,-100,4,2,1,80,0,1
106860,-100,4,2,1,70,0,0
107560,-100,4,2,1,60,0,0
108360,-100,4,2,1,50,0,0
109160,-100,4,2,1,40,0,0
109960,-100,4,2,1,30,0,0
110760,-100,4,2,1,20,0,0
111560,-100,4,2,1,10,0,0
112960,-100,4,2,1,5,0,0

[Colours]
Combo1 : 255,172,89
Combo2 : 136,255,255
Combo3 : 119,255,153
Combo4 : 255,106,106

[HitObjects]
476,168,17160,2,0,B|452:264|348:284,1,180,4|2,0:0|0:0,0:0:0:0:
196,196,18760,2,0,B|220:100|324:80,1,180,2|2,0:0|0:0,0:0:0:0:
476,168,20360,1,2,0:0:0:0:
128,256,21960,6,0,P|200:268|260:252,2,135,2|2|0,0:0|0:0|0:0,0:0:0:0:
44,220,23560,5,2,0:0:0:0:
216,160,24360,1,2,0:0:0:0:
164,332,25160,1,2,0:0:0:0:
340,292,25960,2,0,B|432:292,2,89.9999999999999,2|0|2,0:0|0:0|0:0,0:0:0:0:
116,268,27760,6,0,L|68:268,2,45,2|0|2,0:0|0:0|0:0,0:0:0:0:
456,48,29960,5,4,0:0:0:0:
380,96,30360,2,0,P|292:120|212:88,1,180,8|8,0:0|0:0,0:0:0:0:
136,40,31560,2,0,L|52:72,1,89.9999999999999,0|8,0:0|0:0,0:0:0:0:
100,148,32360,2,0,L|40:215,1,89.9999999999999,0|8,0:0|0:0,0:0:0:0:
16,304,33160,5,0,0:0:0:0:
88,356,33560,1,8,0:0:0:0:
176,336,33960,2,0,B|188:288|176:244,1,89.9999999999999,0|8,0:0|0:0,0:0:0:0:
148,160,34760,2,0,L|236:140,1,89.9999999999999,0|8,0:0|0:0,0:0:0:0:
308,192,35560,2,0,L|396:212,1,89.9999999999999,0|8,0:0|0:0,0:0:0:0:
484,204,36360,5,0,0:0:0:0:
448,288,36760,1,8,0:0:0:0:
368,332,37160,2,0,B|280:332,1,89.9999999999999,0|8,0:0|0:0,0:0:0:0:
200,288,37960,2,0,B|112:288,2,89.9999999999999,0|8|0,0:0|0:0|0:0,0:0:0:0:
276,244,39160,1,8,0:0:0:0:
356,200,39560,6,0,P|364:156|356:112,1,89.9999999999999,0|8,0:0|0:0,0:0:0:0:
300,40,40360,2,0,B|160:40,1,135,0|4,0:0|0:0,0:0:0:0:
72,192,41760,2,0,B|212:192,1,135,4|8,0:0|0:0,0:0:0:0:
280,240,42760,6,0,B|328:248|368:220,1,89.9999999999999,4|8,0:0|0:0,0:0:0:0:
440,172,43560,2,0,B|476:204|480:252,1,89.9999999999999,2|8,0:0|0:0,0:0:0:0:
424,324,44360,1,2,0:0:0:0:
336,320,44760,1,8,0:0:0:0:
256,360,45160,2,0,L|168:340,1,89.9999999999999,2|8,0:0|0:0,0:0:0:0:
120,264,45960,5,2,0:0:0:0:
168,188,46360,1,8,0:0:0:0:
256,164,46760,2,0,B|272:120|264:76,2,89.9999999999999,2|8|2,0:0|0:0|0:0,0:0:0:0:
168,188,47960,1,8,0:0:0:0:
96,136,48360,2,0,B|52:112|8:124,1,89.9999999999999,2|8,0:0|0:0,0:0:0:0:
40,208,49160,5,2,0:0:0:0:
80,288,49560,2,0,B|156:288|156:288|184:304|184:304|256:304,1,180,8|8,0:0|0:0,0:0:0:0:
344,328,50760,1,2,0:0:0:0:
404,260,51160,1,8,0:0:0:0:
384,172,51560,2,0,B|342:142|298:154,1,89.9999999999999,2|8,0:0|0:0,0:0:0:0:
220,200,52360,5,2,0:0:0:0:
132,212,52760,1,8,0:0:0:0:
80,140,53160,2,0,B|150:78|150:78|192:68,1,135,2|4,0:0|0:0,0:0:0:0:
360,132,54560,2,0,B|344:216|344:216|268:248|288:332,1,225,4|4,0:0|0:0,0:0:0:0:
376,304,55960,5,8,0:0:0:0:
440,240,56360,2,0,L|460:152,1,89.9999999999999,2|8,0:0|0:0,0:0:0:0:
428,68,57160,1,2,0:0:0:0:
340,48,57560,2,0,P|256:32|168:64,1,180,8|8,0:0|0:0,0:0:0:0:
132,144,58760,6,0,L|152:236,1,89.9999999999999,2|8,0:0|0:0,0:0:0:0:
196,308,59560,2,0,P|244:312|284:304,1,89.9999999999999,2|8,0:0|0:0,0:0:0:0:
348,240,60360,1,2,0:0:0:0:
436,260,60760,1,8,0:0:0:0:
508,204,61160,2,0,L|496:112,1,89.9999999999999,2|10,0:0|0:0,0:0:0:0:
428,56,61960,6,0,B|386:37|340:52,1,89.9999999999999,4|8,0:0|0:0,0:0:0:0:
260,96,62760,2,0,B|212:116|168:103,1,89.9999999999999,2|8,0:0|0:0,0:0:0:0:
88,72,63560,2,0,B|8:143|40:235,1,180,4|2,0:0|0:0,0:0:0:0:
100,304,64760,1,10,0:0:0:0:
188,280,65160,6,0,L|276:296,1,89.9999999999999,4|8,0:0|0:0,0:0:0:0:
368,300,65960,2,0,B|408:220|408:220|412:172,1,135,2|4,0:0|0:0,0:0:0:0:
292,40,67360,2,0,L|256:124,1,89.9999999999999,4|4,0:0|0:0,0:0:0:0:
212,252,68360,6,0,B|120:276|40:220,2,180,4|2|2,0:0|0:0|0:0,0:0:0:0:
292,208,70360,1,8,0:0:0:0:
380,204,70760,2,0,B|417:229|424:277,1,89.9999999999999,2|8,0:0|0:0,0:0:0:0:
372,352,71560,5,2,0:0:0:0:
284,328,71960,1,8,0:0:0:0:
200,296,72360,2,0,B|112:296,1,89.9999999999999,2|8,0:0|0:0,0:0:0:0:
36,244,73160,2,0,B|16:196|40:156,2,89.9999999999999,2|8|2,0:0|0:0|0:0,0:0:0:0:
120,208,74360,1,8,0:0:0:0:
164,128,74760,6,0,B|256:101|334:168,1,180,4|2,0:0|0:0,0:0:0:0:
376,244,75960,1,8,0:0:0:0:
332,324,76360,2,0,B|239:350|161:283,1,180,4|2,0:0|0:0,0:0:0:0:
120,208,77560,1,8,0:0:0:0:
32,188,77960,6,0,B|20:144|40:100,1,89.9999999999999,2|8,0:0|0:0,0:0:0:0:
124,64,78760,2,0,L|260:84,1,135,2|4,0:0|0:0,0:0:0:0:
344,60,79760,2,0,L|384:40,2,45,2|2|4,0:0|0:0|0:0,0:0:0:0:
388,136,80560,2,0,L|408:272,1,135,2|4,0:0|0:0,0:0:0:0:
376,356,81560,5,8,0:0:0:0:
312,292,81960,2,0,L|220:304,1,89.9999999999999,2|8,0:0|0:0,0:0:0:0:
136,272,82760,2,0,B|131:226|145:184,1,89.9999999999999,2|8,0:0|0:0,0:0:0:0:
78,121,83560,2,0,B|97:79|133:52,1,89.9999999999999,2|8,0:0|0:0,0:0:0:0:
224,48,84360,6,0,B|296:108|396:68,1,180,2|2,0:0|0:0,0:0:0:0:
480,44,85560,1,8,0:0:0:0:
500,132,85960,2,0,L|468:216,1,89.9999999999999,2|8,0:0|0:0,0:0:0:0:
408,284,86760,2,0,P|360:288|316:280,1,89.9999999999999,2|8,0:0|0:0,0:0:0:0:
240,240,87560,6,0,B|204:184|264:120|224:60,1,180,4|2,0:0|0:0,0:0:0:0:
136,52,88760,1,8,0:0:0:0:
60,100,89160,2,0,P|20:180|64:252,1,180,4|2,0:0|0:0,0:0:0:0:
152,268,90360,1,8,0:0:0:0:
240,240,90760,6,0,B|240:152,1,89.9999999999999,4|8,0:0|0:0,0:0:0:0:
284,72,91560,2,0,B|372:72,1,89.9999999999999,4|8,0:0|0:0,0:0:0:0:
460,100,92360,2,0,B|460:176|460:176|444:204|444:204|444:276,1,180,4|8,0:0|0:0,0:0:0:0:
400,356,93560,1,8,0:0:0:0:
256,192,93960,12,2,96360,0:0:0:0:
304,264,97160,6,0,B|312:312|288:356,2,89.9999999999999,2|8|2,0:0|0:0|0:0,0:0:0:0:
248,192,98360,1,8,0:0:0:0:
192,120,98760,2,0,B|192:72|228:36|280:20|324:44,1,180,2|2,0:0|0:0,0:0:0:0:
400,88,99960,1,8,0:0:0:0:
448,164,100360,6,0,B|436:256,1,89.9999999999999,4|8,0:0|0:0,0:0:0:0:
348,228,101160,2,0,B|308:308,1,89.9999999999999,2|8,0:0|0:0,0:0:0:0:
232,360,101960,2,0,B|156:360|156:360|128:344|128:344|56:344,1,180,2|2,0:0|0:0,0:0:0:0:
36,256,103160,2,0,L|128:256,1,89.9999999999999,8|2,0:0|0:0,0:0:0:0:
208,216,103960,5,8,0:0:0:0:
288,176,104360,2,0,B|424:176,1,135,2|4,0:0|0:0,0:0:0:0:
500,340,105760,2,0,B|364:340,1,135,4|8,0:0|0:0,0:0:0:0:
256,192,106760,12,0,112960,0:0:0:0:
