osu file format v12

[General]
AudioFilename: Get Jinxed.mp3
AudioLeadIn: 0
PreviewTime: 40357
Countdown: 1
SampleSet: Soft
StackLeniency: 0.7
Mode: 0
LetterboxInBreaks: 1
WidescreenStoryboard: 0

[Editor]
Bookmarks: 5024,16357,48357,72357,83024,88024,107191
DistanceSpacing: 0.2
BeatDivisor: 4
GridSize: 4

[Metadata]
Title:Get Jinxed
TitleUnicode:Get Jinxed
Artist:Riot Games
ArtistUnicode:Riot Games
Creator:si7zi
Version:Jinxed!!
Source:League of Legends
Tags:Foreverends, Agnete Kjølsru, Djerv, Jinx, Champion, ADC, OP
BeatmapID:311131
BeatmapSetID:121550

[Difficulty]
HPDrainRate:6
CircleSize:4
OverallDifficulty:7
ApproachRate:9
SliderMultiplier:1.2
SliderTickRate:2

[Events]
//Background and Video events
0,0,"jinx.png",0,0
//Break Periods
2,83691,87024
//Storyboard Layer 0 (Background)
//Storyboard Layer 1 (Fail)
//Storyboard Layer 2 (Pass)
//Storyboard Layer 3 (Foreground)
//Storyboard Sound Samples
//Background Colour Transformations
3,100,163,162,255

[TimingPoints]
355,333.333333333333,4,2,0,55,1,0
355,-100,4,2,0,55,0,0
5021,-200,4,2,0,55,0,0
5854,-133.333333333333,4,2,0,55,0,0
12855,-200,4,2,0,55,0,0
14021,-80,4,2,0,55,0,0
14521,-57.1428571428571,4,2,0,55,0,0
15021,-200,4,2,0,55,0,0
16354,-133.333333333333,4,2,0,55,0,0
17688,-200,4,2,0,55,0,0
18438,-133.333333333333,4,2,0,55,0,0
19354,-133.333333333333,4,2,0,55,0,0
19854,-80,4,2,0,55,0,0
20355,-57.1428571428571,4,2,0,55,0,0
20854,-133.333333333333,4,2,0,55,0,0
21688,-133.333333333333,4,2,0,55,0,0
26354,-200,4,2,0,55,0,0
26688,-57.1428571428571,4,2,0,55,0,0
27021,-57.1428571428571,4,1,0,55,0,0
27354,-66.6666666666667,4,1,0,55,0,0
28688,-200,4,1,0,55,0,0
29021,-66.6666666666667,4,1,0,55,0,0
29354,-133.333333333333,4,1,0,55,0,0
37771,-200,4,1,0,55,0,0
38688,-66.6666666666667,4,1,0,55,0,0
39021,-50,4,1,0,55,0,0
39688,-200,4,1,0,55,0,0
40021,-133.333333333333,4,1,0,55,0,0
40354,-66.6666666666667,4,1,0,55,0,1
61688,-100,4,1,0,55,0,0
62188,-100,4,2,0,55,0,0
72521,-133.333333333333,4,2,0,55,0,0
90688,-66.6666666666667,4,2,0,55,0,0
91188,-133.333333333333,4,2,0,55,0,0
93688,-66.6666666666667,4,2,0,55,0,0
94354,-200,4,2,0,55,0,0
95021,-66.6666666666667,4,2,0,55,0,0
95688,-200,4,2,0,55,0,0
96354,-66.6666666666667,4,2,0,55,0,0
97021,-57.1428571428571,4,2,0,55,0,0
98354,-133.333333333333,4,1,0,55,0,0
99021,-66.6666666666667,4,1,0,55,0,1
117688,-50,4,1,0,55,0,1
120354,-50,4,1,0,55,0,1
123688,-50,4,1,0,55,0,1
131021,-100,4,1,0,55,0,0

[Colours]
Combo1 : 186,13,200
Combo2 : 135,220,248
Combo3 : 239,135,248
Combo4 : 12,154,201

[HitObjects]
256,192,355,2,0,L|288:160,4,30
140,160,1021,5,2,0:0:0:0:
336,112,1188,1,0,0:0:0:0:
284,296,1354,1,0,0:0:0:0:
164,96,1521,5,0,0:0:0:0:
388,160,1688,1,2,0:0:0:0:
220,320,1854,1,0,0:0:0:0:
188,32,2021,5,2,0:0:0:0:
436,208,2188,1,0,0:0:0:0:
156,344,2354,1,2,0:0:0:0:
256,192,2688,21,0,0:0:0:0:
256,192,3021,1,0,0:0:0:0:
48,48,3354,5,2,0:0:0:0:
464,48,3521,1,0,0:0:0:0:
256,280,3688,1,2,0:0:0:0:
464,336,3854,1,2,0:0:0:0:
48,336,4021,1,0,0:0:0:0:
256,104,4188,1,2,0:0:0:0:
256,192,4521,37,2,0:0:0:0:
136,252,5021,38,0,L|136:132,1,120,0|2,0:0|0:0,0:0:0:0:
312,112,5854,2,0,P|352:192|304:272,1,180.000006866455
136,150,7021,2,0,L|136:240,2,90.0000034332277,2|0|0,0:0|0:0|0:0,0:0:0:0:
220,44,7854,1,0,0:0:0:0:
156,80,8021,1,0,0:0:0:0:
292,44,8188,1,0,0:0:0:0:
220,44,8354,1,2,0:0:0:0:
356,80,8521,6,0,P|376:148|452:228,1,180.000006866455
240,208,9354,2,0,L|276:172,1,45.0000017166138
136,148,9688,2,0,P|116:216|40:296,1,180.000006866455,2|0,0:0|0:0,0:0:0:0:
40,152,10521,1,0,0:0:0:0:
28,224,10688,1,0,0:0:0:0:
76,92,10854,1,0,0:0:0:0:
40,152,11021,1,2,0:0:0:0:
140,64,11188,5,0,0:0:0:0:
140,64,11271,1,0,0:0:0:0:
140,64,11354,2,0,P|172:116|176:184,1,112.500004291535
136,248,11854,1,0,0:0:0:0:
284,328,12021,1,0,0:0:0:0:
312,136,12188,1,0,0:0:0:0:
336,280,12354,2,0,P|352:228|344:160,1,112.500004291535,2|2,0:0|0:0,0:0:0:0:
312,136,12854,2,0,P|412:120|456:224,1,225.000008583069,0|2,0:0|0:0,0:0:0:0:
136,108,14021,6,0,B|124:152|176:136|176:136|180:160|180:160|228:192|284:196,1,187.5,0|2,0:0|0:0,0:0:0:0:
312,136,14521,6,0,B|356:176|332:228|332:228|352:224|352:224|344:272|404:352,1,262.500002503395
460,304,15021,6,0,B|412:248|428:208|428:208|412:184|412:184|412:152|396:136,1,180,2|0,0:0|0:0,0:0:0:0:
104,136,16354,6,0,L|76:112,1,22.5000008583069,2|0,0:0|0:0,0:0:0:0:
104,136,16521,2,0,P|152:160|196:148,1,90.0000034332277
428,192,17021,1,0,0:0:0:0:
352,192,17188,2,0,L|256:192,1,90.0000034332277
176,304,17688,2,0,P|220:316|284:332,1,105,2|2,0:0|0:0,0:0:0:0:
244,272,18354,1,2,0:0:0:0:
112,88,18688,1,2,0:0:0:0:
360,260,19021,2,0,L|360:204,1,45.0000017166138,2|0,0:0|0:0,0:0:0:0:
16,312,19354,2,0,P|24:284|88:220,1,112.500004291535,0|2,0:0|0:0,0:0:0:0:
102,269,19854,2,0,P|190:245|240:168,1,187.5
209,124,20354,2,0,P|291:58|380:116,1,225,2|0,0:0|0:0,0:0:0:0:
132,268,21021,1,0,0:0:0:0:
380,268,21188,1,0,0:0:0:0:
132,116,21354,1,0,0:0:0:0:
328,192,21521,1,0,0:0:0:0:
184,192,21688,1,2,0:0:0:0:
92,100,21854,5,0,0:0:0:0:
168,104,22021,2,0,P|228:92|252:64,1,90.0000034332277
296,16,22521,1,0,0:0:0:0:
336,80,22688,1,0,0:0:0:0:
412,96,22854,1,0,0:0:0:0:
360,152,23021,2,0,P|372:240|420:292,1,157.500006008148,2|2,0:0|0:0,0:0:0:0:
344,340,23688,1,2,0:0:0:0:
360,152,24021,1,2,0:0:0:0:
80,160,24354,2,0,L|112:204,1,45.0000017166138,2|0,0:0|0:0,0:0:0:0:
256,332,24688,6,0,P|212:304|196:260,1,90.0000034332277
188,128,25354,1,0,0:0:0:0:
256,332,25688,2,0,P|240:292|264:252,1,90.0000034332277,2|0,0:0|0:0,0:0:0:0:
452,280,26354,6,0,L|408:280,1,45
392,280,26688,2,0,L|160:280,1,210.000002002716
208,144,27354,5,0,0:0:0:0:
300,144,27521,1,0,0:0:0:0:
164,76,27688,1,0,0:0:0:0:
348,76,27854,1,0,0:0:0:0:
124,152,28021,2,0,P|104:184|64:216,1,90.0000034332277
388,152,28354,2,0,P|408:184|448:216,1,90.0000034332277
244,180,28688,6,0,L|272:208,1,30
192,320,29021,6,0,L|112:252,1,90.0000034332277
136,116,29354,1,0,0:0:0:0:
124,260,29521,1,0,0:0:0:0:
136,116,29688,2,0,L|196:116,1,45.0000017166138
256,144,30021,5,0,0:0:0:0:
256,240,30188,1,0,0:0:0:0:
256,144,30354,1,0,0:0:0:0:
256,240,30521,1,0,0:0:0:0:
324,104,30688,1,0,0:0:0:0:
188,280,30854,1,0,0:0:0:0:
256,64,31021,1,0,0:0:0:0:
256,320,31187,1,0,0:0:0:0:
188,104,31354,1,0,0:0:0:0:
324,280,31520,1,0,0:0:0:0:
400,120,31688,5,0,0:0:0:0:
136,316,31854,1,0,0:0:0:0:
256,24,32020,1,0,0:0:0:0:
372,308,32188,1,0,0:0:0:0:
108,116,32354,1,0,0:0:0:0:
256,112,32521,5,0,0:0:0:0:
184,228,32688,1,0,0:0:0:0:
324,152,32854,1,0,0:0:0:0:
252,272,33021,5,0,0:0:0:0:
188,148,33188,1,0,0:0:0:0:
324,232,33354,1,0,0:0:0:0:
256,192,33521,5,0,0:0:0:0:
116,168,33688,2,0,L|116:228,2,45.0000017166138
220,52,34188,5,0,0:0:0:0:
152,96,34354,1,0,0:0:0:0:
300,56,34521,1,0,0:0:0:0:
220,52,34688,1,0,0:0:0:0:
368,100,34854,5,0,0:0:0:0:
300,56,35021,1,0,0:0:0:0:
392,176,35188,1,0,0:0:0:0:
368,100,35354,2,0,L|368:48,1,45.0000017166138
392,176,35688,6,0,L|432:148,1,45.0000017166138
368,100,36021,1,0,0:0:0:0:
392,176,36188,2,0,L|440:176,1,45.0000017166138
368,96,36521,2,0,L|408:124,1,45.0000017166138
392,176,36854,2,0,L|392:228,1,45.0000017166138
220,92,37188,1,0,0:0:0:0:
280,216,37354,1,0,0:0:0:0:
220,88,37521,6,0,L|228:72,4,11.2500004291535
160,152,37771,2,0,L|300:228,1,150
280,228,38688,6,0,L|156:160,1,135.000005149841
96,124,39021,6,0,B|68:184|116:232|132:232|132:232|84:272|84:272|140:300|140:300|120:348|256:372,1,360
316,352,39688,6,0,P|296:352|276:344,1,30
208,108,40021,5,0,0:0:0:0:
32,228,40188,1,0,0:0:0:0:
208,108,40354,1,0,0:0:0:0:
304,276,40688,2,0,B|344:252|344:252|392:252,1,90.0000034332277
160,192,41021,2,0,B|140:236|140:236|88:260,1,90.0000034332277
352,192,41355,2,0,B|372:148|372:148|424:124,1,90.0000034332277
208,276,41688,2,0,B|208:328|208:328|168:368,1,90.0000034332277
304,108,42022,2,0,B|304:56|304:56|344:16,1,90.0000034332277
204,192,42354,5,0,0:0:0:0:
308,192,42521,1,0,0:0:0:0:
204,192,42688,1,0,0:0:0:0:
308,192,42854,1,0,0:0:0:0:
256,140,43021,5,0,0:0:0:0:
256,244,43188,1,0,0:0:0:0:
256,140,43354,1,0,0:0:0:0:
256,244,43521,1,0,0:0:0:0:
256,52,43688,5,0,0:0:0:0:
176,300,43854,1,0,0:0:0:0:
380,144,44021,1,0,0:0:0:0:
132,144,44188,1,0,0:0:0:0:
336,300,44354,1,0,0:0:0:0:
352,308,44688,1,0,0:0:0:0:
368,316,45021,1,0,0:0:0:0:
384,324,45354,1,0,0:0:0:0:
220,256,45688,5,0,0:0:0:0:
292,256,45854,1,0,0:0:0:0:
256,192,46021,1,0,0:0:0:0:
220,256,46188,5,0,0:0:0:0:
328,192,46354,1,0,0:0:0:0:
216,136,46521,1,0,0:0:0:0:
292,256,46688,5,0,0:0:0:0:
176,196,46854,1,0,0:0:0:0:
288,136,47021,1,0,0:0:0:0:
256,192,47354,5,0,0:0:0:0:
164,260,47688,5,0,0:0:0:0:
348,124,47854,1,0,0:0:0:0:
164,260,48021,1,0,0:0:0:0:
348,124,48187,1,0,0:0:0:0:
256,192,48354,1,0,0:0:0:0:
256,36,48521,5,0,0:0:0:0:
188,328,48688,1,0,0:0:0:0:
380,96,48854,1,0,0:0:0:0:
324,332,49021,5,0,0:0:0:0:
256,36,49188,1,0,0:0:0:0:
132,96,49354,1,0,0:0:0:0:
256,192,49521,1,0,0:0:0:0:
160,248,49688,5,0,0:0:0:0:
156,256,49771,1,0,0:0:0:0:
148,252,49854,1,0,0:0:0:0:
264,280,50021,1,0,0:0:0:0:
268,288,50104,1,0,0:0:0:0:
276,284,50187,1,0,0:0:0:0:
132,332,50354,1,0,0:0:0:0:
124,328,50438,1,0,0:0:0:0:
116,336,50521,1,0,0:0:0:0:
108,332,50604,1,0,0:0:0:0:
104,324,50688,1,0,0:0:0:0:
96,324,50771,1,0,0:0:0:0:
88,320,50854,2,0,P|40:284|24:224,1,90.0000034332277
48,172,51188,1,0,0:0:0:0:
56,172,51354,6,0,L|152:172,1,90.0000034332277
464,212,51688,2,0,L|368:212,1,90.0000034332277
60,136,52021,2,0,L|160:160,1,90.0000034332277
452,248,52355,2,0,L|352:224,1,90.0000034332277
80,108,52688,2,0,L|168:148,1,90.0000034332277
320,272,53021,5,0,0:0:0:0:
176,112,53188,1,0,0:0:0:0:
296,292,53354,1,0,0:0:0:0:
212,100,53521,1,0,0:0:0:0:
247,198,53688,6,0,L|168:240,1,90.0000034332277
264,189,54021,2,0,L|344:148,1,90.0000034332277
263,270,54354,6,0,L|184:312,1,90.0000034332277
312,245,54687,2,0,L|392:204,1,90.0000034332277
279,342,55021,6,0,L|200:384,1,90.0000034332277
360,301,55354,2,0,L|440:260,1,90.0000034332277
312,244,55688,6,0,B|300:240|300:240|300:248|300:248|296:240|296:240|296:248|296:248|292:240|292:240|292:248|292:248|288:240|288:240|288:248|288:248|284:240|284:240|284:248|284:248|280:244|256:248|256:248|240:284|144:272|144:140|208:120|240:212|292:104,1,360.000013732911
183,181,56521,1,0,0:0:0:0:
128,248,56688,2,0,B|168:220|168:220|188:172,1,90.0000034332277
300,52,57021,2,0,B|260:80|260:80|240:128,1,90.0000034332277
272,204,57354,2,0,B|312:176|312:176|332:128,1,90.0000034332277
156,96,57687,2,0,B|116:124|116:124|96:172,1,90.0000034332277
116,300,58021,2,0,B|144:264|144:264|200:240,1,90.0000034332277
328,248,58354,5,0,0:0:0:0:
188,132,58521,1,0,0:0:0:0:
184,248,58688,1,0,0:0:0:0:
324,132,58855,1,0,0:0:0:0:
428,348,59021,5,0,0:0:0:0:
84,348,59354,1,0,0:0:0:0:
84,36,59687,1,0,0:0:0:0:
428,36,60020,1,0,0:0:0:0:
124,260,60354,5,0,0:0:0:0:
388,260,60521,1,0,0:0:0:0:
256,192,60688,1,0,0:0:0:0:
388,124,60854,1,0,0:0:0:0:
124,124,61021,1,0,0:0:0:0:
256,68,61188,1,0,0:0:0:0:
256,316,61354,2,0,L|256:372,2,45.0000017166138
256,192,61688,1,0,0:0:0:0:
464,340,62188,5,0,0:0:0:0:
464,256,62354,1,0,0:0:0:0:
48,44,63021,1,0,0:0:0:0:
48,128,63187,1,0,0:0:0:0:
48,340,63521,1,0,0:0:0:0:
48,256,63687,1,0,0:0:0:0:
172,192,64021,1,0,0:0:0:0:
340,192,64188,1,0,0:0:0:0:
256,192,64355,1,0,0:0:0:0:
464,44,64854,1,0,0:0:0:0:
464,128,65020,1,0,0:0:0:0:
120,288,65688,5,0,0:0:0:0:
204,288,65854,1,0,0:0:0:0:
392,96,66188,1,0,0:0:0:0:
308,96,66354,2,0,L|292:88,4,15
148,148,66688,2,0,L|72:148,2,60
368,268,67521,1,0,0:0:0:0:
452,268,67688,1,0,0:0:0:0:
120,220,68354,1,0,0:0:0:0:
36,220,68521,1,0,0:0:0:0:
296,128,68854,1,0,0:0:0:0:
380,128,69021,2,0,L|396:120,4,15
216,264,69354,6,0,L|216:328,2,60
156,104,70188,1,0,0:0:0:0:
156,20,70354,1,0,0:0:0:0:
352,244,71021,1,0,0:0:0:0:
356,328,71188,1,0,0:0:0:0:
448,108,71521,1,0,0:0:0:0:
448,24,71688,2,0,L|448:8,4,15
64,132,72021,1,0,0:0:0:0:
76,216,72188,1,0,0:0:0:0:
128,284,72354,1,0,0:0:0:0:
200,332,72521,6,0,P|264:348|352:324,1,157.500006008148
368,284,73188,2,0,P|408:260|464:276,1,90.0000034332277
284,180,73688,2,0,P|240:164|184:116,1,112.500004291535
172,80,74188,2,0,P|132:44|88:28,1,90.0000034332277
112,304,74688,5,0,0:0:0:0:
88,112,74854,1,0,0:0:0:0:
400,300,75021,1,0,0:0:0:0:
112,304,75188,2,0,B|84:300|68:296|67:296,2,45.0000017166138
192,320,75687,1,0,0:0:0:0:
276,340,75854,2,0,B|304:344|324:348|320:347,2,45.0000017166138
192,320,76354,2,0,L|208:260,1,45.0000017166138
320,64,76854,1,0,0:0:0:0:
296,148,77021,1,0,0:0:0:0:
132,96,77354,6,0,B|100:92|100:92|76:72,2,45.0000017166138
364,280,77854,2,0,B|392:324|392:324|480:324,1,135.000005149841
364,280,78688,1,0,0:0:0:0:
37,324,79021,2,0,B|120:324|120:324|160:256,1,157.500006008148
88,228,79688,1,0,0:0:0:0:
256,192,80021,2,0,L|300:232,2,45.0000017166138
200,80,80688,2,0,P|144:128|140:232,1,180.000006866455
256,192,81688,1,0,0:0:0:0:
256,192,81771,12,0,83021,0:0:0:0:
192,144,88021,5,0,0:0:0:0:
320,144,88188,1,0,0:0:0:0:
256,272,88354,1,0,0:0:0:0:
256,192,88688,1,0,0:0:0:0:
176,232,89021,2,0,P|128:216|112:168,1,90.0000034332277
336,296,89688,2,0,P|320:336|264:352,2,90.0000034332277
96,288,90688,5,0,0:0:0:0:
416,288,90854,1,0,0:0:0:0:
256,64,91021,1,0,0:0:0:0:
256,192,91354,1,0,0:0:0:0:
180,168,91688,2,0,B|224:168|224:168|256:224|288:168|288:168|344:168,1,180.000006866455
256,288,92688,1,0,0:0:0:0:
256,192,93021,2,0,L|256:92,1,90.0000034332277
72,324,93688,6,0,P|132:248|132:168,1,180.000006866455
56,108,94354,2,0,L|104:60,1,60
236,320,95021,2,0,P|316:288|380:204,1,180.000006866455
468,200,95688,2,0,L|436:144,1,60
212,48,96354,6,0,P|292:132|268:196,1,180.000006866455
108,300,97021,2,0,B|128:124|288:252|316:272|316:272|276:180|276:180|372:224|412:228|336:160|336:160|420:164|372:140|444:132,1,630.000006008148
256,320,98354,5,0,0:0:0:0:
96,96,98520,1,0,0:0:0:0:
416,96,98687,1,0,0:0:0:0:
252,192,98854,5,0,0:0:0:0:
248,192,98938,1,0,0:0:0:0:
252,188,99021,1,0,0:0:0:0:
256,40,99354,6,0,L|256:136,1,90.0000034332277
168,320,99688,2,0,L|224:240,1,90.0000034332277
404,144,100021,2,0,L|312:176,1,90.0000034332277
108,148,100354,2,0,L|200:176,1,90.0000034332277
348,316,100688,2,0,L|288:248,1,90.0000034332277
223,135,101021,5,0,0:0:0:0:
260,256,101188,1,0,0:0:0:0:
268,132,101354,1,0,0:0:0:0:
208,244,101521,1,0,0:0:0:0:
304,160,101687,5,0,0:0:0:0:
184,200,101854,1,0,0:0:0:0:
312,204,102021,1,0,0:0:0:0:
192,164,102187,1,0,0:0:0:0:
292,244,102354,5,0,0:0:0:0:
168,248,102520,1,0,0:0:0:0:
168,120,102687,1,0,0:0:0:0:
296,124,102854,1,0,0:0:0:0:
420,196,103020,5,0,0:0:0:0:
92,196,103354,1,0,0:0:0:0:
256,40,103688,1,0,0:0:0:0:
256,344,104021,1,0,0:0:0:0:
292,128,104354,5,0,0:0:0:0:
220,128,104520,1,0,0:0:0:0:
256,192,104687,1,0,0:0:0:0:
292,128,104854,5,0,0:0:0:0:
184,192,105020,1,0,0:0:0:0:
296,248,105187,1,0,0:0:0:0:
220,128,105354,5,0,0:0:0:0:
336,188,105520,1,0,0:0:0:0:
224,248,105687,1,0,0:0:0:0:
256,192,106020,5,0,0:0:0:0:
256,192,106354,5,0,0:0:0:0:
328,192,106521,1,0,0:0:0:0:
184,192,106687,1,0,0:0:0:0:
400,192,106854,1,0,0:0:0:0:
112,192,107020,1,0,0:0:0:0:
472,192,107187,1,0,0:0:0:0:
40,192,107353,1,0,0:0:0:0:
400,192,107520,5,0,0:0:0:0:
112,192,107687,1,0,0:0:0:0:
328,192,107854,1,0,0:0:0:0:
184,192,108020,1,0,0:0:0:0:
256,192,108187,1,0,0:0:0:0:
256,192,108355,5,0,0:0:0:0:
256,188,108438,1,0,0:0:0:0:
252,188,108521,1,0,0:0:0:0:
108,116,108688,1,0,0:0:0:0:
112,112,108771,1,0,0:0:0:0:
108,112,108854,1,0,0:0:0:0:
400,276,109021,1,0,0:0:0:0:
392,272,109104,1,0,0:0:0:0:
384,280,109188,1,0,0:0:0:0:
376,280,109271,1,0,0:0:0:0:
368,272,109354,1,0,0:0:0:0:
360,272,109438,1,0,0:0:0:0:
352,272,109521,2,0,P|288:272|244:280,1,90.0000034332277
156,212,109855,1,0,0:0:0:0:
146,212,110021,6,0,L|56:212,1,90.0000034332277
374,172,110355,2,0,L|464:172,1,90.0000034332277
147,226,110688,2,0,L|60:248,1,90.0000034332277
364,157,111022,2,0,L|452:136,1,90.0000034332277
161,238,111355,2,0,L|80:276,1,90.0000034332277
360,80,111688,5,0,0:0:0:0:
152,304,111854,1,0,0:0:0:0:
152,80,112021,1,0,0:0:0:0:
360,304,112188,1,0,0:0:0:0:
72,124,112355,6,0,L|152:83,1,90.0000034332277
312,0,112688,2,0,L|233:42,1,90.0000034332277
120,180,113022,6,0,L|200:139,1,90.0000034332277
328,72,113355,2,0,L|249:114,1,90.0000034332277
168,236,113688,6,0,L|248:195,1,90.0000034332277
344,144,114021,2,0,L|265:186,1,90.0000034332277
344,144,114355,6,0,B|356:148|356:148|356:140|356:140|360:148|360:148|360:140|360:140|364:148|364:148|364:140|364:140|368:148|368:148|368:140|368:140|372:148|372:148|372:140|372:140|376:144|400:140|400:140|416:104|512:116|512:248|448:268|416:176|364:284,1,360.000013732911
140,228,115188,1,0,0:0:0:0:
142,146,115354,2,0,B|160:184|160:184|140:228,1,90.0000034332277
378,229,115688,2,0,B|358:185|358:185|376:148,1,90.0000034332277
62,146,116021,2,0,B|80:184|80:184|60:228,1,90.0000034332277
459,227,116354,2,0,B|439:183|439:183|457:146,1,90.0000034332277
224,224,116688,2,0,L|292:156,1,90.0000034332277
328,248,117021,5,0,0:0:0:0:
188,132,117188,1,0,0:0:0:0:
184,248,117355,1,0,0:0:0:0:
324,132,117522,1,0,0:0:0:0:
428,348,117688,5,0,0:0:0:0:
84,348,118021,1,0,0:0:0:0:
84,36,118354,1,0,0:0:0:0:
428,36,118687,1,0,0:0:0:0:
124,260,119021,5,0,0:0:0:0:
388,260,119188,1,0,0:0:0:0:
256,192,119355,1,0,0:0:0:0:
388,124,119521,1,0,0:0:0:0:
124,124,119688,1,0,0:0:0:0:
256,68,119855,1,0,0:0:0:0:
256,316,120021,2,0,L|256:376,2,60
256,192,120355,1,0,0:0:0:0:
396,108,120521,5,0,0:0:0:0:
116,276,120688,1,0,0:0:0:0:
328,152,120854,1,0,0:0:0:0:
184,232,121021,5,0,0:0:0:0:
256,192,121188,1,0,0:0:0:0:
184,148,121354,1,0,0:0:0:0:
184,232,121521,5,0,0:0:0:0:
328,232,121687,1,0,0:0:0:0:
256,108,121854,1,0,0:0:0:0:
256,272,122021,5,0,0:0:0:0:
328,148,122187,1,0,0:0:0:0:
184,148,122354,1,0,0:0:0:0:
328,312,122521,5,0,0:0:0:0:
116,192,122688,1,0,0:0:0:0:
328,68,122855,1,0,0:0:0:0:
344,192,123021,5,0,0:0:0:0:
220,308,123188,1,0,0:0:0:0:
168,192,123354,1,0,0:0:0:0:
256,104,123521,1,0,0:0:0:0:
368,240,123688,5,0,0:0:0:0:
204,292,123854,1,0,0:0:0:0:
144,144,124021,1,0,0:0:0:0:
308,92,124188,1,0,0:0:0:0:
392,288,124354,5,0,0:0:0:0:
152,308,124521,1,0,0:0:0:0:
120,96,124688,1,0,0:0:0:0:
360,76,124854,1,0,0:0:0:0:
416,336,125021,5,0,0:0:0:0:
104,328,125188,1,0,0:0:0:0:
96,48,125354,1,0,0:0:0:0:
408,56,125521,1,0,0:0:0:0:
472,200,125688,5,0,0:0:0:0:
376,228,125854,2,0,B|364:240|368:248|368:248|368:264|348:260|348:260|328:236|280:272|260:240|252:196|252:196|228:212|168:196,1,240
100,152,126354,1,0,0:0:0:0:
80,284,126521,1,0,0:0:0:0:
220,172,126688,5,0,0:0:0:0:
76,124,126854,1,0,0:0:0:0:
88,308,127021,1,0,0:0:0:0:
144,224,127188,5,0,0:0:0:0:
164,20,127354,1,0,0:0:0:0:
336,128,127521,1,0,0:0:0:0:
112,120,127688,5,0,0:0:0:0:
272,244,127854,1,0,0:0:0:0:
272,40,128021,1,0,0:0:0:0:
368,40,128188,5,0,0:0:0:0:
244,116,128354,1,0,0:0:0:0:
412,112,128521,1,0,0:0:0:0:
224,192,128688,5,0,0:0:0:0:
452,180,128854,1,0,0:0:0:0:
244,272,129021,1,0,0:0:0:0:
424,260,129188,5,0,0:0:0:0:
212,348,129354,1,0,0:0:0:0:
372,324,129521,1,0,0:0:0:0:
132,336,129688,5,0,0:0:0:0:
292,344,129854,1,0,0:0:0:0:
76,280,130021,1,0,0:0:0:0:
212,348,130188,5,0,0:0:0:0:
408,36,130354,1,0,0:0:0:0:
68,36,130521,1,0,0:0:0:0:
464,348,130688,1,0,0:0:0:0:
44,348,130854,1,0,0:0:0:0:
256,192,131021,1,4,0:0:0:0:
