osu file format v14

[General]
AudioFilename: 13 Get Jinxed.mp3
AudioLeadIn: 0
PreviewTime: -1
Countdown: 0
SampleSet: None
StackLeniency: 0.7
Mode: 0
LetterboxInBreaks: 1
WidescreenStoryboard: 1

[Editor]
DistanceSpacing: 0.6
BeatDivisor: 8
GridSize: 8
TimelineZoom: 1

[Metadata]
Title:Get Jinxed
TitleUnicode:Get Jinxed
Artist:Riot Games
ArtistUnicode:Riot Games
Creator:VEZOK
Version:Hard
Source:
Tags:
BeatmapID:673998
BeatmapSetID:300523

[Difficulty]
HPDrainRate:6
CircleSize:5
OverallDifficulty:2
ApproachRate:5
SliderMultiplier:1.4
SliderTickRate:1

[Events]
//Background and Video events
0,0,"jinx__bang_bang_galore___league_of_legends_by_eddy_shinjuku-d6z60yc.jpg",0,0
//Break Periods
//Storyboard Layer 0 (Background)
//Storyboard Layer 1 (Fail)
//Storyboard Layer 2 (Pass)
//Storyboard Layer 3 (Foreground)
//Storyboard Sound Samples

[TimingPoints]
5795.66666666667,833.333333333333,4,1,0,100,1,0

[Colours]
Combo1 : 128,0,255
Combo2 : 255,83,169
Combo3 : 9,119,255
Combo4 : 4,255,255
Combo5 : 255,138,21
Combo6 : 0,249,0

[HitObjects]
160,200,5899,6,0,L|96:128,1,87.5
160,104,6733,1,0,0:0:0:0:
224,152,7670,2,2,P|272:216|264:232,1,105
192,232,8712,2,0,P|192:192|160:176,1,70
104,200,9337,1,0,0:0:0:0:
192,144,9649,2,0,L|272:128,2,70
256,120,11212,5,0,0:0:0:0:
296,136,11629,1,0,0:0:0:0:
280,192,12254,2,0,P|312:208|312:248,1,70
272,264,12879,2,0,P|248:296|200:296,1,87.5
160,232,13920,1,0,0:0:0:0:
152,184,14337,1,4,0:0:0:0:
136,96,14754,2,0,P|200:144|240:80,1,175
384,144,16420,6,0,P|424:144|448:176,1,70
400,240,17254,1,0,0:0:0:0:
352,280,17670,2,0,B|296:312|288:280|280:216,1,122.5
208,240,18608,1,2,0:0:0:0:
160,168,19233,2,0,L|160:104,1,52.5
224,80,19754,1,0,0:0:0:0:
296,104,20170,2,0,L|288:176,3,70
248,216,21941,5,6,0:0:0:0:
232,296,22462,1,0,0:0:0:0:
160,320,22774,2,0,P|112:336|72:320,1,87.5
88,264,23608,2,0,P|48:216|72:160,1,105
96,88,24649,2,4,P|120:56|136:56,2,52.5
208,160,25587,1,0,0:0:0:0:
280,264,26003,1,0,0:0:0:0:
328,160,26316,2,2,B|360:160|352:232|408:232,1,105
456,184,27253,6,0,L|488:152,1,35
472,80,27566,2,0,P|448:104|408:112,1,70
344,152,28295,1,0,0:0:0:0:
392,56,28712,1,0,0:0:0:0:
280,96,29128,1,8,0:0:0:0:
280,96,29337,1,8,0:0:0:0:
224,168,29858,5,0,0:0:0:0:
240,304,30170,1,0,0:0:0:0:
160,208,30587,2,2,B|64:240|24:192|72:104,1,192.5
176,88,31837,1,8,0:0:0:0:
208,120,32045,1,8,0:0:0:0:
304,112,32358,6,0,L|352:176,1,70
296,224,32983,1,0,0:0:0:0:
256,288,33191,2,0,P|288:336|360:280,1,157.5
392,224,34441,1,8,0:0:0:0:
432,232,34649,1,8,0:0:0:0:
448,136,35170,5,0,0:0:0:0:
360,72,35378,1,4,0:0:0:0:
296,128,35587,2,2,L|304:176,1,35
256,192,36003,8,0,39961,0:0:0:0:
224,144,40378,5,0,0:0:0:0:
144,96,40691,2,2,L|144:240,1,140
208,272,41837,1,0,0:0:0:0:
304,304,42253,2,4,P|360:288|384:240,1,105
384,152,43295,5,0,0:0:0:0:
408,96,43503,2,0,L|368:48,1,52.5
288,72,43920,1,0,0:0:0:0:
224,136,44024,1,0,0:0:0:0:
216,208,44233,2,0,L|160:232,1,52.5
136,160,44858,2,0,L|104:112,1,52.5
32,128,45274,2,0,L|24:192,1,52.5
80,224,45795,5,0,0:0:0:0:
96,296,45899,2,0,L|160:320,1,52.5
232,336,46420,1,0,0:0:0:0:
224,232,46628,1,0,0:0:0:0:
176,152,46837,1,0,0:0:0:0:
176,88,47253,1,0,0:0:0:0:
208,48,47566,2,0,L|248:56,1,35
304,112,47878,1,4,0:0:0:0:
376,160,48087,1,4,0:0:0:0:
352,256,48399,5,0,0:0:0:0:
432,272,48608,1,0,0:0:0:0:
488,248,48816,1,0,0:0:0:0:
496,176,49024,2,0,L|488:128,1,35
416,72,49441,1,0,0:0:0:0:
296,64,49753,1,0,0:0:0:0:
344,128,49962,2,0,L|376:168,1,35
384,224,50274,2,0,P|400:272|368:312,1,105
248,288,51212,5,4,0:0:0:0:
296,208,51628,1,0,0:0:0:0:
224,184,52045,1,0,0:0:0:0:
176,160,52358,2,0,L|224:120,1,52.5
176,56,52878,1,0,0:0:0:0:
96,32,53087,2,8,L|32:96,1,87.5
80,160,53920,5,0,0:0:0:0:
120,224,54337,1,0,0:0:0:0:
48,280,54649,2,0,L|80:312,1,35
168,296,54962,1,0,0:0:0:0:
168,160,55170,1,0,0:0:0:0:
136,72,55587,2,0,P|160:40|216:40,1,87.5
240,80,56628,5,0,0:0:0:0:
248,168,56941,1,0,0:0:0:0:
288,248,57253,1,0,0:0:0:0:
208,280,57566,1,0,0:0:0:0:
320,328,57878,1,0,0:0:0:0:
392,256,58191,2,2,L|384:200,1,52.5
304,120,58608,1,4,0:0:0:0:
376,32,59233,5,0,0:0:0:0:
416,112,59545,1,0,0:0:0:0:
416,208,59753,2,0,L|376:184,1,35
296,128,60170,2,0,L|272:168,1,35
320,240,60691,1,0,0:0:0:0:
256,304,61003,1,0,0:0:0:0:
128,256,61212,1,0,0:0:0:0:
104,184,61628,2,4,L|120:128,1,52.5
256,192,62045,12,0,66941,0:0:0:0:
240,120,67045,5,0,0:0:0:0:
160,120,67358,1,0,0:0:0:0:
160,224,67670,1,0,0:0:0:0:
144,264,67878,1,0,0:0:0:0:
224,288,68087,1,0,0:0:0:0:
288,248,68503,1,0,0:0:0:0:
232,160,68816,1,0,0:0:0:0:
288,72,69233,1,0,0:0:0:0:
384,112,69545,1,0,0:0:0:0:
416,184,69962,1,0,0:0:0:0:
400,272,70274,1,0,0:0:0:0:
272,264,70587,1,0,0:0:0:0:
264,192,70795,1,0,0:0:0:0:
224,152,71212,1,0,0:0:0:0:
136,208,71524,1,0,0:0:0:0:
152,288,71941,1,0,0:0:0:0:
88,304,72253,1,0,0:0:0:0:
32,224,72566,6,0,L|8:176,1,52.5
64,128,73087,2,0,L|72:64,1,52.5
160,104,73712,2,2,L|192:144,1,35
256,96,74233,2,0,L|328:88,1,70
344,160,75170,6,0,L|336:208,1,35
288,240,75691,2,0,L|240:256,1,35
184,232,76420,2,4,P|144:240|96:152,1,157.5
208,80,77878,5,8,0:0:0:0:
304,96,78191,1,8,0:0:0:0:
336,184,78608,1,0,0:0:0:0:
384,248,78920,2,0,L|384:288,1,35
336,328,79545,2,0,L|272:352,1,52.5
216,280,80483,1,0,0:0:0:0:
240,200,80899,1,0,0:0:0:0:
224,144,81212,1,0,0:0:0:0:
176,96,81524,2,2,P|216:32|296:64,1,175,2|2,0:0|2:2,0:0:0:0:
368,40,82983,5,8,0:0:0:0:
456,104,83712,1,4,0:0:0:0:
344,120,84337,1,8,0:0:0:0:
248,168,84962,1,4,0:0:0:0:
360,208,85587,1,8,0:0:0:0:
240,264,86420,2,0,P|296:256|336:296,1,105
280,336,87566,1,4,0:0:0:0:
160,320,88191,5,4,0:0:0:0:
184,232,88816,1,8,0:0:0:0:
272,208,89545,1,4,0:0:0:0:
208,128,90170,1,8,0:0:0:0:
72,144,90899,1,4,0:0:0:0:
64,256,91420,1,8,0:0:0:0:
160,216,91628,1,8,0:0:0:0:
264,176,91837,2,0,P|312:192|328:272,1,140
216,304,92983,1,4,0:0:0:0:
336,304,93503,5,8,0:0:0:0:
256,200,94233,1,4,0:0:0:0:
376,208,94962,1,8,0:0:0:0:
296,120,95587,1,4,0:0:0:0:
416,128,96212,1,8,0:0:0:0:
480,216,96628,1,8,0:0:0:0:
408,288,96941,1,8,0:0:0:0:
288,240,97358,2,0,P|248:216|256:136,1,122.5
320,72,98295,5,0,0:0:0:0:
160,64,98608,1,0,0:0:0:0:
232,136,98920,1,2,0:0:0:0:
216,216,99337,5,0,0:0:0:0:
144,200,99649,2,0,P|88:192|64:152,1,105
136,96,100587,1,8,0:0:0:0:
176,56,100899,2,0,L|208:96,1,35
256,48,101212,2,0,L|296:88,1,52.5
240,168,101837,5,4,0:0:0:0:
288,208,102045,1,0,0:0:0:0:
288,280,102253,2,0,L|320:312,1,35
384,280,102566,1,0,0:0:0:0:
416,216,102878,2,0,L|456:184,1,35
400,136,103295,2,0,L|352:144,1,35
376,48,103608,1,2,0:0:0:0:
304,48,103920,2,0,L|240:64,1,52.5
272,136,104441,5,0,0:0:0:0:
336,168,104649,2,4,L|320:216,1,35
272,248,105066,1,0,0:0:0:0:
248,320,105378,2,0,L|200:336,1,35
176,248,105795,1,0,0:0:0:0:
216,152,106212,2,0,L|192:88,1,52.5
136,48,106733,1,8,0:0:0:0:
48,96,106837,1,8,0:0:0:0:
16,208,107149,5,0,0:0:0:0:
88,288,107462,1,0,0:0:0:0:
120,192,107670,1,0,0:0:0:0:
200,248,107878,1,0,0:0:0:0:
288,296,108191,1,2,0:0:0:0:
376,240,108503,1,0,0:0:0:0:
352,144,108712,2,0,L|272:192,1,87.5
232,72,109858,5,4,0:0:0:0:
288,40,110274,1,0,0:0:0:0:
368,96,110587,1,0,0:0:0:0:
432,160,110899,2,0,L|368:216,1,70
384,280,111524,1,8,0:0:0:0:
280,288,111733,2,0,L|264:208,1,70
160,120,112670,5,8,0:0:0:0:
72,160,112983,1,0,0:0:0:0:
112,216,113191,1,0,0:0:0:0:
192,256,113503,1,4,0:0:0:0:
288,272,113920,1,4,0:0:0:0:
376,304,114441,2,0,L|424:264,1,52.5
408,176,115274,5,0,0:0:0:0:
360,104,115587,1,8,0:0:0:0:
304,168,115899,1,8,0:0:0:0:
304,256,116212,1,8,0:0:0:0:
144,192,116524,1,0,0:0:0:0:
128,80,116733,2,0,L|168:40,1,52.5
248,104,117253,1,4,0:0:0:0:
128,168,117878,5,0,0:0:0:0:
200,264,118295,1,0,0:0:0:0:
280,336,118503,2,0,L|312:312,1,35
360,224,118816,2,0,L|328:192,1,35
200,168,119233,1,0,0:0:0:0:
264,56,119545,1,2,0:0:0:0:
280,136,119962,1,0,0:0:0:0:
304,240,120274,2,0,L|280:296,1,52.5
256,192,120691,12,0,125170,0:0:0:0:
256,192,125691,12,0,129962,0:0:0:0:
136,264,130066,6,0,L|160:216,1,52.5
224,192,130587,1,2,0:0:0:0:
304,248,130899,2,4,B|384:280|432:264|408:192,1,157.5
