osu file format v11

[General]
AudioFilename: Bokura no Tsubasa.mp3
AudioLeadIn: 1200
PreviewTime: 59170
Countdown: 0
SampleSet: Soft
StackLeniency: 0.7
Mode: 0
LetterboxInBreaks: 0

[Editor]
Bookmarks: 20394,33456,46517
DistanceSpacing: 1.2
BeatDivisor: 4
GridSize: 4

[Metadata]
Title:Bokura no Tsubasa (TV Size)
TitleUnicode:僕らの翼 (TV Size)
Artist:Rinjinbu
ArtistUnicode:隣人部
Creator:popner
Version:Insane
Source:Boku wa Tomodachi ga Sukunai NEXT
Tags:ending Fumika Netsukawa mikazuki yozora kashiwazaki sena kusunoki yukimura shiguma rika hasegawa kodato takayama maria inoue marina itou kanae yamamoto nozomi fukuen misato hanazawa kana iguchi yuka
BeatmapID:209895
BeatmapSetID:73769

[Difficulty]
HPDrainRate:6
CircleSize:4
OverallDifficulty:7
ApproachRate:8
SliderMultiplier:1.6
SliderTickRate:1

[Events]
//Background and Video events
0,0,"BG.jpg"
Video,305,"ED.avi"
//Break Periods
//Storyboard Layer 0 (Background)
//Storyboard Layer 1 (Fail)
//Storyboard Layer 2 (Pass)
//Storyboard Layer 3 (Foreground)
//Storyboard Sound Samples
//Background Colour Transformations
3,100,163,162,255

[TimingPoints]
803,408.163265306122,4,2,1,30,1,0
2435,-100,4,2,1,60,0,0
7129,-100,4,2,1,40,0,0
7537,-100,4,2,1,65,0,0
7741,-100,4,2,1,45,0,0
7945,-100,4,2,1,65,0,0
8149,-100,4,2,1,50,0,0
8354,-100,4,2,1,65,0,0
8558,-100,4,2,1,55,0,0
8762,-100,4,2,1,70,0,0
20802,-100,4,2,1,60,0,0
59374,-100,4,2,1,50,0,1
59578,-100,4,2,1,70,0,1
72435,-100,4,2,1,50,0,1
72639,-100,4,2,1,70,0,1
85496,-100,4,2,1,50,0,0
85700,-100,4,2,1,40,0,0
86109,-100,4,2,1,20,0,0
86517,-100,4,2,1,10,0,0
87333,-100,4,2,1,5,0,0

[Colours]
Combo1 : 0,244,233
Combo2 : 177,0,244
Combo3 : 244,214,0
Combo4 : 244,86,0

[HitObjects]
220,244,803,1,0,0:0:0
220,244,1211,1,0,0:0:0
220,244,1619,1,0,0:0:0
220,244,2027,1,0,0:0:0
152,80,2435,6,0,P|140:120|140:160,1,80,2|0,0:0|0:0,0:0:0
300,120,2843,2,0,P|311:160|308:204,1,80,2|0,0:0|0:0,0:0:0
280,292,3251,1,2,0:0:0
152,280,3456,1,0,0:0:0
224,168,3660,1,2,0:0:0
284,296,3864,1,0,0:0:0
72,328,4068,6,0,P|64:288|68:244,1,80,2|0,0:0|0:0,0:0:0
104,72,4476,2,0,P|112:112|108:156,1,80,2|0,0:0|0:0,0:0:0
220,244,4884,1,2,0:0:0
220,244,5088,1,0,0:0:0
344,168,5292,1,2,0:0:0
344,168,5496,1,0,0:0:0
464,232,5700,6,0,P|460:316,1,80,2|0,0:0|0:0,0:0:0
304,368,6109,2,0,P|307:288,1,80,2|0,0:0|0:0,0:0:0
320,96,6517,1,2,0:0:0
444,68,6721,1,0,0:0:0
412,188,6925,1,2,0:0:0
320,96,7129,6,0,P|248:80|160:88,1,160,8|0,0:0|0:0,0:0:0
188,264,7741,2,0,P|228:272|268:268,1,80,8|8,0:0|0:0,0:0:0
236,176,8149,1,8,0:0:0
104,216,8354,1,2,0:0:0
92,240,8456,1,2,0:0:0
88,264,8558,1,8,0:0:0
164,360,8762,6,0,P|240:344|324:352,1,160,0|0,0:0|0:0,0:0:0
496,296,9374,2,0,P|456:304|416:300,1,80,8|0,0:0|0:0,0:0:0
304,216,9782,2,0,P|344:208|384:212,2,80,2|0|8,0:0|0:0|0:0,0:0:0
192,280,10394,1,0,0:0:0
76,228,10598,6,0,P|68:148,1,80,2|0,0:0|0:0,0:0:0
128,56,11007,1,8,0:0:0
224,112,11211,2,0,P|264:120|308:116,1,80,0|2,0:0|0:0,0:0:0
408,88,11619,2,0,P|400:168,1,80,0|8,0:0|0:0,0:0:0
424,316,12027,6,0,P|384:308|340:312,1,80,0|2,0:0|0:0,0:0:0
272,372,12435,1,0,0:0:0
216,292,12639,1,8,0:0:0
140,352,12843,2,0,P|72:336|56:256,1,160
140,212,13456,1,8,0:0:0
224,168,13660,6,0,P|208:88|140:72,1,160,0|0,0:0|0:0,0:0:0
60,164,14272,1,8,0:0:0
196,264,14476,2,0,P|236:264|276:256,1,80
424,172,14884,1,2,0:0:0
424,172,14986,1,0,0:0:0
424,172,15088,1,8,0:0:0
348,32,15292,6,0,P|308:92|332:172,1,160
400,272,15905,2,0,P|416:312|416:348,1,80,8|0,0:0|0:0,0:0:0
252,348,16313,2,0,P|172:360,2,80,2|0|8,0:0|0:0|0:0,0:0:0
200,268,16925,2,0,P|120:268,1,80,0|2,0:0|0:0,0:0:0
148,176,17333,2,0,P|64:160,1,80,0|8,0:0|0:0,0:0:0
292,128,17741,6,0,P|376:112,1,80,0|2,0:0|0:0,0:0:0
352,208,18150,2,0,P|432:208,1,80,0|8,0:0|0:0,0:0:0
500,140,18558,1,0,0:0:0
472,296,18762,6,0,P|468:336|476:376,2,80,2|0|8,0:0|0:0|0:0,0:0:0
352,208,19374,2,0,P|312:204|272:212,1,80,0|2,0:0|0:0,0:0:0
184,280,19782,1,2,0:0:0
188,304,19884,1,0,0:0:0
192,328,19986,1,8,0:0:0
336,284,20190,2,0,P|352:208|328:132,1,160
260,64,20802,5,2,0:0:0
260,64,21211,1,2,0:0:0
260,64,21619,1,2,0:0:0
128,112,21823,6,0,P|108:272,1,160
216,148,22435,1,2,0:0:0
40,72,22639,2,0,P|20:232,1,160
128,112,23251,1,2,0:0:0
128,112,23456,2,0,P|200:148|276:136,1,160
360,92,24068,5,2,0:0:0
360,92,24476,1,2,0:0:0
360,92,24884,1,2,0:0:0
480,144,25088,6,0,P|504:216|492:300,1,160
288,292,25700,1,2,0:0:0
392,204,25905,2,0,P|396:284|364:356,1,160
220,364,26517,1,2,0:0:0
96,296,26721,6,0,P|92:216|124:144,1,160
308,228,27333,2,0,P|308:272|288:308,1,80,2|0,0:0|0:0,0:0:0
180,272,27741,2,0,P|180:228|200:192,1,80,2|0,0:0|0:0,0:0:0
276,140,28149,1,2,0:0:0
372,160,28354,6,0,P|448:168|496:108,1,160
304,32,28966,2,0,P|224:40,1,80,2|0,0:0|0:0,0:0:0
44,108,29374,2,0,P|128:120,1,80,2|0,0:0|0:0,0:0:0
276,140,29782,1,2,0:0:0
152,216,29986,6,0,P|128:288|140:372,1,160
276,344,30598,2,0,P|316:340|356:340,1,80,2|0,0:0|0:0,0:0:0
440,256,31007,1,2,0:0:0
328,232,31211,2,0,P|288:236|248:236,1,80,0|2,0:0|0:0,0:0:0
400,152,31619,6,0,P|440:148|480:148,2,80,0|2|0,0:0|0:0|0:0,0:0:0
304,156,32231,1,2,0:0:0
360,236,32435,1,0,0:0:0
340,64,32639,2,0,P|300:64|260:68,1,80,2|0,0:0|0:0,0:0:0
104,104,33047,1,2,0:0:0
176,248,33251,2,0,P|180:336,1,80,8|0,0:0|0:0,0:0:0
360,236,33660,5,0,0:0:0
272,276,33864,2,0,P|284:356,1,80,2|0,0:0|0:0,0:0:0
436,176,34272,1,2,0:0:0
360,236,34476,2,0,P|384:316,1,80,0|2,0:0|0:0,0:0:0
492,100,34884,6,0,P|436:76|380:100|380:100|352:140,1,160
436,176,35496,1,2,0:0:0
300,64,35700,2,0,P|274:100|274:100|218:124|162:100,1,160
216,20,36313,1,2,0:0:0
300,64,36517,1,0,0:0:0
320,160,36721,1,2,0:0:0
260,232,36925,5,0,0:0:0
164,240,37129,2,0,P|156:320,1,80,2|0,0:0|0:0,0:0:0
208,148,37537,1,2,0:0:0
76,192,37741,2,0,P|56:272,1,80,0|2,0:0|0:0,0:0:0
112,44,38149,6,0,P|184:64|268:56,1,160
408,20,38762,1,2,0:0:0
360,160,38966,2,0,P|352:204|356:244,1,80,0|2,0:0|0:0,0:0:0
504,296,39374,2,0,P|512:252|508:212,1,80,0|2,0:0|0:0,0:0:0
276,136,39782,6,0,P|264:216|280:292,1,160
444,188,40394,2,0,P|444:148|436:108,1,80,2|0,0:0|0:0,0:0:0
312,68,40802,1,2,0:0:0
200,136,41007,1,0,0:0:0
316,200,41211,1,2,0:0:0
236,68,41415,6,0,P|160:56|80:80,1,160
104,272,42027,2,0,P|144:280|188:280,1,80,2|0,0:0|0:0,0:0:0
276,260,42435,1,2,0:0:0
24,160,42639,2,0,P|12:244,1,80,0|2,0:0|0:0,0:0:0
180,184,43047,6,0,P|256:168|340:176,1,160
424,260,43660,2,0,P|432:340,1,80,2|0,0:0|0:0,0:0:0
472,152,44068,2,0,P|464:72,2,80,2|0|2,0:0|0:0|0:0,0:0:0
320,308,44680,6,0,P|244:324|160:316,2,160,2|0|0,0:0|0:0|0:0,0:0:0
380,156,45700,1,2,0:0:0
248,236,45905,1,0,0:0:0
400,252,46109,1,0,0:0:0
284,148,46313,6,0,P|204:128|124:140,1,160,8|0,0:0|0:0,0:0:0
96,252,46925,2,0,P|136:252|176:244,1,80,8|0,0:0|0:0,0:0:0
152,28,47333,2,0,P|112:28|72:36,1,80,2|0,0:0|0:0,0:0:0
0,100,47741,1,2,0:0:0
156,140,47945,6,0,P|232:148|312:128,1,160
364,24,48558,2,0,P|324:16|284:16,1,80,8|0,0:0|0:0,0:0:0
260,232,48966,2,0,P|300:240|340:240,2,80,2|0|2,0:0|0:0|0:0,0:0:0
112,80,49578,6,0,P|116:160|100:240,1,160
180,320,50190,1,8,0:0:0
272,252,50394,2,0,P|268:172|284:92,1,160
384,48,51007,1,2,0:0:0
468,120,51211,6,0,P|472:160|468:200,1,80,0|2,0:0|0:0,0:0:0
400,268,51619,1,0,0:0:0
380,280,51721,1,0,0:0:0
360,292,51823,1,8,0:0:0
272,252,52027,2,0,P|192:232|112:248,2,160,2|2|2,0:0|0:0|0:0,0:0:0
348,192,53047,5,2,0:0:0
372,100,53251,2,0,P|376:60|368:20,1,80,0|8,0:0|0:0,0:0:0
284,64,53660,1,0,0:0:0
200,24,53864,2,0,P|160:16|120:16,1,80,2|0,0:0|0:0,0:0:0
40,64,54272,1,2,0:0:0
68,208,54476,6,0,P|148:226|224:214,1,160
368,144,55088,2,0,P|376:224,1,80,8|0,0:0|0:0,0:0:0
300,384,55496,2,0,P|292:304,1,80,2|0,0:0|0:0,0:0:0
368,144,55905,1,2,0:0:0
504,260,56109,6,0,P|448:316|372:304,1,160,8|0,0:0|0:0,0:0:0
192,228,56721,2,0,P|232:216|272:216,1,80,8|0,0:0|0:0,0:0:0
420,232,57129,1,2,0:0:0
288,300,57333,1,0,0:0:0
292,144,57537,1,8,0:0:0
372,304,57741,6,0,P|328:372|252:376,1,160,0|8,0:0|0:0,0:0:0
120,228,58354,1,8,0:0:0
248,72,58558,1,2,0:0:0
276,62,58660,1,0,0:0:0
306,62,58762,1,2,0:0:0
334,73,58864,1,0,0:0:0
356,92,58966,2,0,P|368:172,1,80,8|8,0:0|0:0,0:0:0
288,300,59374,6,0,P|212:320|132:308,1,160,4|0,0:0|0:0,0:0:0
20,192,59986,2,0,P|60:184|100:188,1,80,8|0,0:0|0:0,0:0:0
248,72,60394,2,0,P|208:80|168:76,1,80,2|0,0:0|0:0,0:0:0
76,52,60802,1,8,0:0:0
32,276,61007,6,0,P|28:316|36:360,1,80,0|2,0:0|0:0,0:0:0
200,246,61415,2,0,P|204:212|196:168,2,80,0|8|0,0:0|0:0|0:0,0:0:0
156,368,62027,1,2,0:0:0
280,336,62231,2,0,P|360:328,1,80,0|8,0:0|0:0,0:0:0
444,204,62639,6,0,P|468:276|456:360,1,160
296,248,63251,2,0,P|296:208|304:168,1,80,8|0,0:0|0:0,0:0:0
340,44,63660,1,2,0:0:0
380,208,63864,1,0,0:0:0
220,152,64068,1,8,0:0:0
456,96,64272,6,0,P|484:160|464:248,1,160
380,296,64884,1,8,0:0:0
296,248,65088,2,0,P|220:232|144:260,1,160
76,328,65700,1,8,0:0:0
32,192,65905,6,0,P|20:112|20:112|48:80|88:72,1,160
244,104,66517,2,0,P|212:128|172:140,1,80,8|0,0:0|0:0,0:0:0
172,44,66925,1,2,0:0:0
324,64,67129,1,0,0:0:0
172,44,67333,1,8,0:0:0
174,139,67537,6,0,P|180:212|180:212|220:232|268:224,1,160
416,160,68149,2,0,P|376:148|336:148,1,80,8|0,0:0|0:0,0:0:0
364,240,68558,1,2,0:0:0
496,208,68762,1,0,0:0:0
364,240,68966,1,8,0:0:0
444,284,69170,6,0,P|400:352|400:352|360:356|320:336,1,160
260,268,69782,1,8,0:0:0
192,200,69986,2,0,P|155:181|115:185|115:185|71:253,1,160
156,296,70598,1,8,0:0:0
288,176,70802,6,0,P|364:200|444:188,1,160
372,44,71415,1,8,0:0:0
216,104,71619,1,2,0:0:0
198,128,71721,1,0,0:0:0
188,156,71823,1,2,0:0:0
185,186,71925,1,0,0:0:0
191,215,72027,2,0,P|212:248|248:272,1,80,8|8,0:0|0:0,0:0:0
440,188,72435,6,0,P|456:264|440:348,1,160,4|0,0:0|0:0,0:0:0
352,384,73047,1,8,0:0:0
268,340,73251,1,0,0:0:0
180,376,73456,2,0,P|140:380|100:372,1,80,2|0,0:0|0:0,0:0:0
152,200,73864,1,8,0:0:0
224,276,74068,6,0,P|148:288|68:264,1,160
28,180,74680,1,8,0:0:0
56,88,74884,1,0,0:0:0
140,44,75088,2,0,P|220:40,1,80,2|0,0:0|0:0,0:0:0
344,68,75496,1,8,0:0:0
260,164,75700,6,0,P|240:236|252:320,1,160
480,256,76313,2,0,P|484:216|476:176,1,80,8|0,0:0|0:0,0:0:0
412,104,76721,1,2,0:0:0
336,164,76925,1,0,0:0:0
272,92,77129,1,8,0:0:0
192,156,77333,6,0,P|108:176|40:148,1,160
120,92,77945,1,8,0:0:0
244,236,78149,2,0,P|172:268|88:268,1,160
0,236,78762,1,8,0:0:0
120,92,78966,6,0,P|196:68|272:92,1,160
324,208,79578,2,0,P|332:288,1,80,8|0,0:0|0:0,0:0:0
432,144,79986,2,0,P|436:64,1,80,2|0,0:0|0:0,0:0:0
496,252,80394,1,8,0:0:0
396,320,80598,6,0,P|316:344|240:336,1,160
148,256,81211,1,8,0:0:0
192,140,81415,2,0,P|272:116|348:124,1,160,8|0,0:0|0:0,0:0:0
424,180,82027,1,8,0:0:0
264,252,82231,6,0,P|188:264|104:240,1,160
36,92,82843,1,8,0:0:0
200,60,83047,2,0,P|200:100|192:140,1,80,0|2,0:0|0:0,0:0:0
101,322,83456,2,0,P|101:282|109:242,1,80,0|8,0:0|0:0,0:0:0
296,164,83864,2,0,P|336:160|376:168,1,80,0|2,0:0|0:0,0:0:0
440,312,84272,5,2,0:0:0
416,320,84374,1,0,0:0:0
392,328,84476,1,8,0:0:0
320,260,84680,1,2,0:0:0
296,256,84782,1,0,0:0:0
272,252,84884,1,2,0:0:0
248,248,84986,1,0,0:0:0
224,244,85088,2,0,P|184:244|144:260,1,80,8|8,0:0|0:0,0:0:0
204,336,85496,1,4,0:0:0
256,192,85700,12,0,88149,0:0:0
