osu file format v9

[General]
AudioFilename: Bloody Moon.mp3
AudioLeadIn: 1500
PreviewTime: 78650
Countdown: 0
SampleSet: Soft
StackLeniency: 0.7
Mode: 0
LetterboxInBreaks: 1

[Editor]
DistanceSpacing: 1.2
BeatDivisor: 4
GridSize: 8

[Metadata]
Title:Bloody Moon (Short Ver.)
Artist:Ringo Aoba
Creator:Athena Tennos
Version:Lunar
Source:Bloody Rondo
Tags:Gothic Jpop Apple OP short ver Ringo Aoba

[Difficulty]
HPDrainRate:8
CircleSize:4
OverallDifficulty:6
ApproachRate:9
SliderMultiplier:1.8
SliderTickRate:1

[Events]
//Background and Video events
0,0,"bloody moon.jpg"
Video,0,"BloodyRondoOP_Bloody_Moon.flv"
//Break Periods
2,24884,30084
//Storyboard Layer 0 (Background)
//Storyboard Layer 1 (Fail)
//Storyboard Layer 2 (Pass)
//Storyboard Layer 3 (Foreground)
//Storyboard Sound Samples
//Background Colour Transformations
3,100,163,162,255

[TimingPoints]
684,375,4,2,1,50,1,0
12616,-100,4,2,1,50,0,0
30682,-100,4,2,1,100,0,0
78679,-100,4,2,1,50,0,1
117301,-100,4,2,1,50,0,0
120863,-200,4,2,1,5,0,0

[Colours]
Combo1 : 250,160,219
Combo2 : 185,32,128
Combo3 : 21,143,234
Combo4 : 255,111,106
Combo5 : 233,143,22
Combo6 : 63,248,252
Combo7 : 255,255,255

[HitObjects]
144,72,684,1,0
96,176,871,1,0
152,272,1059,2,0,B|200:320|248:320,1,90,8|0
256,208,1434,1,0
268,96,1621,1,0
360,40,1809,2,0,B|424:148|376:232|376:232,1,180,8|0
320,304,2371,5,0
208,296,2559,1,8
304,232,2746,1,0
192,216,2934,1,0
128,128,3121,1,0
232,88,3309,2,0,B|340:96|364:224,1,180,8|0
288,300,3871,5,0
400,328,4059,1,8
472,240,4246,1,0
452,128,4434,1,0
376,44,4621,1,0
264,40,4809,2,0,B|176:88|112:168,1,180,8|0
136,264,5371,1,0
216,344,5559,1,8
200,224,5746,1,0
152,320,5934,1,0
264,280,6121,1,0
368,256,6309,2,0,B|420:152|384:64,1,180,8|2
288,104,6871,5,0
184,72,7059,1,8
88,128,7246,1,0
56,232,7434,2,0,B|36:328,1,90,2|0
144,292,7809,2,0,B|228:216|192:128,1,180,8|2
280,200,8371,1,0
344,288,8559,2,0,B|436:336,1,90,8|0
440,224,8934,2,0,B|352:180,1,90,2|0
432,104,9309,2,0,B|352:28|244:28,1,180,8|2
176,72,9871,5,0
248,152,10059,1,8
152,200,10246,1,0
240,264,10434,2,0,B|196:316|144:324,1,90,2|0
64,312,10809,2,0,B|40:216|72:112,1,180,8|0
256,192,11278,12,0,12121
344,80,12309,6,0,B|384:120,3,45
344,80,12684,2,0,B|264:40|152:88,1,180
96,160,13246,1,0
40,256,13434,1,0
88,280,13527,1,0
136,256,13621,1,0
192,160,13809,2,0,B|240:192|248:248|240:272,2,90
296,136,14371,1,0
400,160,14559,1,0
456,248,14746,1,0
432,352,14934,2,0,B|368:360|232:344,1,180
336,280,15496,1,0
248,216,15684,2,0,B|208:176|144:208,1,90
200,304,16059,2,0,B|128:320|96:272,1,90
120,184,16434,2,0,B|72:208|48:264,1,90
168,240,16809,2,0,B|208:200|184:128,1,90
88,120,17184,2,0,B|136:32|264:80,1,180
336,128,17746,1,0
360,232,17934,1,0
464,232,18121,2,0,B|488:280,2,45
232,184,18496,2,0,B|256:112|280:64,1,90
208,56,18871,2,0,B|272:24,2,45
160,128,19246,1,0
88,272,19434,2,0,B|48:360,1,90
168,320,19809,2,0,B|200:224,1,90
296,208,20184,1,0
296,208,20277,1,0
296,208,20371,1,0
392,160,20559,1,0
328,72,20746,1,0
216,80,20934,2,0,B|144:64|128:112,1,90
72,184,21309,2,0,B|144:224|176:160,1,90
440,56,21684,2,0,B|392:120|488:128|400:192|456:240,1,180
256,192,22246,1,0
120,336,22434,2,0,B|64:288|184:240|80:224|136:184,2,135
256,272,23184,5,0
224,288,23277,1,0
192,304,23371,1,0
120,216,23559,1,4
96,184,23652,1,4
80,160,23746,1,4
144,80,23934,1,4
168,56,24027,1,4
192,32,24121,1,4
288,128,24309,1,0
328,128,24402,1,0
360,128,24496,1,0
256,192,24684,1,0
320,64,30684,5,0
408,48,30871,1,0
416,72,30965,1,0
416,96,31059,2,0,B|432:160|368:160|360:160,2,90
168,56,31809,5,0
168,56,31996,1,0
80,168,32184,1,0
64,224,32371,5,0
72,248,32465,1,0
96,264,32559,2,0,B|136:288|184:264,2,90
288,208,33121,5,0
256,128,33309,1,0
376,208,33496,1,0
320,72,33684,5,0
392,120,33871,1,0
248,24,34059,1,0
104,88,34246,1,0
48,240,34434,6,0,B|48:352,1,90
168,344,34809,1,0
384,160,35184,5,0
128,48,35559,1,0
176,152,35746,5,0
176,184,35840,1,0
184,208,35934,2,0,B|216:272|288:264,2,90
296,64,36496,1,0
472,64,36684,5,0
248,32,37059,1,0
144,64,37246,1,0
120,80,37340,1,0
104,104,37434,2,0,B|64:144|72:208,1,90
112,272,37809,5,0
240,328,37996,1,0
88,344,38184,1,0
304,168,38559,5,0
168,192,38746,1,0
288,248,38934,6,0,B|304:296|352:304,1,90
480,184,39309,1,0
408,344,39496,1,0
256,240,39684,1,0
240,208,39777,1,0
224,176,39871,1,0
88,56,40059,1,0
104,96,40152,1,0
120,128,40246,1,0
296,144,40434,1,0
328,120,40527,1,0
360,96,40621,1,0
304,48,40809,5,0
376,24,40996,1,0
432,80,41184,2,0,B|440:136|384:168,1,90
344,200,41559,1,0
368,264,41746,1,0
336,272,41840,1,0
312,264,41934,1,0
280,160,42121,1,0
280,160,42309,1,0
280,160,42684,6,0,B|240:128|192:152,1,90
112,184,43059,1,0
56,248,43246,1,0
48,272,43340,1,0
48,296,43434,2,0,B|64:368|136:352,1,90
248,320,43809,6,0,B|232:248|168:256,1,90
144,304,44184,1,0
128,232,44371,1,0
184,184,44559,1,0
200,256,44746,1,0
232,264,44840,1,0
264,272,44934,2,0,B|312:272|336:224,1,90
408,312,45309,5,0
288,248,45496,1,0
408,312,45684,1,0
288,248,45871,2,0,B|272:192|360:192,1,90
472,80,46246,2,0,B|488:144|400:136,1,90
384,168,46621,5,0
304,56,46809,1,0
248,112,46996,1,0
384,88,47184,1,0
288,224,47371,5,0
280,248,47465,1,0
264,264,47559,1,0
240,272,47652,1,0
216,272,47746,1,0
144,224,47934,1,0
144,304,48121,1,0
224,200,48309,2,0,B|200:176|168:152,2,45
64,128,48684,5,0
104,24,48871,1,0
200,80,49059,2,0,B|232:128|288:64,1,90
344,56,49434,1,0
472,120,49621,5,0
472,120,49715,1,0
472,120,49809,1,0
464,240,49996,5,0
464,240,50090,1,0
464,240,50184,2,0,B|512:288|448:312,1,90
400,344,50559,5,0
256,328,50746,2,0,B|200:352|184:296,1,90
256,192,51121,2,0,B|312:176|328:224,1,90
120,240,51496,1,0
208,96,51684,5,0
184,272,51871,1,0
128,104,52059,5,0
248,240,52246,1,0
208,304,52434,2,0,B|192:376|112:320,1,90
88,304,52809,1,0
184,200,52996,1,0
256,192,53184,12,0,54309
440,104,54684,6,0,B|416:64|368:56,1,90
440,280,55059,6,0,B|416:328|368:328,1,90
352,232,55434,5,0
256,192,55621,1,0
368,176,55809,1,0
240,232,55996,2,0,B|232:304|160:248,1,90
80,200,56371,5,0
152,80,56559,1,0
24,144,56746,1,0
160,160,56934,1,0
240,48,57121,1,0
352,136,57309,2,0,B|408:160|448:88,1,90
312,112,57684,5,0
376,64,57871,1,0
384,288,58059,1,0
440,240,58246,1,0
272,312,58434,2,0,B|168:296|176:264,2,90
160,264,58996,1,0
152,232,59090,1,0
160,200,59184,2,0,B|160:144|224:152,1,90
296,136,59559,5,0
368,184,59746,1,0
224,176,59934,1,0
360,216,60121,2,0,B|416:208|464:256,1,90
416,304,60496,1,0
352,336,60684,5,0
192,248,60871,1,0
368,264,61059,1,0
200,320,61246,1,0
144,272,61434,5,0
120,240,61527,1,0
104,208,61621,1,0
112,176,61715,1,0
136,144,61809,2,0,B|168:104|224:104,1,90
376,176,62184,6,0,B|344:240|312:176,1,90
120,72,62559,6,0,B|144:8|184:72,1,90
256,280,62934,6,0,B|224:344|192:280,1,90
400,208,63309,1,0
432,184,63402,1,0
456,152,63496,1,0
448,80,63684,6,0,B|408:80|392:96|392:96|384:128|384:128|376:96|376:96|360:80|312:72,1,180
256,56,64246,2,0,B|220:73|198:66|198:66|176:40|176:40|184:73|184:73|176:94|137:122,1,180
104,168,64809,1,0
96,200,64902,1,0
104,232,64996,1,0
264,312,65184,6,0,B|304:352|368:336,1,90
264,176,65559,2,0,B|224:128|160:144,1,90
40,248,65934,1,0
200,328,66121,1,0
136,160,66309,1,0
120,336,66496,5,0
136,160,66684,5,0
112,136,66777,1,0
128,104,66871,2,0,B|112:32|216:80,1,90
272,72,67246,1,0
432,144,67434,1,0
256,184,67621,1,0
432,144,67809,5,0
416,176,67902,1,0
400,208,67996,1,0
240,296,68184,5,0
264,264,68277,1,0
288,232,68371,1,0
456,288,68559,1,0
424,272,68652,1,0
392,248,68746,1,0
280,104,68934,1,0
328,280,69121,1,0
368,104,69309,1,0
248,240,69496,1,0
112,264,69684,6,0,B|112:168,1,90
280,72,70059,6,0,B|280:160,1,90
448,344,70434,6,0,B|448:240,1,90
296,344,70809,5,0
160,224,70996,5,0
144,192,71090,1,0
152,160,71184,2,0,B|192:128|248:128,1,90
432,240,71559,6,0,B|392:280|320:224,1,90
368,48,71934,6,0,B|416:24|472:48,1,90
208,112,72309,6,0,B|168:128|120:80,1,90
72,192,72684,5,0
136,312,72871,5,0
136,312,72965,1,0
136,312,73059,1,0
272,288,73246,5,0
272,288,73340,1,0
272,288,73434,1,0
176,240,73621,2,0,B|184:192|256:184,1,90
384,112,73996,6,0,B|376:160|288:168,1,90
264,48,74371,1,0
456,128,74559,1,0
440,32,74746,5,0
280,176,74934,5,0
280,176,75027,1,0
280,176,75121,1,0
152,88,75309,5,0
152,88,75402,1,0
152,88,75496,1,0
256,192,75684,12,0,78309
96,136,78684,5,0
104,96,78777,1,0
136,72,78871,1,0
184,168,79059,1,0
192,208,79152,1,0
224,232,79246,1,0
288,144,79434,1,0
296,104,79527,1,0
328,80,79621,1,0
384,176,79809,1,0
392,216,79902,1,0
424,232,79996,1,0
488,144,80184,5,0
136,304,80559,5,0
176,168,80746,5,0
312,192,80934,5,0
256,288,81121,2,0,B|304:344,2,45
392,328,81496,2,0,B|352:280,2,45
448,264,81871,5,0
456,184,82059,1,0
432,104,82246,5,0
432,72,82340,1,0
416,48,82434,2,0,B|344:-16|240:56,1,180
256,232,82996,1,0
184,64,83184,5,0
104,224,83371,1,0
240,336,83559,1,0
152,176,83746,1,0
296,288,83934,6,0,B|344:312|392:288,1,90
512,208,84309,2,0,B|456:176|400:224,1,90
312,344,84684,6,0,B|272:320|296:256,1,90
392,112,85059,1,0
248,24,85246,1,0
120,152,85434,2,0,B|72:112|72:112,2,45
120,336,85809,5,0
224,192,85996,1,0
48,232,86184,1,0
160,88,86371,1,0
256,240,86559,1,0
424,184,86746,5,0
368,352,86934,1,0
336,208,87121,1,0
400,280,87309,5,0
304,296,87496,1,0
336,128,87684,6,0,B|272:96|282:181,1,90
176,312,88059,6,0,B|240:352|236:266,1,90
88,264,88434,5,0
24,168,88621,1,0
168,232,88809,5,0
112,104,88996,1,0
256,216,89184,1,0
240,64,89371,1,0
344,232,89559,1,0
384,64,89746,1,0
424,240,89934,5,0
416,208,90027,1,0
400,176,90121,2,0,B|360:144|296:152,2,90
168,120,90684,5,0
208,256,90871,1,0
344,120,91059,1,0
304,256,91246,1,0
56,200,91434,1,0
152,304,91621,1,0
456,200,91809,1,0
360,304,91996,1,0
256,208,92184,5,0
128,264,92371,2,0,B|80:248|80:248|80:184|80:184,1,90
96,160,92746,1,0
112,144,92840,1,0
136,128,92934,2,0,B|184:112|184:112|184:56|184:56,1,90
360,16,93309,5,0
384,192,93496,1,0
224,112,93684,5,0
400,104,93871,1,0
328,272,94059,1,0
232,120,94246,5,0
176,288,94434,1,0
352,248,94621,2,0,B|312:280|312:280|264:272|264:272,1,90
232,240,94996,1,0
224,216,95090,1,0
224,192,95184,6,0,B|224:128|224:128,2,45
352,136,95559,6,0,B|416:136|416:136,2,45
240,48,95934,1,0
216,40,96027,1,0
184,40,96121,1,0
160,48,96215,1,0
136,64,96309,1,0
120,88,96402,1,0
104,112,96496,1,0
96,136,96590,1,0
96,160,96684,6,0,B|96:208|96:208|136:240|136:240,1,90
288,328,97059,2,0,B|288:280|288:280|256:248|256:248,1,90
224,80,97434,6,0,B|224:128|224:128|264:160|264:160,1,90
432,144,97809,2,0,B|432:192|432:192|392:224|392:224,1,90
96,40,98184,6,0,B|96:88|96:88|136:120|136:120,1,90
360,336,98559,2,0,B|392:304|392:304|392:256|392:256,1,90
336,144,98934,5,0
312,128,99027,1,0
288,120,99121,1,0
264,120,99215,1,0
240,128,99309,5,0
216,144,99402,1,0
200,168,99496,1,0
192,192,99590,1,0
192,216,99684,5,0
256,344,99871,1,0
280,256,100059,1,0
104,336,100246,1,0
48,264,100434,5,0
112,136,100621,1,0
232,56,100809,1,0
368,40,100996,1,0
376,176,101184,1,0
376,176,101277,1,0
376,176,101371,1,0
240,256,101559,5,0
152,136,101746,1,0
152,136,101840,1,0
152,136,101934,1,0
344,80,102121,5,0
368,264,102309,1,0
368,264,102402,1,0
368,264,102496,1,0
176,232,102684,5,0
112,272,102871,1,0
64,336,103059,1,0
48,200,103246,1,0
112,80,103434,2,0,B|160:48|200:56,1,90
272,160,103809,6,0,B|240:184|184:184,1,90
288,64,104184,6,0,B|344:48|400:88,2,90
472,56,104746,1,0
344,184,104934,1,0
216,56,105121,1,0
384,112,105309,1,0
392,248,105496,1,0
328,200,105684,6,0,B|312:136|232:192,1,90
40,224,106059,1,0
144,80,106246,2,0,B|216:128|216:128|192:192|240:216,1,180
440,40,106809,1,0
304,160,106996,1,0
152,64,107184,2,0,B|152:152,1,90
360,64,107559,2,0,B|360:152,1,90
88,192,107934,2,0,B|88:280,1,90
424,192,108309,2,0,B|424:288,1,90
256,80,108684,5,0
120,320,108871,1,0
392,320,109059,1,0
256,128,109246,1,0
256,160,109340,1,0
272,184,109434,2,0,B|320:216|368:200,1,90
456,240,109809,1,0
448,264,109902,1,0
424,280,109996,2,0,B|392:320|328:296,1,90
336,160,110371,1,0
272,280,110559,5,0
248,304,110652,1,0
216,312,110746,2,0,B|160:312|160:312|136:280|136:280,1,90
120,256,111027,1,0
104,224,111121,1,0
144,176,111309,6,0,B|192:176,2,45
368,176,111684,2,0,B|320:176,2,45
256,48,112059,2,0,B|256:112,2,45
256,336,112434,2,0,B|256:272,2,45
336,96,112809,6,0,B|384:120|384:168,1,90
176,96,113184,2,0,B|128:112|128:168,1,90
296,224,113559,5,0
128,168,113746,1,0
216,328,113934,2,0,B|160:352|104:312,1,90
24,176,114309,1,0
200,216,114496,1,0
120,40,114684,5,0
136,64,114777,1,0
152,88,114871,1,0
392,40,115059,5,0
376,64,115152,1,0
360,88,115246,1,0
256,16,115434,5,0
256,40,115527,1,0
256,72,115621,1,0
256,96,115715,1,0
256,120,115809,1,0
104,328,116184,1,0
120,312,116277,1,0
136,288,116371,1,0
408,328,116559,5,0
392,312,116652,1,0
376,296,116746,2,0,B|416:256|416:256|432:192|352:200|352:240|392:240,1,135
360,272,117309,6,0,B|256:272|256:272|256:184|256:184,1,180
256,32,118059,5,0
152,224,118434,1,0
384,224,118902,1,0
256,344,119371,1,0
256,192,120121,1,0
256,192,120871,12,0,123684
