osu file format v6

[General]
AudioFilename: Rina Satou - Merikuri Song.MP3
AudioLeadIn: 0
PreviewTime: 83352
Countdown: 0
SampleSet: Normal
StackLeniency: 0.7
Mode: 0
LetterboxInBreaks: 0

[Editor]
Bookmarks: 10314,28600,46886,65172,83457,101743,120029,138314,156600,174886,193172,211457,232029,250314,270886
DistanceSpacing: 1
BeatDivisor: 6
GridSize: 16

[Metadata]
Title:Merikuri Song
Artist:Rina Satou
Creator:Dangaard
Version:Mako-chan
Source:Minami-ke Okaeri
Tags:Minami-ke happy30 Alace

[Difficulty]
HPDrainRate:2
CircleSize:3
OverallDifficulty:3
SliderMultiplier:1.6
SliderTickRate:1

[Events]
//Background and Video events
0,0,"xmas3.jpg"
//Break Periods
2,65372,72303
//Storyboard Layer 0 (Background)
Sprite,Background,Centre,"colum1.png",320,240 M,0,0,,38,240 F,0,0,,0 S,0,0,,0.7952 F,0,1172,10314,0,1 S,0,10219,10314,0.7952,0.8144 S,0,10314,10409,0.8144,0.7952 S,0,10790,10885,0.7952,0.8144 S,0,10885,10980,0.8144,0.7952 S,0,11362,11457,0.7952,0.8144 S,0,11457,11552,0.8144,0.7952 S,0,11933,12028,0.7952,0.8144 S,0,12028,12123,0.8144,0.7952 S,0,12505,12600,0.7952,0.8144 S,0,12600,12695,0.8144,0.7952 S,0,13076,13171,0.7952,0.8144 S,0,13171,13266,0.8144,0.7952 S,0,13648,13743,0.7952,0.8144 S,0,13743,13838,0.8144,0.7952 S,0,14219,14314,0.7952,0.8144 S,0,14314,14409,0.8144,0.7952 S,0,14790,14885,0.7952,0.8144 S,0,14885,14980,0.8144,0.7952 S,0,15362,15457,0.7952,0.8144 S,0,15457,15552,0.8144,0.7952 S,0,15933,16028,0.7952,0.8144 S,0,16028,16123,0.8144,0.7952 S,0,16505,16600,0.7952,0.8144 S,0,16600,16695,0.8144,0.7952 S,0,17076,17171,0.7952,0.8144 S,0,17171,17266,0.8144,0.7952 S,0,17648,17743,0.7952,0.8144 S,0,17743,17838,0.8144,0.7952 S,0,18219,18314,0.7952,0.8144 S,0,18314,18409,0.8144,0.7952 S,0,18790,18885,0.7952,0.8144 S,0,18885,18980,0.8144,0.7952 S,0,19362,19457,0.7952,0.8144 S,0,19457,19552,0.8144,0.7952 S,0,19933,20028,0.7952,0.8144 S,0,20028,20123,0.8144,0.7952 S,0,20505,20600,0.7952,0.8144 S,0,20600,20695,0.8144,0.7952 S,0,21076,21171,0.7952,0.8144 S,0,21171,21266,0.8144,0.7952 S,0,21648,21743,0.7952,0.8144 S,0,21743,21838,0.8144,0.7952 S,0,22219,22314,0.7952,0.8144 S,0,22314,22409,0.8144,0.7952 S,0,22790,22885,0.7952,0.8144 S,0,22885,22980,0.8144,0.7952 S,0,23362,23457,0.7952,0.8144 S,0,23457,23552,0.8144,0.7952 S,0,23933,24028,0.7952,0.8144 S,0,24028,24123,0.8144,0.7952 S,0,24505,24600,0.7952,0.8144 S,0,24600,24695,0.8144,0.7952 S,0,25076,25171,0.7952,0.8144 S,0,25171,25266,0.8144,0.7952 S,0,25648,25743,0.7952,0.8144 S,0,25743,25838,0.8144,0.7952 S,0,26219,26314,0.7952,0.8144 S,0,26314,26409,0.8144,0.7952 S,0,26790,26885,0.7952,0.8144 S,0,26885,26980,0.8144,0.7952 S,0,27362,27457,0.7952,0.8144 S,0,27457,27552,0.8144,0.7952 S,0,27933,28028,0.7952,0.8144 S,0,28028,28123,0.8144,0.7952 S,0,28505,28600,0.7952,0.8144 S,0,28600,28695,0.8144,0.7952 S,0,29076,29171,0.7952,0.8144 S,0,29171,29266,0.8144,0.7952 S,0,29648,29743,0.7952,0.8144 S,0,29743,29838,0.8144,0.7952 S,0,30219,30314,0.7952,0.8144 S,0,30314,30409,0.8144,0.7952 S,0,30790,30885,0.7952,0.8144 S,0,30885,30980,0.8144,0.7952 S,0,31362,31457,0.7952,0.8144 S,0,31457,31552,0.8144,0.7952 S,0,31933,32028,0.7952,0.8144 S,0,32028,32123,0.8144,0.7952 S,0,32505,32600,0.7952,0.8144 S,0,32600,32695,0.8144,0.7952 S,0,33076,33171,0.7952,0.8144 S,0,33171,33266,0.8144,0.7952 S,0,33648,33743,0.7952,0.8144 S,0,33743,33838,0.8144,0.7952 S,0,34219,34314,0.7952,0.8144 S,0,34314,34409,0.8144,0.7952 S,0,34790,34885,0.7952,0.8144 S,0,34885,34980,0.8144,0.7952 S,0,35362,35457,0.7952,0.8144 S,0,35457,35552,0.8144,0.7952 S,0,35933,36028,0.7952,0.8144 S,0,36028,36123,0.8144,0.7952 S,0,36505,36600,0.7952,0.8144 S,0,36600,36695,0.8144,0.7952 S,0,37076,37171,0.7952,0.8144 S,0,37171,37266,0.8144,0.7952 S,0,37648,37743,0.7952,0.8144 S,0,37743,37838,0.8144,0.7952 S,0,38219,38314,0.7952,0.8144 S,0,38314,38409,0.8144,0.7952 S,0,38791,38886,0.7952,0.8144 S,0,38886,38981,0.8144,0.7952 S,0,39362,39457,0.7952,0.8144 S,0,39457,39552,0.8144,0.7952 S,0,39933,40028,0.7952,0.8144 S,0,40028,40123,0.8144,0.7952 S,0,40505,40600,0.7952,0.8144 S,0,40600,40695,0.8144,0.7952 S,0,41076,41171,0.7952,0.8144 S,0,41171,41266,0.8144,0.7952 S,0,41648,41743,0.7952,0.8144 S,0,41743,41838,0.8144,0.7952 S,0,42219,42314,0.7952,0.8144 S,0,42314,42409,0.8144,0.7952 S,0,42791,42886,0.7952,0.8144 S,0,42886,42981,0.8144,0.7952 S,0,43362,43457,0.7952,0.8144 S,0,43457,43552,0.8144,0.7952 S,0,43933,44028,0.7952,0.8144 S,0,44028,44123,0.8144,0.7952 S,0,44505,44600,0.7952,0.8144 S,0,44600,44695,0.8144,0.7952 S,0,45076,45171,0.7952,0.8144 S,0,45171,45266,0.8144,0.7952 S,0,45648,45743,0.7952,0.8144 S,0,45743,45838,0.8144,0.7952 S,0,46219,46314,0.7952,0.8144 S,0,46314,46409,0.8144,0.7952 S,0,46791,46886,0.7952,0.8144 S,0,46886,46981,0.8144,0.7952 S,0,47362,47457,0.7952,0.8144 S,0,47457,47552,0.8144,0.7952 S,0,47933,48028,0.7952,0.8144 S,0,48028,48123,0.8144,0.7952 S,0,48505,48600,0.7952,0.8144 S,0,48600,48695,0.8144,0.7952 S,0,49076,49171,0.7952,0.8144 S,0,49171,49266,0.8144,0.7952 S,0,49648,49743,0.7952,0.8144 S,0,49743,49838,0.8144,0.7952 S,0,50219,50314,0.7952,0.8144 S,0,50314,50409,0.8144,0.7952 S,0,50791,50886,0.7952,0.8144 S,0,50886,50981,0.8144,0.7952 S,0,51362,51457,0.7952,0.8144 S,0,51457,51552,0.8144,0.7952 S,0,51933,52028,0.7952,0.8144 S,0,52028,52123,0.8144,0.7952 S,0,52505,52600,0.7952,0.8144 S,0,52600,52695,0.8144,0.7952 S,0,53076,53171,0.7952,0.8144 S,0,53171,53266,0.8144,0.7952 S,0,53648,53743,0.7952,0.8144 S,0,53743,53838,0.8144,0.7952 S,0,54219,54314,0.7952,0.8144 S,0,54314,54409,0.8144,0.7952 S,0,54791,54886,0.7952,0.8144 S,0,54886,54981,0.8144,0.7952 S,0,55362,55457,0.7952,0.8144 S,0,55457,55552,0.8144,0.7952 S,0,55933,56028,0.7952,0.8144 S,0,56028,56123,0.8144,0.7952 S,0,56505,56600,0.7952,0.8144 S,0,56600,56695,0.8144,0.7952 S,0,57076,57171,0.7952,0.8144 S,0,57171,57266,0.8144,0.7952 S,0,57648,57743,0.7952,0.8144 S,0,57743,57838,0.8144,0.7952 S,0,58219,58314,0.7952,0.8144 S,0,58314,58409,0.8144,0.7952 S,0,58791,58886,0.7952,0.8144 S,0,58886,58981,0.8144,0.7952 S,0,59362,59457,0.7952,0.8144 S,0,59457,59552,0.8144,0.7952 S,0,59933,60028,0.7952,0.8144 S,0,60028,60123,0.8144,0.7952 S,0,60505,60600,0.7952,0.8144 S,0,60600,60695,0.8144,0.7952 S,0,61076,61171,0.7952,0.8144 S,0,61171,61266,0.8144,0.7952 S,0,61648,61743,0.7952,0.8144 S,0,61743,61838,0.8144,0.7952 S,0,62219,62314,0.7952,0.8144 S,0,62314,62409,0.8144,0.7952 S,0,62791,62886,0.7952,0.8144 S,0,62886,62981,0.8144,0.7952 S,0,63362,63457,0.7952,0.8144 S,0,63457,63552,0.8144,0.7952 S,0,63933,64028,0.7952,0.8144 S,0,64028,64123,0.8144,0.7952 S,0,64505,64600,0.7952,0.8144 S,0,64600,64695,0.8144,0.7952 S,0,65076,65171,0.7952,0.8144 S,0,65171,65266,0.8144,0.7952 S,0,65648,65743,0.7952,0.8144 S,0,65743,65838,0.8144,0.7952 S,0,66219,66314,0.7952,0.8144 S,0,66314,66409,0.8144,0.7952 S,0,66791,66886,0.7952,0.8144 S,0,66886,66981,0.8144,0.7952 S,0,67362,67457,0.7952,0.8144 S,0,67457,67552,0.8144,0.7952 S,0,67933,68028,0.7952,0.8144 S,0,68028,68123,0.8144,0.7952 S,0,68505,68600,0.7952,0.8144 S,0,68600,68695,0.8144,0.7952 S,0,69076,69171,0.7952,0.8144 S,0,69171,69266,0.8144,0.7952 S,0,69648,69743,0.7952,0.8144 S,0,69743,69838,0.8144,0.7952 S,0,70219,70314,0.7952,0.8144 S,0,70314,70409,0.8144,0.7952 S,0,70791,70886,0.7952,0.8144 S,0,70886,70981,0.8144,0.7952 S,0,71362,71457,0.7952,0.8144 S,0,71457,71552,0.8144,0.7952 S,0,71933,72028,0.7952,0.8144 S,0,72028,72123,0.8144,0.7952 S,0,72505,72600,0.7952,0.8144 S,0,72600,72695,0.8144,0.7952 S,0,73076,73171,0.7952,0.8144 S,0,73171,73266,0.8144,0.7952 S,0,73648,73743,0.7952,0.8144 S,0,73743,73838,0.8144,0.7952 S,0,74219,74314,0.7952,0.8144 S,0,74314,74409,0.8144,0.7952 S,0,74791,74886,0.7952,0.8144 S,0,74886,74981,0.8144,0.7952 S,0,75362,75457,0.7952,0.8144 S,0,75457,75552,0.8144,0.7952 S,0,75933,76028,0.7952,0.8144 S,0,76028,76123,0.8144,0.7952 S,0,76505,76600,0.7952,0.8144 S,0,76600,76695,0.8144,0.7952 S,0,77076,77171,0.7952,0.8144 S,0,77171,77266,0.8144,0.7952 S,0,77648,77743,0.7952,0.8144 S,0,77743,77838,0.8144,0.7952 S,0,78219,78314,0.7952,0.8144 S,0,78314,78409,0.8144,0.7952 S,0,78791,78886,0.7952,0.8144 S,0,78886,78981,0.8144,0.7952 S,0,79362,79457,0.7952,0.8144 S,0,79457,79552,0.8144,0.7952 S,0,79933,80028,0.7952,0.8144 S,0,80028,80123,0.8144,0.7952 S,0,80505,80600,0.7952,0.8144 S,0,80600,80695,0.8144,0.7952 S,0,81076,81171,0.7952,0.8144 S,0,81171,81266,0.8144,0.7952 S,0,81648,81743,0.7952,0.8144 S,0,81743,81838,0.8144,0.7952 S,0,82219,82314,0.7952,0.8144 S,0,82314,82409,0.8144,0.7952 S,0,82791,82886,0.7952,0.8144 S,0,82886,82981,0.8144,0.7952 S,0,83362,83457,0.7952,0.8144 S,0,83457,83552,0.8144,0.7952 S,0,83933,84028,0.7952,0.8144 S,0,84028,84123,0.8144,0.7952 S,0,84505,84600,0.7952,0.8144 S,0,84600,84695,0.8144,0.7952 S,0,85076,85171,0.7952,0.8144 S,0,85171,85266,0.8144,0.7952 S,0,85648,85743,0.7952,0.8144 S,0,85743,85838,0.8144,0.7952 S,0,86219,86314,0.7952,0.8144 S,0,86314,86409,0.8144,0.7952 S,0,86791,86886,0.7952,0.8144 S,0,86886,86981,0.8144,0.7952 S,0,87362,87457,0.7952,0.8144 S,0,87457,87552,0.8144,0.7952 S,0,87933,88028,0.7952,0.8144 S,0,88028,88123,0.8144,0.7952 S,0,88505,88600,0.7952,0.8144 S,0,88600,88695,0.8144,0.7952 S,0,89076,89171,0.7952,0.8144 S,0,89171,89266,0.8144,0.7952 S,0,89648,89743,0.7952,0.8144 S,0,89743,89838,0.8144,0.7952 S,0,90219,90314,0.7952,0.8144 S,0,90314,90409,0.8144,0.7952 S,0,90791,90886,0.7952,0.8144 S,0,90886,90981,0.8144,0.7952 S,0,91362,91457,0.7952,0.8144 S,0,91457,91552,0.8144,0.7952 S,0,91933,92028,0.7952,0.8144 S,0,92028,92123,0.8144,0.7952 S,0,92505,92600,0.7952,0.8144 S,0,92600,92695,0.8144,0.7952 S,0,93076,93171,0.7952,0.8144 S,0,93171,93266,0.8144,0.7952 S,0,93648,93743,0.7952,0.8144 S,0,93743,93838,0.8144,0.7952 S,0,94219,94314,0.7952,0.8144 S,0,94314,94409,0.8144,0.7952 S,0,94791,94886,0.7952,0.8144 S,0,94886,94981,0.8144,0.7952 S,0,95362,95457,0.7952,0.8144 S,0,95457,95552,0.8144,0.7952 S,0,95933,96028,0.7952,0.8144 S,0,96028,96123,0.8144,0.7952 S,0,96505,96600,0.7952,0.8144 S,0,96600,96695,0.8144,0.7952 S,0,97076,97171,0.7952,0.8144 S,0,97171,97266,0.8144,0.7952 S,0,97648,97743,0.7952,0.8144 S,0,97743,97838,0.8144,0.7952 S,0,98219,98314,0.7952,0.8144 S,0,98314,98409,0.8144,0.7952 S,0,98791,98886,0.7952,0.8144 S,0,98886,98981,0.8144,0.7952 S,0,99362,99457,0.7952,0.8144 S,0,99457,99552,0.8144,0.7952 S,0,99934,100029,0.7952,0.8144 S,0,100029,100124,0.8144,0.7952 S,0,100505,100600,0.7952,0.8144 S,0,100600,100695,0.8144,0.7952 S,0,101076,101171,0.7952,0.8144 S,0,101171,101266,0.8144,0.7952 S,0,101648,101743,0.7952,0.8144 S,0,101743,101838,0.8144,0.7952 S,0,102219,102314,0.7952,0.8144 S,0,102314,102409,0.8144,0.7952 S,0,102791,102886,0.7952,0.8144 S,0,102886,102981,0.8144,0.7952 S,0,103362,103457,0.7952,0.8144 S,0,103457,103552,0.8144,0.7952 S,0,103934,104029,0.7952,0.8144 S,0,104029,104124,0.8144,0.7952 S,0,104505,104600,0.7952,0.8144 S,0,104600,104695,0.8144,0.7952 S,0,105076,105171,0.7952,0.8144 S,0,105171,105266,0.8144,0.7952 S,0,105648,105743,0.7952,0.8144 S,0,105743,105838,0.8144,0.7952 S,0,106219,106314,0.7952,0.8144 S,0,106314,106409,0.8144,0.7952 S,0,106791,106886,0.7952,0.8144 S,0,106886,106981,0.8144,0.7952 S,0,107362,107457,0.7952,0.8144 S,0,107457,107552,0.8144,0.7952 S,0,107934,108029,0.7952,0.8144 S,0,108029,108124,0.8144,0.7952 S,0,108505,108600,0.7952,0.8144 S,0,108600,108695,0.8144,0.7952 S,0,109076,109171,0.7952,0.8144 S,0,109171,109266,0.8144,0.7952 S,0,109648,109743,0.7952,0.8144 S,0,109743,109838,0.8144,0.7952 S,0,110219,110314,0.7952,0.8144 S,0,110314,110409,0.8144,0.7952 S,0,110791,110886,0.7952,0.8144 S,0,110886,110981,0.8144,0.7952 S,0,111362,111457,0.7952,0.8144 S,0,111457,111552,0.8144,0.7952 S,0,111934,112029,0.7952,0.8144 S,0,112029,112124,0.8144,0.7952 S,0,112505,112600,0.7952,0.8144 S,0,112600,112695,0.8144,0.7952 S,0,113076,113171,0.7952,0.8144 S,0,113171,113266,0.8144,0.7952 S,0,113648,113743,0.7952,0.8144 S,0,113743,113838,0.8144,0.7952 S,0,114219,114314,0.7952,0.8144 S,0,114314,114409,0.8144,0.7952 S,0,114791,114886,0.7952,0.8144 S,0,114886,114981,0.8144,0.7952 S,0,115362,115457,0.7952,0.8144 S,0,115457,115552,0.8144,0.7952 S,0,115934,116029,0.7952,0.8144 S,0,116029,116124,0.8144,0.7952 S,0,116505,116600,0.7952,0.8144 S,0,116600,116695,0.8144,0.7952 S,0,117076,117171,0.7952,0.8144 S,0,117171,117266,0.8144,0.7952 S,0,117648,117743,0.7952,0.8144 S,0,117743,117838,0.8144,0.7952 S,0,118219,118314,0.7952,0.8144 S,0,118314,118409,0.8144,0.7952 S,0,118791,118886,0.7952,0.8144 S,0,118886,118981,0.8144,0.7952 S,0,119362,119457,0.7952,0.8144 S,0,119457,119552,0.8144,0.7952 F,0,119743,120029,1,0 S,0,119934,120029,0.7952,0.8144 S,0,120029,,0.8144
Sprite,Background,Centre,"colum2.png",320,240 M,0,0,,600,240 F,0,0,,0 S,0,0,,0.7952 F,0,1172,10314,0,1 S,0,10219,10314,0.7952,0.8144 S,0,10314,10409,0.8144,0.7952 S,0,10790,10885,0.7952,0.8144 S,0,10885,10980,0.8144,0.7952 S,0,11362,11457,0.7952,0.8144 S,0,11457,11552,0.8144,0.7952 S,0,11933,12028,0.7952,0.8144 S,0,12028,12123,0.8144,0.7952 S,0,12505,12600,0.7952,0.8144 S,0,12600,12695,0.8144,0.7952 S,0,13076,13171,0.7952,0.8144 S,0,13171,13266,0.8144,0.7952 S,0,13648,13743,0.7952,0.8144 S,0,13743,13838,0.8144,0.7952 S,0,14219,14314,0.7952,0.8144 S,0,14314,14409,0.8144,0.7952 S,0,14790,14885,0.7952,0.8144 S,0,14885,14980,0.8144,0.7952 S,0,15362,15457,0.7952,0.8144 S,0,15457,15552,0.8144,0.7952 S,0,15933,16028,0.7952,0.8144 S,0,16028,16123,0.8144,0.7952 S,0,16505,16600,0.7952,0.8144 S,0,16600,16695,0.8144,0.7952 S,0,17076,17171,0.7952,0.8144 S,0,17171,17266,0.8144,0.7952 S,0,17648,17743,0.7952,0.8144 S,0,17743,17838,0.8144,0.7952 S,0,18219,18314,0.7952,0.8144 S,0,18314,18409,0.8144,0.7952 S,0,18790,18885,0.7952,0.8144 S,0,18885,18980,0.8144,0.7952 S,0,19362,19457,0.7952,0.8144 S,0,19457,19552,0.8144,0.7952 S,0,19933,20028,0.7952,0.8144 S,0,20028,20123,0.8144,0.7952 S,0,20505,20600,0.7952,0.8144 S,0,20600,20695,0.8144,0.7952 S,0,21076,21171,0.7952,0.8144 S,0,21171,21266,0.8144,0.7952 S,0,21648,21743,0.7952,0.8144 S,0,21743,21838,0.8144,0.7952 S,0,22219,22314,0.7952,0.8144 S,0,22314,22409,0.8144,0.7952 S,0,22790,22885,0.7952,0.8144 S,0,22885,22980,0.8144,0.7952 S,0,23362,23457,0.7952,0.8144 S,0,23457,23552,0.8144,0.7952 S,0,23933,24028,0.7952,0.8144 S,0,24028,24123,0.8144,0.7952 S,0,24505,24600,0.7952,0.8144 S,0,24600,24695,0.8144,0.7952 S,0,25076,25171,0.7952,0.8144 S,0,25171,25266,0.8144,0.7952 S,0,25648,25743,0.7952,0.8144 S,0,25743,25838,0.8144,0.7952 S,0,26219,26314,0.7952,0.8144 S,0,26314,26409,0.8144,0.7952 S,0,26790,26885,0.7952,0.8144 S,0,26885,26980,0.8144,0.7952 S,0,27362,27457,0.7952,0.8144 S,0,27457,27552,0.8144,0.7952 S,0,27933,28028,0.7952,0.8144 S,0,28028,28123,0.8144,0.7952 S,0,28505,28600,0.7952,0.8144 S,0,28600,28695,0.8144,0.7952 S,0,29076,29171,0.7952,0.8144 S,0,29171,29266,0.8144,0.7952 S,0,29648,29743,0.7952,0.8144 S,0,29743,29838,0.8144,0.7952 S,0,30219,30314,0.7952,0.8144 S,0,30314,30409,0.8144,0.7952 S,0,30790,30885,0.7952,0.8144 S,0,30885,30980,0.8144,0.7952 S,0,31362,31457,0.7952,0.8144 S,0,31457,31552,0.8144,0.7952 S,0,31933,32028,0.7952,0.8144 S,0,32028,32123,0.8144,0.7952 S,0,32505,32600,0.7952,0.8144 S,0,32600,32695,0.8144,0.7952 S,0,33076,33171,0.7952,0.8144 S,0,33171,33266,0.8144,0.7952 S,0,33648,33743,0.7952,0.8144 S,0,33743,33838,0.8144,0.7952 S,0,34219,34314,0.7952,0.8144 S,0,34314,34409,0.8144,0.7952 S,0,34790,34885,0.7952,0.8144 S,0,34885,34980,0.8144,0.7952 S,0,35362,35457,0.7952,0.8144 S,0,35457,35552,0.8144,0.7952 S,0,35933,36028,0.7952,0.8144 S,0,36028,36123,0.8144,0.7952 S,0,36505,36600,0.7952,0.8144 S,0,36600,36695,0.8144,0.7952 S,0,37076,37171,0.7952,0.8144 S,0,37171,37266,0.8144,0.7952 S,0,37648,37743,0.7952,0.8144 S,0,37743,37838,0.8144,0.7952 S,0,38219,38314,0.7952,0.8144 S,0,38314,38409,0.8144,0.7952 S,0,38791,38886,0.7952,0.8144 S,0,38886,38981,0.8144,0.7952 S,0,39362,39457,0.7952,0.8144 S,0,39457,39552,0.8144,0.7952 S,0,39933,40028,0.7952,0.8144 S,0,40028,40123,0.8144,0.7952 S,0,40505,40600,0.7952,0.8144 S,0,40600,40695,0.8144,0.7952 S,0,41076,41171,0.7952,0.8144 S,0,41171,41266,0.8144,0.7952 S,0,41648,41743,0.7952,0.8144 S,0,41743,41838,0.8144,0.7952 S,0,42219,42314,0.7952,0.8144 S,0,42314,42409,0.8144,0.7952 S,0,42791,42886,0.7952,0.8144 S,0,42886,42981,0.8144,0.7952 S,0,43362,43457,0.7952,0.8144 S,0,43457,43552,0.8144,0.7952 S,0,43933,44028,0.7952,0.8144 S,0,44028,44123,0.8144,0.7952 S,0,44505,44600,0.7952,0.8144 S,0,44600,44695,0.8144,0.7952 S,0,45076,45171,0.7952,0.8144 S,0,45171,45266,0.8144,0.7952 S,0,45648,45743,0.7952,0.8144 S,0,45743,45838,0.8144,0.7952 S,0,46219,46314,0.7952,0.8144 S,0,46314,46409,0.8144,0.7952 S,0,46791,46886,0.7952,0.8144 S,0,46886,46981,0.8144,0.7952 S,0,47362,47457,0.7952,0.8144 S,0,47457,47552,0.8144,0.7952 S,0,47933,48028,0.7952,0.8144 S,0,48028,48123,0.8144,0.7952 S,0,48505,48600,0.7952,0.8144 S,0,48600,48695,0.8144,0.7952 S,0,49076,49171,0.7952,0.8144 S,0,49171,49266,0.8144,0.7952 S,0,49648,49743,0.7952,0.8144 S,0,49743,49838,0.8144,0.7952 S,0,50219,50314,0.7952,0.8144 S,0,50314,50409,0.8144,0.7952 S,0,50791,50886,0.7952,0.8144 S,0,50886,50981,0.8144,0.7952 S,0,51362,51457,0.7952,0.8144 S,0,51457,51552,0.8144,0.7952 S,0,51933,52028,0.7952,0.8144 S,0,52028,52123,0.8144,0.7952 S,0,52505,52600,0.7952,0.8144 S,0,52600,52695,0.8144,0.7952 S,0,53076,53171,0.7952,0.8144 S,0,53171,53266,0.8144,0.7952 S,0,53648,53743,0.7952,0.8144 S,0,53743,53838,0.8144,0.7952 S,0,54219,54314,0.7952,0.8144 S,0,54314,54409,0.8144,0.7952 S,0,54791,54886,0.7952,0.8144 S,0,54886,54981,0.8144,0.7952 S,0,55362,55457,0.7952,0.8144 S,0,55457,55552,0.8144,0.7952 S,0,55933,56028,0.7952,0.8144 S,0,56028,56123,0.8144,0.7952 S,0,56505,56600,0.7952,0.8144 S,0,56600,56695,0.8144,0.7952 S,0,57076,57171,0.7952,0.8144 S,0,57171,57266,0.8144,0.7952 S,0,57648,57743,0.7952,0.8144 S,0,57743,57838,0.8144,0.7952 S,0,58219,58314,0.7952,0.8144 S,0,58314,58409,0.8144,0.7952 S,0,58791,58886,0.7952,0.8144 S,0,58886,58981,0.8144,0.7952 S,0,59362,59457,0.7952,0.8144 S,0,59457,59552,0.8144,0.7952 S,0,59933,60028,0.7952,0.8144 S,0,60028,60123,0.8144,0.7952 S,0,60505,60600,0.7952,0.8144 S,0,60600,60695,0.8144,0.7952 S,0,61076,61171,0.7952,0.8144 S,0,61171,61266,0.8144,0.7952 S,0,61648,61743,0.7952,0.8144 S,0,61743,61838,0.8144,0.7952 S,0,62219,62314,0.7952,0.8144 S,0,62314,62409,0.8144,0.7952 S,0,62791,62886,0.7952,0.8144 S,0,62886,62981,0.8144,0.7952 S,0,63362,63457,0.7952,0.8144 S,0,63457,63552,0.8144,0.7952 S,0,63933,64028,0.7952,0.8144 S,0,64028,64123,0.8144,0.7952 S,0,64505,64600,0.7952,0.8144 S,0,64600,64695,0.8144,0.7952 S,0,65076,65171,0.7952,0.8144 S,0,65171,65266,0.8144,0.7952 S,0,65648,65743,0.7952,0.8144 S,0,65743,65838,0.8144,0.7952 S,0,66219,66314,0.7952,0.8144 S,0,66314,66409,0.8144,0.7952 S,0,66791,66886,0.7952,0.8144 S,0,66886,66981,0.8144,0.7952 S,0,67362,67457,0.7952,0.8144 S,0,67457,67552,0.8144,0.7952 S,0,67933,68028,0.7952,0.8144 S,0,68028,68123,0.8144,0.7952 S,0,68505,68600,0.7952,0.8144 S,0,68600,68695,0.8144,0.7952 S,0,69076,69171,0.7952,0.8144 S,0,69171,69266,0.8144,0.7952 S,0,69648,69743,0.7952,0.8144 S,0,69743,69838,0.8144,0.7952 S,0,70219,70314,0.7952,0.8144 S,0,70314,70409,0.8144,0.7952 S,0,70791,70886,0.7952,0.8144 S,0,70886,70981,0.8144,0.7952 S,0,71362,71457,0.7952,0.8144 S,0,71457,71552,0.8144,0.7952 S,0,71933,72028,0.7952,0.8144 S,0,72028,72123,0.8144,0.7952 S,0,72505,72600,0.7952,0.8144 S,0,72600,72695,0.8144,0.7952 S,0,73076,73171,0.7952,0.8144 S,0,73171,73266,0.8144,0.7952 S,0,73648,73743,0.7952,0.8144 S,0,73743,73838,0.8144,0.7952 S,0,74219,74314,0.7952,0.8144 S,0,74314,74409,0.8144,0.7952 S,0,74791,74886,0.7952,0.8144 S,0,74886,74981,0.8144,0.7952 S,0,75362,75457,0.7952,0.8144 S,0,75457,75552,0.8144,0.7952 S,0,75933,76028,0.7952,0.8144 S,0,76028,76123,0.8144,0.7952 S,0,76505,76600,0.7952,0.8144 S,0,76600,76695,0.8144,0.7952 S,0,77076,77171,0.7952,0.8144 S,0,77171,77266,0.8144,0.7952 S,0,77648,77743,0.7952,0.8144 S,0,77743,77838,0.8144,0.7952 S,0,78219,78314,0.7952,0.8144 S,0,78314,78409,0.8144,0.7952 S,0,78791,78886,0.7952,0.8144 S,0,78886,78981,0.8144,0.7952 S,0,79362,79457,0.7952,0.8144 S,0,79457,79552,0.8144,0.7952 S,0,79933,80028,0.7952,0.8144 S,0,80028,80123,0.8144,0.7952 S,0,80505,80600,0.7952,0.8144 S,0,80600,80695,0.8144,0.7952 S,0,81076,81171,0.7952,0.8144 S,0,81171,81266,0.8144,0.7952 S,0,81648,81743,0.7952,0.8144 S,0,81743,81838,0.8144,0.7952 S,0,82219,82314,0.7952,0.8144 S,0,82314,82409,0.8144,0.7952 S,0,82791,82886,0.7952,0.8144 S,0,82886,82981,0.8144,0.7952 S,0,83362,83457,0.7952,0.8144 S,0,83457,83552,0.8144,0.7952 S,0,83933,84028,0.7952,0.8144 S,0,84028,84123,0.8144,0.7952 S,0,84505,84600,0.7952,0.8144 S,0,84600,84695,0.8144,0.7952 S,0,85076,85171,0.7952,0.8144 S,0,85171,85266,0.8144,0.7952 S,0,85648,85743,0.7952,0.8144 S,0,85743,85838,0.8144,0.7952 S,0,86219,86314,0.7952,0.8144 S,0,86314,86409,0.8144,0.7952 S,0,86791,86886,0.7952,0.8144 S,0,86886,86981,0.8144,0.7952 S,0,87362,87457,0.7952,0.8144 S,0,87457,87552,0.8144,0.7952 S,0,87933,88028,0.7952,0.8144 S,0,88028,88123,0.8144,0.7952 S,0,88505,88600,0.7952,0.8144 S,0,88600,88695,0.8144,0.7952 S,0,89076,89171,0.7952,0.8144 S,0,89171,89266,0.8144,0.7952 S,0,89648,89743,0.7952,0.8144 S,0,89743,89838,0.8144,0.7952 S,0,90219,90314,0.7952,0.8144 S,0,90314,90409,0.8144,0.7952 S,0,90791,90886,0.7952,0.8144 S,0,90886,90981,0.8144,0.7952 S,0,91362,91457,0.7952,0.8144 S,0,91457,91552,0.8144,0.7952 S,0,91933,92028,0.7952,0.8144 S,0,92028,92123,0.8144,0.7952 S,0,92505,92600,0.7952,0.8144 S,0,92600,92695,0.8144,0.7952 S,0,93076,93171,0.7952,0.8144 S,0,93171,93266,0.8144,0.7952 S,0,93648,93743,0.7952,0.8144 S,0,93743,93838,0.8144,0.7952 S,0,94219,94314,0.7952,0.8144 S,0,94314,94409,0.8144,0.7952 S,0,94791,94886,0.7952,0.8144 S,0,94886,94981,0.8144,0.7952 S,0,95362,95457,0.7952,0.8144 S,0,95457,95552,0.8144,0.7952 S,0,95933,96028,0.7952,0.8144 S,0,96028,96123,0.8144,0.7952 S,0,96505,96600,0.7952,0.8144 S,0,96600,96695,0.8144,0.7952 S,0,97076,97171,0.7952,0.8144 S,0,97171,97266,0.8144,0.7952 S,0,97648,97743,0.7952,0.8144 S,0,97743,97838,0.8144,0.7952 S,0,98219,98314,0.7952,0.8144 S,0,98314,98409,0.8144,0.7952 S,0,98791,98886,0.7952,0.8144 S,0,98886,98981,0.8144,0.7952 S,0,99362,99457,0.7952,0.8144 S,0,99457,99552,0.8144,0.7952 S,0,99934,100029,0.7952,0.8144 S,0,100029,100124,0.8144,0.7952 S,0,100505,100600,0.7952,0.8144 S,0,100600,100695,0.8144,0.7952 S,0,101076,101171,0.7952,0.8144 S,0,101171,101266,0.8144,0.7952 S,0,101648,101743,0.7952,0.8144 S,0,101743,101838,0.8144,0.7952 S,0,102219,102314,0.7952,0.8144 S,0,102314,102409,0.8144,0.7952 S,0,102791,102886,0.7952,0.8144 S,0,102886,102981,0.8144,0.7952 S,0,103362,103457,0.7952,0.8144 S,0,103457,103552,0.8144,0.7952 S,0,103934,104029,0.7952,0.8144 S,0,104029,104124,0.8144,0.7952 S,0,104505,104600,0.7952,0.8144 S,0,104600,104695,0.8144,0.7952 S,0,105076,105171,0.7952,0.8144 S,0,105171,105266,0.8144,0.7952 S,0,105648,105743,0.7952,0.8144 S,0,105743,105838,0.8144,0.7952 S,0,106219,106314,0.7952,0.8144 S,0,106314,106409,0.8144,0.7952 S,0,106791,106886,0.7952,0.8144 S,0,106886,106981,0.8144,0.7952 S,0,107362,107457,0.7952,0.8144 S,0,107457,107552,0.8144,0.7952 S,0,107934,108029,0.7952,0.8144 S,0,108029,108124,0.8144,0.7952 S,0,108505,108600,0.7952,0.8144 S,0,108600,108695,0.8144,0.7952 S,0,109076,109171,0.7952,0.8144 S,0,109171,109266,0.8144,0.7952 S,0,109648,109743,0.7952,0.8144 S,0,109743,109838,0.8144,0.7952 S,0,110219,110314,0.7952,0.8144 S,0,110314,110409,0.8144,0.7952 S,0,110791,110886,0.7952,0.8144 S,0,110886,110981,0.8144,0.7952 S,0,111362,111457,0.7952,0.8144 S,0,111457,111552,0.8144,0.7952 S,0,111934,112029,0.7952,0.8144 S,0,112029,112124,0.8144,0.7952 S,0,112505,112600,0.7952,0.8144 S,0,112600,112695,0.8144,0.7952 S,0,113076,113171,0.7952,0.8144 S,0,113171,113266,0.8144,0.7952 S,0,113648,113743,0.7952,0.8144 S,0,113743,113838,0.8144,0.7952 S,0,114219,114314,0.7952,0.8144 S,0,114314,114409,0.8144,0.7952 S,0,114791,114886,0.7952,0.8144 S,0,114886,114981,0.8144,0.7952 S,0,115362,115457,0.7952,0.8144 S,0,115457,115552,0.8144,0.7952 S,0,115934,116029,0.7952,0.8144 S,0,116029,116124,0.8144,0.7952 S,0,116505,116600,0.7952,0.8144 S,0,116600,116695,0.8144,0.7952 S,0,117076,117171,0.7952,0.8144 S,0,117171,117266,0.8144,0.7952 S,0,117648,117743,0.7952,0.8144 S,0,117743,117838,0.8144,0.7952 S,0,118219,118314,0.7952,0.8144 S,0,118314,118409,0.8144,0.7952 S,0,118791,118886,0.7952,0.8144 S,0,118886,118981,0.8144,0.7952 S,0,119362,119457,0.7952,0.8144 S,0,119457,119552,0.8144,0.7952 F,0,119743,120029,1,0 S,0,119934,120029,0.7952,0.8144 S,0,120029,,0.8144
//Storyboard Layer 1 (Fail)
//Storyboard Layer 2 (Pass)
//Storyboard Layer 3 (Foreground)
//Storyboard Sound Samples
//Background Colour Transformations
3,100,0,0,0

[TimingPoints]
1172,571.428571428571,4,1,1,80,1,0
83457,-100,4,1,1,80,0,1
120029,-100,4,1,1,80,0,0

[Colours]
Combo1 : 49,112,37
Combo2 : 175,35,46
Combo3 : 223,217,217

[HitObjects]
192,96,28600,2,0,B|261:2|331:112,1,160,4|2
432,160,29743,1,0
432,160,30029,1,0
432,160,30314,1,2
320,224,30886,6,0,B|310:287|364:332|419:320,2,160,0|2|0
208,288,32600,5,2
208,288,32886,1,0
208,288,33172,1,0
160,144,33743,1,2
304,96,34314,1,0
352,240,34886,1,2
208,288,35457,6,0,B|152:269|152:167|225:156,2,160,0|2|0
320,352,37172,5,2
320,352,37457,1,0
320,352,37743,2,0,B|396:332|437:205|382:102|301:91,1,320,4|0
192,96,39457,5,2
192,96,39743,1,0
192,96,40029,2,0,B|123:2|53:112,1,160,0|2
128,208,41172,2,0,B|118:271|172:316|227:304,1,160,0|2
208,224,42029,5,0
208,224,42314,2,0,B|384:224,1,160,4|2
464,144,43457,1,0
384,48,44029,1,2
288,128,44600,5,4
288,128,44886,1,0
288,128,45172,2,0,B|144:128,1,133.333333333333,2|4
80,208,46029,1,0
80,208,46314,2,0,B|256:208,1,160,2|4
352,272,47457,5,2
240,336,48029,1,0
240,336,48314,1,0
240,336,48600,1,2
128,272,49172,6,0,B|128:96,1,160,0|2
240,48,50314,1,0
352,112,50886,5,2
352,112,51172,1,0
352,112,51457,1,0
464,176,52029,1,2
352,240,52600,1,0
464,304,53172,1,2
352,368,53743,6,0,B|176:368,1,160,0|2
80,304,54886,1,0
144,192,55457,5,2
144,192,55743,1,0
144,192,56029,2,0,B|164:268|291:309|394:254|405:173,3,320,4|0|0|0
336,80,60029,5,2
336,80,60314,1,0
336,80,60600,1,4
224,144,61172,1,2
288,256,61743,2,0,B|357:350|427:240,1,160,0|2
256,208,62886,12,4,65172
304,224,73743,5,0
304,224,74314,2,0,B|323:280|425:280|436:207,2,160,4|2|0
208,160,76029,5,2
208,160,76600,2,0,B|189:216|87:216|76:143,2,160,0|2|0
304,96,78314,5,0
304,96,78886,2,2,B|398:165|288:235,1,160,6|0
208,288,80029,2,2,B|114:219|224:149,1,160,6|0
256,208,81172,12,4,82886
176,336,83457,5,6
176,336,84029,2,0,B|320:336,1,133.333333333333,8|2
384,256,84886,2,0,B|480:256,2,80,0|8|0
336,192,85743,5,2
336,192,86314,2,0,B|192:192,1,133.333333333333,8|2
128,112,87171,2,0,B|32:112,2,80,0|8|0
176,48,88029,5,2
112,192,88600,1,8
256,256,89172,1,2
320,112,89743,1,8
464,176,90314,5,2
464,176,90886,2,0,B|304:176,1,133.333333333333,8|2
208,320,92029,5,8
208,320,92600,2,0,B|152:301|152:199|225:188,3,160,6|8|0|8
304,64,94886,6,0,B|360:83|360:185|287:196,3,160,2|8|0|8
128,64,97172,5,2
128,64,97457,1,0
128,64,97743,2,0,B|52:84|11:211|66:314|147:325,1,320,8|8
288,304,99457,5,6
368,160,100029,1,8
224,80,100600,1,6
144,224,101172,1,8
144,224,101743,6,2,B|186:334|341:334|375:202,1,293.333333333333,6|0
368,224,103457,1,8
368,112,104029,6,2,B|326:2|171:2|137:134,1,293.333333333333,2|0
144,112,105743,1,8
128,224,106314,5,2
128,224,106886,2,0,B|148:300|275:341|378:286|389:205,3,320,8|8|8|8
320,80,110886,5,6
176,144,111457,1,8
240,288,112029,1,0
384,224,112600,1,8
320,80,113172,6,2,B|251:-14|181:96,1,160,2|8
64,176,114314,2,0,B|133:270|203:160,1,160,0|8
320,80,115457,6,0,B|396:100|437:227|382:330|301:341,2,320,6|0|6
256,208,118029,12,4,120029
