osu file format v6

[General]
AudioFilename: Rina Satou - Merikuri Song.MP3
AudioLeadIn: 0
PreviewTime: 83352
Countdown: 0
SampleSet: Normal
StackLeniency: 0.7
Mode: 0
LetterboxInBreaks: 0

[Editor]
Bookmarks: 10314,28600,46886,65172,83457,101743,120029,138314,156600,174886,193172,211457,232029,250314,270886
DistanceSpacing: 0.800000011920929
BeatDivisor: 3
GridSize: 16

[Metadata]
Title:Merikuri Song
Artist:Rina Satou
Creator:Dangaard
Version:Kana
Source:Minami-ke Okaeri
Tags:Minami-ke happy30 Alace

[Difficulty]
HPDrainRate:6
CircleSize:4
OverallDifficulty:7
SliderMultiplier:1.6
SliderTickRate:1

[Events]
//Background and Video events
0,0,"xmas1.jpg"
//Break Periods
2,65276,72843
2,120228,137414
2,156705,164272
//Storyboard Layer 0 (Background)
Sprite,Background,Centre,"colum1.png",320,240 M,0,0,,38,240 F,0,0,,0 S,0,0,,0.7952 F,0,1172,10314,0,1 S,0,10219,10314,0.7952,0.8144 S,0,10314,10409,0.8144,0.7952 S,0,10790,10885,0.7952,0.8144 S,0,10885,10980,0.8144,0.7952 S,0,11362,11457,0.7952,0.8144 S,0,11457,11552,0.8144,0.7952 S,0,11933,12028,0.7952,0.8144 S,0,12028,12123,0.8144,0.7952 S,0,12505,12600,0.7952,0.8144 S,0,12600,12695,0.8144,0.7952 S,0,13076,13171,0.7952,0.8144 S,0,13171,13266,0.8144,0.7952 S,0,13648,13743,0.7952,0.8144 S,0,13743,13838,0.8144,0.7952 S,0,14219,14314,0.7952,0.8144 S,0,14314,14409,0.8144,0.7952 S,0,14790,14885,0.7952,0.8144 S,0,14885,14980,0.8144,0.7952 S,0,15362,15457,0.7952,0.8144 S,0,15457,15552,0.8144,0.7952 S,0,15933,16028,0.7952,0.8144 S,0,16028,16123,0.8144,0.7952 S,0,16505,16600,0.7952,0.8144 S,0,16600,16695,0.8144,0.7952 S,0,17076,17171,0.7952,0.8144 S,0,17171,17266,0.8144,0.7952 S,0,17648,17743,0.7952,0.8144 S,0,17743,17838,0.8144,0.7952 S,0,18219,18314,0.7952,0.8144 S,0,18314,18409,0.8144,0.7952 S,0,18790,18885,0.7952,0.8144 S,0,18885,18980,0.8144,0.7952 S,0,19362,19457,0.7952,0.8144 S,0,19457,19552,0.8144,0.7952 S,0,19933,20028,0.7952,0.8144 S,0,20028,20123,0.8144,0.7952 S,0,20505,20600,0.7952,0.8144 S,0,20600,20695,0.8144,0.7952 S,0,21076,21171,0.7952,0.8144 S,0,21171,21266,0.8144,0.7952 S,0,21648,21743,0.7952,0.8144 S,0,21743,21838,0.8144,0.7952 S,0,22219,22314,0.7952,0.8144 S,0,22314,22409,0.8144,0.7952 S,0,22790,22885,0.7952,0.8144 S,0,22885,22980,0.8144,0.7952 S,0,23362,23457,0.7952,0.8144 S,0,23457,23552,0.8144,0.7952 S,0,23933,24028,0.7952,0.8144 S,0,24028,24123,0.8144,0.7952 S,0,24505,24600,0.7952,0.8144 S,0,24600,24695,0.8144,0.7952 S,0,25076,25171,0.7952,0.8144 S,0,25171,25266,0.8144,0.7952 S,0,25648,25743,0.7952,0.8144 S,0,25743,25838,0.8144,0.7952 S,0,26219,26314,0.7952,0.8144 S,0,26314,26409,0.8144,0.7952 S,0,26790,26885,0.7952,0.8144 S,0,26885,26980,0.8144,0.7952 S,0,27362,27457,0.7952,0.8144 S,0,27457,27552,0.8144,0.7952 S,0,27933,28028,0.7952,0.8144 S,0,28028,28123,0.8144,0.7952 S,0,28505,28600,0.7952,0.8144 S,0,28600,28695,0.8144,0.7952 S,0,29076,29171,0.7952,0.8144 S,0,29171,29266,0.8144,0.7952 S,0,29648,29743,0.7952,0.8144 S,0,29743,29838,0.8144,0.7952 S,0,30219,30314,0.7952,0.8144 S,0,30314,30409,0.8144,0.7952 S,0,30790,30885,0.7952,0.8144 S,0,30885,30980,0.8144,0.7952 S,0,31362,31457,0.7952,0.8144 S,0,31457,31552,0.8144,0.7952 S,0,31933,32028,0.7952,0.8144 S,0,32028,32123,0.8144,0.7952 S,0,32505,32600,0.7952,0.8144 S,0,32600,32695,0.8144,0.7952 S,0,33076,33171,0.7952,0.8144 S,0,33171,33266,0.8144,0.7952 S,0,33648,33743,0.7952,0.8144 S,0,33743,33838,0.8144,0.7952 S,0,34219,34314,0.7952,0.8144 S,0,34314,34409,0.8144,0.7952 S,0,34790,34885,0.7952,0.8144 S,0,34885,34980,0.8144,0.7952 S,0,35362,35457,0.7952,0.8144 S,0,35457,35552,0.8144,0.7952 S,0,35933,36028,0.7952,0.8144 S,0,36028,36123,0.8144,0.7952 S,0,36505,36600,0.7952,0.8144 S,0,36600,36695,0.8144,0.7952 S,0,37076,37171,0.7952,0.8144 S,0,37171,37266,0.8144,0.7952 S,0,37648,37743,0.7952,0.8144 S,0,37743,37838,0.8144,0.7952 S,0,38219,38314,0.7952,0.8144 S,0,38314,38409,0.8144,0.7952 S,0,38791,38886,0.7952,0.8144 S,0,38886,38981,0.8144,0.7952 S,0,39362,39457,0.7952,0.8144 S,0,39457,39552,0.8144,0.7952 S,0,39933,40028,0.7952,0.8144 S,0,40028,40123,0.8144,0.7952 S,0,40505,40600,0.7952,0.8144 S,0,40600,40695,0.8144,0.7952 S,0,41076,41171,0.7952,0.8144 S,0,41171,41266,0.8144,0.7952 S,0,41648,41743,0.7952,0.8144 S,0,41743,41838,0.8144,0.7952 S,0,42219,42314,0.7952,0.8144 S,0,42314,42409,0.8144,0.7952 S,0,42791,42886,0.7952,0.8144 S,0,42886,42981,0.8144,0.7952 S,0,43362,43457,0.7952,0.8144 S,0,43457,43552,0.8144,0.7952 S,0,43933,44028,0.7952,0.8144 S,0,44028,44123,0.8144,0.7952 S,0,44505,44600,0.7952,0.8144 S,0,44600,44695,0.8144,0.7952 S,0,45076,45171,0.7952,0.8144 S,0,45171,45266,0.8144,0.7952 S,0,45648,45743,0.7952,0.8144 S,0,45743,45838,0.8144,0.7952 S,0,46219,46314,0.7952,0.8144 S,0,46314,46409,0.8144,0.7952 S,0,46791,46886,0.7952,0.8144 S,0,46886,46981,0.8144,0.7952 S,0,47362,47457,0.7952,0.8144 S,0,47457,47552,0.8144,0.7952 S,0,47933,48028,0.7952,0.8144 S,0,48028,48123,0.8144,0.7952 S,0,48505,48600,0.7952,0.8144 S,0,48600,48695,0.8144,0.7952 S,0,49076,49171,0.7952,0.8144 S,0,49171,49266,0.8144,0.7952 S,0,49648,49743,0.7952,0.8144 S,0,49743,49838,0.8144,0.7952 S,0,50219,50314,0.7952,0.8144 S,0,50314,50409,0.8144,0.7952 S,0,50791,50886,0.7952,0.8144 S,0,50886,50981,0.8144,0.7952 S,0,51362,51457,0.7952,0.8144 S,0,51457,51552,0.8144,0.7952 S,0,51933,52028,0.7952,0.8144 S,0,52028,52123,0.8144,0.7952 S,0,52505,52600,0.7952,0.8144 S,0,52600,52695,0.8144,0.7952 S,0,53076,53171,0.7952,0.8144 S,0,53171,53266,0.8144,0.7952 S,0,53648,53743,0.7952,0.8144 S,0,53743,53838,0.8144,0.7952 S,0,54219,54314,0.7952,0.8144 S,0,54314,54409,0.8144,0.7952 S,0,54791,54886,0.7952,0.8144 S,0,54886,54981,0.8144,0.7952 S,0,55362,55457,0.7952,0.8144 S,0,55457,55552,0.8144,0.7952 S,0,55933,56028,0.7952,0.8144 S,0,56028,56123,0.8144,0.7952 S,0,56505,56600,0.7952,0.8144 S,0,56600,56695,0.8144,0.7952 S,0,57076,57171,0.7952,0.8144 S,0,57171,57266,0.8144,0.7952 S,0,57648,57743,0.7952,0.8144 S,0,57743,57838,0.8144,0.7952 S,0,58219,58314,0.7952,0.8144 S,0,58314,58409,0.8144,0.7952 S,0,58791,58886,0.7952,0.8144 S,0,58886,58981,0.8144,0.7952 S,0,59362,59457,0.7952,0.8144 S,0,59457,59552,0.8144,0.7952 S,0,59933,60028,0.7952,0.8144 S,0,60028,60123,0.8144,0.7952 S,0,60505,60600,0.7952,0.8144 S,0,60600,60695,0.8144,0.7952 S,0,61076,61171,0.7952,0.8144 S,0,61171,61266,0.8144,0.7952 S,0,61648,61743,0.7952,0.8144 S,0,61743,61838,0.8144,0.7952 S,0,62219,62314,0.7952,0.8144 S,0,62314,62409,0.8144,0.7952 S,0,62791,62886,0.7952,0.8144 S,0,62886,62981,0.8144,0.7952 S,0,63362,63457,0.7952,0.8144 S,0,63457,63552,0.8144,0.7952 S,0,63933,64028,0.7952,0.8144 S,0,64028,64123,0.8144,0.7952 S,0,64505,64600,0.7952,0.8144 S,0,64600,64695,0.8144,0.7952 S,0,65076,65171,0.7952,0.8144 S,0,65171,65266,0.8144,0.7952 S,0,65648,65743,0.7952,0.8144 S,0,65743,65838,0.8144,0.7952 S,0,66219,66314,0.7952,0.8144 S,0,66314,66409,0.8144,0.7952 S,0,66791,66886,0.7952,0.8144 S,0,66886,66981,0.8144,0.7952 S,0,67362,67457,0.7952,0.8144 S,0,67457,67552,0.8144,0.7952 S,0,67933,68028,0.7952,0.8144 S,0,68028,68123,0.8144,0.7952 S,0,68505,68600,0.7952,0.8144 S,0,68600,68695,0.8144,0.7952 S,0,69076,69171,0.7952,0.8144 S,0,69171,69266,0.8144,0.7952 S,0,69648,69743,0.7952,0.8144 S,0,69743,69838,0.8144,0.7952 S,0,70219,70314,0.7952,0.8144 S,0,70314,70409,0.8144,0.7952 S,0,70791,70886,0.7952,0.8144 S,0,70886,70981,0.8144,0.7952 S,0,71362,71457,0.7952,0.8144 S,0,71457,71552,0.8144,0.7952 S,0,71933,72028,0.7952,0.8144 S,0,72028,72123,0.8144,0.7952 S,0,72505,72600,0.7952,0.8144 S,0,72600,72695,0.8144,0.7952 S,0,73076,73171,0.7952,0.8144 S,0,73171,73266,0.8144,0.7952 S,0,73648,73743,0.7952,0.8144 S,0,73743,73838,0.8144,0.7952 S,0,74219,74314,0.7952,0.8144 S,0,74314,74409,0.8144,0.7952 S,0,74791,74886,0.7952,0.8144 S,0,74886,74981,0.8144,0.7952 S,0,75362,75457,0.7952,0.8144 S,0,75457,75552,0.8144,0.7952 S,0,75933,76028,0.7952,0.8144 S,0,76028,76123,0.8144,0.7952 S,0,76505,76600,0.7952,0.8144 S,0,76600,76695,0.8144,0.7952 S,0,77076,77171,0.7952,0.8144 S,0,77171,77266,0.8144,0.7952 S,0,77648,77743,0.7952,0.8144 S,0,77743,77838,0.8144,0.7952 S,0,78219,78314,0.7952,0.8144 S,0,78314,78409,0.8144,0.7952 S,0,78791,78886,0.7952,0.8144 S,0,78886,78981,0.8144,0.7952 S,0,79362,79457,0.7952,0.8144 S,0,79457,79552,0.8144,0.7952 S,0,79933,80028,0.7952,0.8144 S,0,80028,80123,0.8144,0.7952 S,0,80505,80600,0.7952,0.8144 S,0,80600,80695,0.8144,0.7952 S,0,81076,81171,0.7952,0.8144 S,0,81171,81266,0.8144,0.7952 S,0,81648,81743,0.7952,0.8144 S,0,81743,81838,0.8144,0.7952 S,0,82219,82314,0.7952,0.8144 S,0,82314,82409,0.8144,0.7952 S,0,82791,82886,0.7952,0.8144 S,0,82886,82981,0.8144,0.7952 S,0,83362,83457,0.7952,0.8144 S,0,83457,83552,0.8144,0.7952 S,0,83933,84028,0.7952,0.8144 S,0,84028,84123,0.8144,0.7952 S,0,84505,84600,0.7952,0.8144 S,0,84600,84695,0.8144,0.7952 S,0,85076,85171,0.7952,0.8144 S,0,85171,85266,0.8144,0.7952 S,0,85648,85743,0.7952,0.8144 S,0,85743,85838,0.8144,0.7952 S,0,86219,86314,0.7952,0.8144 S,0,86314,86409,0.8144,0.7952 S,0,86791,86886,0.7952,0.8144 S,0,86886,86981,0.8144,0.7952 S,0,87362,87457,0.7952,0.8144 S,0,87457,87552,0.8144,0.7952 S,0,87933,88028,0.7952,0.8144 S,0,88028,88123,0.8144,0.7952 S,0,88505,88600,0.7952,0.8144 S,0,88600,88695,0.8144,0.7952 S,0,89076,89171,0.7952,0.8144 S,0,89171,89266,0.8144,0.7952 S,0,89648,89743,0.7952,0.8144 S,0,89743,89838,0.8144,0.7952 S,0,90219,90314,0.7952,0.8144 S,0,90314,90409,0.8144,0.7952 S,0,90791,90886,0.7952,0.8144 S,0,90886,90981,0.8144,0.7952 S,0,91362,91457,0.7952,0.8144 S,0,91457,91552,0.8144,0.7952 S,0,91933,92028,0.7952,0.8144 S,0,92028,92123,0.8144,0.7952 S,0,92505,92600,0.7952,0.8144 S,0,92600,92695,0.8144,0.7952 S,0,93076,93171,0.7952,0.8144 S,0,93171,93266,0.8144,0.7952 S,0,93648,93743,0.7952,0.8144 S,0,93743,93838,0.8144,0.7952 S,0,94219,94314,0.7952,0.8144 S,0,94314,94409,0.8144,0.7952 S,0,94791,94886,0.7952,0.8144 S,0,94886,94981,0.8144,0.7952 S,0,95362,95457,0.7952,0.8144 S,0,95457,95552,0.8144,0.7952 S,0,95933,96028,0.7952,0.8144 S,0,96028,96123,0.8144,0.7952 S,0,96505,96600,0.7952,0.8144 S,0,96600,96695,0.8144,0.7952 S,0,97076,97171,0.7952,0.8144 S,0,97171,97266,0.8144,0.7952 S,0,97648,97743,0.7952,0.8144 S,0,97743,97838,0.8144,0.7952 S,0,98219,98314,0.7952,0.8144 S,0,98314,98409,0.8144,0.7952 S,0,98791,98886,0.7952,0.8144 S,0,98886,98981,0.8144,0.7952 S,0,99362,99457,0.7952,0.8144 S,0,99457,99552,0.8144,0.7952 S,0,99934,100029,0.7952,0.8144 S,0,100029,100124,0.8144,0.7952 S,0,100505,100600,0.7952,0.8144 S,0,100600,100695,0.8144,0.7952 S,0,101076,101171,0.7952,0.8144 S,0,101171,101266,0.8144,0.7952 S,0,101648,101743,0.7952,0.8144 S,0,101743,101838,0.8144,0.7952 S,0,102219,102314,0.7952,0.8144 S,0,102314,102409,0.8144,0.7952 S,0,102791,102886,0.7952,0.8144 S,0,102886,102981,0.8144,0.7952 S,0,103362,103457,0.7952,0.8144 S,0,103457,103552,0.8144,0.7952 S,0,103934,104029,0.7952,0.8144 S,0,104029,104124,0.8144,0.7952 S,0,104505,104600,0.7952,0.8144 S,0,104600,104695,0.8144,0.7952 S,0,105076,105171,0.7952,0.8144 S,0,105171,105266,0.8144,0.7952 S,0,105648,105743,0.7952,0.8144 S,0,105743,105838,0.8144,0.7952 S,0,106219,106314,0.7952,0.8144 S,0,106314,106409,0.8144,0.7952 S,0,106791,106886,0.7952,0.8144 S,0,106886,106981,0.8144,0.7952 S,0,107362,107457,0.7952,0.8144 S,0,107457,107552,0.8144,0.7952 S,0,107934,108029,0.7952,0.8144 S,0,108029,108124,0.8144,0.7952 S,0,108505,108600,0.7952,0.8144 S,0,108600,108695,0.8144,0.7952 S,0,109076,109171,0.7952,0.8144 S,0,109171,109266,0.8144,0.7952 S,0,109648,109743,0.7952,0.8144 S,0,109743,109838,0.8144,0.7952 S,0,110219,110314,0.7952,0.8144 S,0,110314,110409,0.8144,0.7952 S,0,110791,110886,0.7952,0.8144 S,0,110886,110981,0.8144,0.7952 S,0,111362,111457,0.7952,0.8144 S,0,111457,111552,0.8144,0.7952 S,0,111934,112029,0.7952,0.8144 S,0,112029,112124,0.8144,0.7952 S,0,112505,112600,0.7952,0.8144 S,0,112600,112695,0.8144,0.7952 S,0,113076,113171,0.7952,0.8144 S,0,113171,113266,0.8144,0.7952 S,0,113648,113743,0.7952,0.8144 S,0,113743,113838,0.8144,0.7952 S,0,114219,114314,0.7952,0.8144 S,0,114314,114409,0.8144,0.7952 S,0,114791,114886,0.7952,0.8144 S,0,114886,114981,0.8144,0.7952 S,0,115362,115457,0.7952,0.8144 S,0,115457,115552,0.8144,0.7952 S,0,115934,116029,0.7952,0.8144 S,0,116029,116124,0.8144,0.7952 S,0,116505,116600,0.7952,0.8144 S,0,116600,116695,0.8144,0.7952 S,0,117076,117171,0.7952,0.8144 S,0,117171,117266,0.8144,0.7952 S,0,117648,117743,0.7952,0.8144 S,0,117743,117838,0.8144,0.7952 S,0,118219,118314,0.7952,0.8144 S,0,118314,118409,0.8144,0.7952 S,0,118791,118886,0.7952,0.8144 S,0,118886,118981,0.8144,0.7952 S,0,119362,119457,0.7952,0.8144 S,0,119457,119552,0.8144,0.7952 S,0,119934,120029,0.7952,0.8144 S,0,120029,120124,0.8144,0.7952 S,0,120505,120600,0.7952,0.8144 S,0,120600,120695,0.8144,0.7952 S,0,121076,121171,0.7952,0.8144 S,0,121171,121266,0.8144,0.7952 S,0,121648,121743,0.7952,0.8144 S,0,121743,121838,0.8144,0.7952 S,0,122219,122314,0.7952,0.8144 S,0,122314,122409,0.8144,0.7952 S,0,122791,122886,0.7952,0.8144 S,0,122886,122981,0.8144,0.7952 S,0,123362,123457,0.7952,0.8144 S,0,123457,123552,0.8144,0.7952 S,0,123934,124029,0.7952,0.8144 S,0,124029,124124,0.8144,0.7952 S,0,124505,124600,0.7952,0.8144 S,0,124600,124695,0.8144,0.7952 S,0,125076,125171,0.7952,0.8144 S,0,125171,125266,0.8144,0.7952 S,0,125648,125743,0.7952,0.8144 S,0,125743,125838,0.8144,0.7952 S,0,126219,126314,0.7952,0.8144 S,0,126314,126409,0.8144,0.7952 S,0,126791,126886,0.7952,0.8144 S,0,126886,126981,0.8144,0.7952 S,0,127362,127457,0.7952,0.8144 S,0,127457,127552,0.8144,0.7952 S,0,127934,128029,0.7952,0.8144 S,0,128029,128124,0.8144,0.7952 S,0,128505,128600,0.7952,0.8144 S,0,128600,128695,0.8144,0.7952 S,0,129076,129171,0.7952,0.8144 S,0,129171,129266,0.8144,0.7952 S,0,129648,129743,0.7952,0.8144 S,0,129743,129838,0.8144,0.7952 S,0,130219,130314,0.7952,0.8144 S,0,130314,130409,0.8144,0.7952 S,0,130791,130886,0.7952,0.8144 S,0,130886,130981,0.8144,0.7952 S,0,131362,131457,0.7952,0.8144 S,0,131457,131552,0.8144,0.7952 S,0,131934,132029,0.7952,0.8144 S,0,132029,132124,0.8144,0.7952 S,0,132505,132600,0.7952,0.8144 S,0,132600,132695,0.8144,0.7952 S,0,133076,133171,0.7952,0.8144 S,0,133171,133266,0.8144,0.7952 S,0,133648,133743,0.7952,0.8144 S,0,133743,133838,0.8144,0.7952 S,0,134219,134314,0.7952,0.8144 S,0,134314,134409,0.8144,0.7952 S,0,134791,134886,0.7952,0.8144 S,0,134886,134981,0.8144,0.7952 S,0,135362,135457,0.7952,0.8144 S,0,135457,135552,0.8144,0.7952 S,0,135934,136029,0.7952,0.8144 S,0,136029,136124,0.8144,0.7952 S,0,136505,136600,0.7952,0.8144 S,0,136600,136695,0.8144,0.7952 S,0,137076,137171,0.7952,0.8144 S,0,137171,137266,0.8144,0.7952 S,0,137648,137743,0.7952,0.8144 S,0,137743,137838,0.8144,0.7952 S,0,138219,138314,0.7952,0.8144 S,0,138314,138409,0.8144,0.7952 S,0,138791,138886,0.7952,0.8144 S,0,138886,138981,0.8144,0.7952 S,0,139362,139457,0.7952,0.8144 S,0,139457,139552,0.8144,0.7952 S,0,139934,140029,0.7952,0.8144 S,0,140029,140124,0.8144,0.7952 S,0,140505,140600,0.7952,0.8144 S,0,140600,140695,0.8144,0.7952 S,0,141076,141171,0.7952,0.8144 S,0,141171,141266,0.8144,0.7952 S,0,141648,141743,0.7952,0.8144 S,0,141743,141838,0.8144,0.7952 S,0,142219,142314,0.7952,0.8144 S,0,142314,142409,0.8144,0.7952 S,0,142791,142886,0.7952,0.8144 S,0,142886,142981,0.8144,0.7952 S,0,143362,143457,0.7952,0.8144 S,0,143457,143552,0.8144,0.7952 S,0,143934,144029,0.7952,0.8144 S,0,144029,144124,0.8144,0.7952 S,0,144505,144600,0.7952,0.8144 S,0,144600,144695,0.8144,0.7952 S,0,145076,145171,0.7952,0.8144 S,0,145171,145266,0.8144,0.7952 S,0,145648,145743,0.7952,0.8144 S,0,145743,145838,0.8144,0.7952 S,0,146219,146314,0.7952,0.8144 S,0,146314,146409,0.8144,0.7952 S,0,146791,146886,0.7952,0.8144 S,0,146886,146981,0.8144,0.7952 S,0,147362,147457,0.7952,0.8144 S,0,147457,147552,0.8144,0.7952 S,0,147934,148029,0.7952,0.8144 S,0,148029,148124,0.8144,0.7952 S,0,148505,148600,0.7952,0.8144 S,0,148600,148695,0.8144,0.7952 S,0,149076,149171,0.7952,0.8144 S,0,149171,149266,0.8144,0.7952 S,0,149648,149743,0.7952,0.8144 S,0,149743,149838,0.8144,0.7952 S,0,150219,150314,0.7952,0.8144 S,0,150314,150409,0.8144,0.7952 S,0,150791,150886,0.7952,0.8144 S,0,150886,150981,0.8144,0.7952 S,0,151362,151457,0.7952,0.8144 S,0,151457,151552,0.8144,0.7952 S,0,151934,152029,0.7952,0.8144 S,0,152029,152124,0.8144,0.7952 S,0,152505,152600,0.7952,0.8144 S,0,152600,152695,0.8144,0.7952 S,0,153076,153171,0.7952,0.8144 S,0,153171,153266,0.8144,0.7952 S,0,153648,153743,0.7952,0.8144 S,0,153743,153838,0.8144,0.7952 S,0,154219,154314,0.7952,0.8144 S,0,154314,154409,0.8144,0.7952 S,0,154791,154886,0.7952,0.8144 S,0,154886,154981,0.8144,0.7952 S,0,155362,155457,0.7952,0.8144 S,0,155457,155552,0.8144,0.7952 S,0,155934,156029,0.7952,0.8144 S,0,156029,156124,0.8144,0.7952 S,0,156505,156600,0.7952,0.8144 S,0,156600,156695,0.8144,0.7952 S,0,157077,157172,0.7952,0.8144 S,0,157172,157267,0.8144,0.7952 S,0,157648,157743,0.7952,0.8144 S,0,157743,157838,0.8144,0.7952 S,0,158219,158314,0.7952,0.8144 S,0,158314,158409,0.8144,0.7952 S,0,158791,158886,0.7952,0.8144 S,0,158886,158981,0.8144,0.7952 S,0,159362,159457,0.7952,0.8144 S,0,159457,159552,0.8144,0.7952 S,0,159934,160029,0.7952,0.8144 S,0,160029,160124,0.8144,0.7952 S,0,160505,160600,0.7952,0.8144 S,0,160600,160695,0.8144,0.7952 S,0,161077,161172,0.7952,0.8144 S,0,161172,161267,0.8144,0.7952 S,0,161648,161743,0.7952,0.8144 S,0,161743,161838,0.8144,0.7952 S,0,162219,162314,0.7952,0.8144 S,0,162314,162409,0.8144,0.7952 S,0,162791,162886,0.7952,0.8144 S,0,162886,162981,0.8144,0.7952 S,0,163362,163457,0.7952,0.8144 S,0,163457,163552,0.8144,0.7952 S,0,163934,164029,0.7952,0.8144 S,0,164029,164124,0.8144,0.7952 S,0,164505,164600,0.7952,0.8144 S,0,164600,164695,0.8144,0.7952 S,0,165077,165172,0.7952,0.8144 S,0,165172,165267,0.8144,0.7952 S,0,165648,165743,0.7952,0.8144 S,0,165743,165838,0.8144,0.7952 S,0,166219,166314,0.7952,0.8144 S,0,166314,166409,0.8144,0.7952 S,0,166791,166886,0.7952,0.8144 S,0,166886,166981,0.8144,0.7952 S,0,167362,167457,0.7952,0.8144 S,0,167457,167552,0.8144,0.7952 S,0,167934,168029,0.7952,0.8144 S,0,168029,168124,0.8144,0.7952 S,0,168505,168600,0.7952,0.8144 S,0,168600,168695,0.8144,0.7952 S,0,169077,169172,0.7952,0.8144 S,0,169172,169267,0.8144,0.7952 S,0,169648,169743,0.7952,0.8144 S,0,169743,169838,0.8144,0.7952 S,0,170219,170314,0.7952,0.8144 S,0,170314,170409,0.8144,0.7952 S,0,170791,170886,0.7952,0.8144 S,0,170886,170981,0.8144,0.7952 S,0,171362,171457,0.7952,0.8144 S,0,171457,171552,0.8144,0.7952 S,0,171934,172029,0.7952,0.8144 S,0,172029,172124,0.8144,0.7952 S,0,172505,172600,0.7952,0.8144 S,0,172600,172695,0.8144,0.7952 S,0,173077,173172,0.7952,0.8144 S,0,173172,173267,0.8144,0.7952 S,0,173648,173743,0.7952,0.8144 S,0,173743,173838,0.8144,0.7952 S,0,174219,174314,0.7952,0.8144 S,0,174314,174409,0.8144,0.7952 S,0,174791,174886,0.7952,0.8144 S,0,174886,174981,0.8144,0.7952 S,0,175362,175457,0.7952,0.8144 S,0,175457,175552,0.8144,0.7952 S,0,175934,176029,0.7952,0.8144 S,0,176029,176124,0.8144,0.7952 S,0,176505,176600,0.7952,0.8144 S,0,176600,176695,0.8144,0.7952 S,0,177077,177172,0.7952,0.8144 S,0,177172,177267,0.8144,0.7952 S,0,177648,177743,0.7952,0.8144 S,0,177743,177838,0.8144,0.7952 S,0,178219,178314,0.7952,0.8144 S,0,178314,178409,0.8144,0.7952 S,0,178791,178886,0.7952,0.8144 S,0,178886,178981,0.8144,0.7952 S,0,179362,179457,0.7952,0.8144 S,0,179457,179552,0.8144,0.7952 S,0,179934,180029,0.7952,0.8144 S,0,180029,180124,0.8144,0.7952 S,0,180505,180600,0.7952,0.8144 S,0,180600,180695,0.8144,0.7952 S,0,181077,181172,0.7952,0.8144 S,0,181172,181267,0.8144,0.7952 S,0,181648,181743,0.7952,0.8144 S,0,181743,181838,0.8144,0.7952 S,0,182219,182314,0.7952,0.8144 S,0,182314,182409,0.8144,0.7952 S,0,182791,182886,0.7952,0.8144 S,0,182886,182981,0.8144,0.7952 S,0,183362,183457,0.7952,0.8144 S,0,183457,183552,0.8144,0.7952 S,0,183934,184029,0.7952,0.8144 S,0,184029,184124,0.8144,0.7952 S,0,184505,184600,0.7952,0.8144 S,0,184600,184695,0.8144,0.7952 S,0,185077,185172,0.7952,0.8144 S,0,185172,185267,0.8144,0.7952 S,0,185648,185743,0.7952,0.8144 S,0,185743,185838,0.8144,0.7952 S,0,186219,186314,0.7952,0.8144 S,0,186314,186409,0.8144,0.7952 S,0,186791,186886,0.7952,0.8144 S,0,186886,186981,0.8144,0.7952 S,0,187362,187457,0.7952,0.8144 S,0,187457,187552,0.8144,0.7952 S,0,187934,188029,0.7952,0.8144 S,0,188029,188124,0.8144,0.7952 S,0,188505,188600,0.7952,0.8144 S,0,188600,188695,0.8144,0.7952 S,0,189077,189172,0.7952,0.8144 S,0,189172,189267,0.8144,0.7952 S,0,189648,189743,0.7952,0.8144 S,0,189743,189838,0.8144,0.7952 S,0,190219,190314,0.7952,0.8144 S,0,190314,190409,0.8144,0.7952 S,0,190791,190886,0.7952,0.8144 S,0,190886,190981,0.8144,0.7952 S,0,191362,191457,0.7952,0.8144 S,0,191457,191552,0.8144,0.7952 S,0,191934,192029,0.7952,0.8144 S,0,192029,192124,0.8144,0.7952 S,0,192505,192600,0.7952,0.8144 S,0,192600,192695,0.8144,0.7952 S,0,193077,193172,0.7952,0.8144 S,0,193172,193267,0.8144,0.7952 S,0,193648,193743,0.7952,0.8144 S,0,193743,193838,0.8144,0.7952 S,0,194219,194314,0.7952,0.8144 S,0,194314,194409,0.8144,0.7952 S,0,194791,194886,0.7952,0.8144 S,0,194886,194981,0.8144,0.7952 S,0,195362,195457,0.7952,0.8144 S,0,195457,195552,0.8144,0.7952 S,0,195934,196029,0.7952,0.8144 S,0,196029,196124,0.8144,0.7952 S,0,196505,196600,0.7952,0.8144 S,0,196600,196695,0.8144,0.7952 S,0,197077,197172,0.7952,0.8144 S,0,197172,197267,0.8144,0.7952 S,0,197648,197743,0.7952,0.8144 S,0,197743,197838,0.8144,0.7952 S,0,198219,198314,0.7952,0.8144 S,0,198314,198409,0.8144,0.7952 S,0,198791,198886,0.7952,0.8144 S,0,198886,198981,0.8144,0.7952 S,0,199362,199457,0.7952,0.8144 S,0,199457,199552,0.8144,0.7952 S,0,199934,200029,0.7952,0.8144 S,0,200029,200124,0.8144,0.7952 S,0,200505,200600,0.7952,0.8144 S,0,200600,200695,0.8144,0.7952 S,0,201077,201172,0.7952,0.8144 S,0,201172,201267,0.8144,0.7952 S,0,201648,201743,0.7952,0.8144 S,0,201743,201838,0.8144,0.7952 S,0,202219,202314,0.7952,0.8144 S,0,202314,202409,0.8144,0.7952 S,0,202791,202886,0.7952,0.8144 S,0,202886,202981,0.8144,0.7952 S,0,203362,203457,0.7952,0.8144 S,0,203457,203552,0.8144,0.7952 S,0,203934,204029,0.7952,0.8144 S,0,204029,204124,0.8144,0.7952 S,0,204505,204600,0.7952,0.8144 S,0,204600,204695,0.8144,0.7952 S,0,205077,205172,0.7952,0.8144 S,0,205172,205267,0.8144,0.7952 S,0,205648,205743,0.7952,0.8144 S,0,205743,205838,0.8144,0.7952 S,0,206219,206314,0.7952,0.8144 S,0,206314,206409,0.8144,0.7952 S,0,206791,206886,0.7952,0.8144 S,0,206886,206981,0.8144,0.7952 S,0,207362,207457,0.7952,0.8144 S,0,207457,207552,0.8144,0.7952 S,0,207934,208029,0.7952,0.8144 S,0,208029,208124,0.8144,0.7952 S,0,208505,208600,0.7952,0.8144 S,0,208600,208695,0.8144,0.7952 S,0,209077,209172,0.7952,0.8144 S,0,209172,209267,0.8144,0.7952 S,0,209648,209743,0.7952,0.8144 S,0,209743,209838,0.8144,0.7952 S,0,210219,210314,0.7952,0.8144 S,0,210314,210409,0.8144,0.7952 S,0,210791,210886,0.7952,0.8144 S,0,210886,210981,0.8144,0.7952 S,0,211362,211457,0.7952,0.8144 S,0,211457,211552,0.8144,0.7952 S,0,211934,212029,0.7952,0.8144 S,0,212029,212124,0.8144,0.7952 S,0,212505,212600,0.7952,0.8144 S,0,212600,212695,0.8144,0.7952 S,0,213077,213172,0.7952,0.8144 S,0,213172,213267,0.8144,0.7952 F,0,213457,213743,1,0 S,0,213648,213743,0.7952,0.8144 S,0,213743,,0.8144
Sprite,Background,Centre,"colum2.png",320,240 M,0,0,,600,240 F,0,0,,0 S,0,0,,0.7952 F,0,1172,10314,0,1 S,0,10219,10314,0.7952,0.8144 S,0,10314,10409,0.8144,0.7952 S,0,10790,10885,0.7952,0.8144 S,0,10885,10980,0.8144,0.7952 S,0,11362,11457,0.7952,0.8144 S,0,11457,11552,0.8144,0.7952 S,0,11933,12028,0.7952,0.8144 S,0,12028,12123,0.8144,0.7952 S,0,12505,12600,0.7952,0.8144 S,0,12600,12695,0.8144,0.7952 S,0,13076,13171,0.7952,0.8144 S,0,13171,13266,0.8144,0.7952 S,0,13648,13743,0.7952,0.8144 S,0,13743,13838,0.8144,0.7952 S,0,14219,14314,0.7952,0.8144 S,0,14314,14409,0.8144,0.7952 S,0,14790,14885,0.7952,0.8144 S,0,14885,14980,0.8144,0.7952 S,0,15362,15457,0.7952,0.8144 S,0,15457,15552,0.8144,0.7952 S,0,15933,16028,0.7952,0.8144 S,0,16028,16123,0.8144,0.7952 S,0,16505,16600,0.7952,0.8144 S,0,16600,16695,0.8144,0.7952 S,0,17076,17171,0.7952,0.8144 S,0,17171,17266,0.8144,0.7952 S,0,17648,17743,0.7952,0.8144 S,0,17743,17838,0.8144,0.7952 S,0,18219,18314,0.7952,0.8144 S,0,18314,18409,0.8144,0.7952 S,0,18790,18885,0.7952,0.8144 S,0,18885,18980,0.8144,0.7952 S,0,19362,19457,0.7952,0.8144 S,0,19457,19552,0.8144,0.7952 S,0,19933,20028,0.7952,0.8144 S,0,20028,20123,0.8144,0.7952 S,0,20505,20600,0.7952,0.8144 S,0,20600,20695,0.8144,0.7952 S,0,21076,21171,0.7952,0.8144 S,0,21171,21266,0.8144,0.7952 S,0,21648,21743,0.7952,0.8144 S,0,21743,21838,0.8144,0.7952 S,0,22219,22314,0.7952,0.8144 S,0,22314,22409,0.8144,0.7952 S,0,22790,22885,0.7952,0.8144 S,0,22885,22980,0.8144,0.7952 S,0,23362,23457,0.7952,0.8144 S,0,23457,23552,0.8144,0.7952 S,0,23933,24028,0.7952,0.8144 S,0,24028,24123,0.8144,0.7952 S,0,24505,24600,0.7952,0.8144 S,0,24600,24695,0.8144,0.7952 S,0,25076,25171,0.7952,0.8144 S,0,25171,25266,0.8144,0.7952 S,0,25648,25743,0.7952,0.8144 S,0,25743,25838,0.8144,0.7952 S,0,26219,26314,0.7952,0.8144 S,0,26314,26409,0.8144,0.7952 S,0,26790,26885,0.7952,0.8144 S,0,26885,26980,0.8144,0.7952 S,0,27362,27457,0.7952,0.8144 S,0,27457,27552,0.8144,0.7952 S,0,27933,28028,0.7952,0.8144 S,0,28028,28123,0.8144,0.7952 S,0,28505,28600,0.7952,0.8144 S,0,28600,28695,0.8144,0.7952 S,0,29076,29171,0.7952,0.8144 S,0,29171,29266,0.8144,0.7952 S,0,29648,29743,0.7952,0.8144 S,0,29743,29838,0.8144,0.7952 S,0,30219,30314,0.7952,0.8144 S,0,30314,30409,0.8144,0.7952 S,0,30790,30885,0.7952,0.8144 S,0,30885,30980,0.8144,0.7952 S,0,31362,31457,0.7952,0.8144 S,0,31457,31552,0.8144,0.7952 S,0,31933,32028,0.7952,0.8144 S,0,32028,32123,0.8144,0.7952 S,0,32505,32600,0.7952,0.8144 S,0,32600,32695,0.8144,0.7952 S,0,33076,33171,0.7952,0.8144 S,0,33171,33266,0.8144,0.7952 S,0,33648,33743,0.7952,0.8144 S,0,33743,33838,0.8144,0.7952 S,0,34219,34314,0.7952,0.8144 S,0,34314,34409,0.8144,0.7952 S,0,34790,34885,0.7952,0.8144 S,0,34885,34980,0.8144,0.7952 S,0,35362,35457,0.7952,0.8144 S,0,35457,35552,0.8144,0.7952 S,0,35933,36028,0.7952,0.8144 S,0,36028,36123,0.8144,0.7952 S,0,36505,36600,0.7952,0.8144 S,0,36600,36695,0.8144,0.7952 S,0,37076,37171,0.7952,0.8144 S,0,37171,37266,0.8144,0.7952 S,0,37648,37743,0.7952,0.8144 S,0,37743,37838,0.8144,0.7952 S,0,38219,38314,0.7952,0.8144 S,0,38314,38409,0.8144,0.7952 S,0,38791,38886,0.7952,0.8144 S,0,38886,38981,0.8144,0.7952 S,0,39362,39457,0.7952,0.8144 S,0,39457,39552,0.8144,0.7952 S,0,39933,40028,0.7952,0.8144 S,0,40028,40123,0.8144,0.7952 S,0,40505,40600,0.7952,0.8144 S,0,40600,40695,0.8144,0.7952 S,0,41076,41171,0.7952,0.8144 S,0,41171,41266,0.8144,0.7952 S,0,41648,41743,0.7952,0.8144 S,0,41743,41838,0.8144,0.7952 S,0,42219,42314,0.7952,0.8144 S,0,42314,42409,0.8144,0.7952 S,0,42791,42886,0.7952,0.8144 S,0,42886,42981,0.8144,0.7952 S,0,43362,43457,0.7952,0.8144 S,0,43457,43552,0.8144,0.7952 S,0,43933,44028,0.7952,0.8144 S,0,44028,44123,0.8144,0.7952 S,0,44505,44600,0.7952,0.8144 S,0,44600,44695,0.8144,0.7952 S,0,45076,45171,0.7952,0.8144 S,0,45171,45266,0.8144,0.7952 S,0,45648,45743,0.7952,0.8144 S,0,45743,45838,0.8144,0.7952 S,0,46219,46314,0.7952,0.8144 S,0,46314,46409,0.8144,0.7952 S,0,46791,46886,0.7952,0.8144 S,0,46886,46981,0.8144,0.7952 S,0,47362,47457,0.7952,0.8144 S,0,47457,47552,0.8144,0.7952 S,0,47933,48028,0.7952,0.8144 S,0,48028,48123,0.8144,0.7952 S,0,48505,48600,0.7952,0.8144 S,0,48600,48695,0.8144,0.7952 S,0,49076,49171,0.7952,0.8144 S,0,49171,49266,0.8144,0.7952 S,0,49648,49743,0.7952,0.8144 S,0,49743,49838,0.8144,0.7952 S,0,50219,50314,0.7952,0.8144 S,0,50314,50409,0.8144,0.7952 S,0,50791,50886,0.7952,0.8144 S,0,50886,50981,0.8144,0.7952 S,0,51362,51457,0.7952,0.8144 S,0,51457,51552,0.8144,0.7952 S,0,51933,52028,0.7952,0.8144 S,0,52028,52123,0.8144,0.7952 S,0,52505,52600,0.7952,0.8144 S,0,52600,52695,0.8144,0.7952 S,0,53076,53171,0.7952,0.8144 S,0,53171,53266,0.8144,0.7952 S,0,53648,53743,0.7952,0.8144 S,0,53743,53838,0.8144,0.7952 S,0,54219,54314,0.7952,0.8144 S,0,54314,54409,0.8144,0.7952 S,0,54791,54886,0.7952,0.8144 S,0,54886,54981,0.8144,0.7952 S,0,55362,55457,0.7952,0.8144 S,0,55457,55552,0.8144,0.7952 S,0,55933,56028,0.7952,0.8144 S,0,56028,56123,0.8144,0.7952 S,0,56505,56600,0.7952,0.8144 S,0,56600,56695,0.8144,0.7952 S,0,57076,57171,0.7952,0.8144 S,0,57171,57266,0.8144,0.7952 S,0,57648,57743,0.7952,0.8144 S,0,57743,57838,0.8144,0.7952 S,0,58219,58314,0.7952,0.8144 S,0,58314,58409,0.8144,0.7952 S,0,58791,58886,0.7952,0.8144 S,0,58886,58981,0.8144,0.7952 S,0,59362,59457,0.7952,0.8144 S,0,59457,59552,0.8144,0.7952 S,0,59933,60028,0.7952,0.8144 S,0,60028,60123,0.8144,0.7952 S,0,60505,60600,0.7952,0.8144 S,0,60600,60695,0.8144,0.7952 S,0,61076,61171,0.7952,0.8144 S,0,61171,61266,0.8144,0.7952 S,0,61648,61743,0.7952,0.8144 S,0,61743,61838,0.8144,0.7952 S,0,62219,62314,0.7952,0.8144 S,0,62314,62409,0.8144,0.7952 S,0,62791,62886,0.7952,0.8144 S,0,62886,62981,0.8144,0.7952 S,0,63362,63457,0.7952,0.8144 S,0,63457,63552,0.8144,0.7952 S,0,63933,64028,0.7952,0.8144 S,0,64028,64123,0.8144,0.7952 S,0,64505,64600,0.7952,0.8144 S,0,64600,64695,0.8144,0.7952 S,0,65076,65171,0.7952,0.8144 S,0,65171,65266,0.8144,0.7952 S,0,65648,65743,0.7952,0.8144 S,0,65743,65838,0.8144,0.7952 S,0,66219,66314,0.7952,0.8144 S,0,66314,66409,0.8144,0.7952 S,0,66791,66886,0.7952,0.8144 S,0,66886,66981,0.8144,0.7952 S,0,67362,67457,0.7952,0.8144 S,0,67457,67552,0.8144,0.7952 S,0,67933,68028,0.7952,0.8144 S,0,68028,68123,0.8144,0.7952 S,0,68505,68600,0.7952,0.8144 S,0,68600,68695,0.8144,0.7952 S,0,69076,69171,0.7952,0.8144 S,0,69171,69266,0.8144,0.7952 S,0,69648,69743,0.7952,0.8144 S,0,69743,69838,0.8144,0.7952 S,0,70219,70314,0.7952,0.8144 S,0,70314,70409,0.8144,0.7952 S,0,70791,70886,0.7952,0.8144 S,0,70886,70981,0.8144,0.7952 S,0,71362,71457,0.7952,0.8144 S,0,71457,71552,0.8144,0.7952 S,0,71933,72028,0.7952,0.8144 S,0,72028,72123,0.8144,0.7952 S,0,72505,72600,0.7952,0.8144 S,0,72600,72695,0.8144,0.7952 S,0,73076,73171,0.7952,0.8144 S,0,73171,73266,0.8144,0.7952 S,0,73648,73743,0.7952,0.8144 S,0,73743,73838,0.8144,0.7952 S,0,74219,74314,0.7952,0.8144 S,0,74314,74409,0.8144,0.7952 S,0,74791,74886,0.7952,0.8144 S,0,74886,74981,0.8144,0.7952 S,0,75362,75457,0.7952,0.8144 S,0,75457,75552,0.8144,0.7952 S,0,75933,76028,0.7952,0.8144 S,0,76028,76123,0.8144,0.7952 S,0,76505,76600,0.7952,0.8144 S,0,76600,76695,0.8144,0.7952 S,0,77076,77171,0.7952,0.8144 S,0,77171,77266,0.8144,0.7952 S,0,77648,77743,0.7952,0.8144 S,0,77743,77838,0.8144,0.7952 S,0,78219,78314,0.7952,0.8144 S,0,78314,78409,0.8144,0.7952 S,0,78791,78886,0.7952,0.8144 S,0,78886,78981,0.8144,0.7952 S,0,79362,79457,0.7952,0.8144 S,0,79457,79552,0.8144,0.7952 S,0,79933,80028,0.7952,0.8144 S,0,80028,80123,0.8144,0.7952 S,0,80505,80600,0.7952,0.8144 S,0,80600,80695,0.8144,0.7952 S,0,81076,81171,0.7952,0.8144 S,0,81171,81266,0.8144,0.7952 S,0,81648,81743,0.7952,0.8144 S,0,81743,81838,0.8144,0.7952 S,0,82219,82314,0.7952,0.8144 S,0,82314,82409,0.8144,0.7952 S,0,82791,82886,0.7952,0.8144 S,0,82886,82981,0.8144,0.7952 S,0,83362,83457,0.7952,0.8144 S,0,83457,83552,0.8144,0.7952 S,0,83933,84028,0.7952,0.8144 S,0,84028,84123,0.8144,0.7952 S,0,84505,84600,0.7952,0.8144 S,0,84600,84695,0.8144,0.7952 S,0,85076,85171,0.7952,0.8144 S,0,85171,85266,0.8144,0.7952 S,0,85648,85743,0.7952,0.8144 S,0,85743,85838,0.8144,0.7952 S,0,86219,86314,0.7952,0.8144 S,0,86314,86409,0.8144,0.7952 S,0,86791,86886,0.7952,0.8144 S,0,86886,86981,0.8144,0.7952 S,0,87362,87457,0.7952,0.8144 S,0,87457,87552,0.8144,0.7952 S,0,87933,88028,0.7952,0.8144 S,0,88028,88123,0.8144,0.7952 S,0,88505,88600,0.7952,0.8144 S,0,88600,88695,0.8144,0.7952 S,0,89076,89171,0.7952,0.8144 S,0,89171,89266,0.8144,0.7952 S,0,89648,89743,0.7952,0.8144 S,0,89743,89838,0.8144,0.7952 S,0,90219,90314,0.7952,0.8144 S,0,90314,90409,0.8144,0.7952 S,0,90791,90886,0.7952,0.8144 S,0,90886,90981,0.8144,0.7952 S,0,91362,91457,0.7952,0.8144 S,0,91457,91552,0.8144,0.7952 S,0,91933,92028,0.7952,0.8144 S,0,92028,92123,0.8144,0.7952 S,0,92505,92600,0.7952,0.8144 S,0,92600,92695,0.8144,0.7952 S,0,93076,93171,0.7952,0.8144 S,0,93171,93266,0.8144,0.7952 S,0,93648,93743,0.7952,0.8144 S,0,93743,93838,0.8144,0.7952 S,0,94219,94314,0.7952,0.8144 S,0,94314,94409,0.8144,0.7952 S,0,94791,94886,0.7952,0.8144 S,0,94886,94981,0.8144,0.7952 S,0,95362,95457,0.7952,0.8144 S,0,95457,95552,0.8144,0.7952 S,0,95933,96028,0.7952,0.8144 S,0,96028,96123,0.8144,0.7952 S,0,96505,96600,0.7952,0.8144 S,0,96600,96695,0.8144,0.7952 S,0,97076,97171,0.7952,0.8144 S,0,97171,97266,0.8144,0.7952 S,0,97648,97743,0.7952,0.8144 S,0,97743,97838,0.8144,0.7952 S,0,98219,98314,0.7952,0.8144 S,0,98314,98409,0.8144,0.7952 S,0,98791,98886,0.7952,0.8144 S,0,98886,98981,0.8144,0.7952 S,0,99362,99457,0.7952,0.8144 S,0,99457,99552,0.8144,0.7952 S,0,99934,100029,0.7952,0.8144 S,0,100029,100124,0.8144,0.7952 S,0,100505,100600,0.7952,0.8144 S,0,100600,100695,0.8144,0.7952 S,0,101076,101171,0.7952,0.8144 S,0,101171,101266,0.8144,0.7952 S,0,101648,101743,0.7952,0.8144 S,0,101743,101838,0.8144,0.7952 S,0,102219,102314,0.7952,0.8144 S,0,102314,102409,0.8144,0.7952 S,0,102791,102886,0.7952,0.8144 S,0,102886,102981,0.8144,0.7952 S,0,103362,103457,0.7952,0.8144 S,0,103457,103552,0.8144,0.7952 S,0,103934,104029,0.7952,0.8144 S,0,104029,104124,0.8144,0.7952 S,0,104505,104600,0.7952,0.8144 S,0,104600,104695,0.8144,0.7952 S,0,105076,105171,0.7952,0.8144 S,0,105171,105266,0.8144,0.7952 S,0,105648,105743,0.7952,0.8144 S,0,105743,105838,0.8144,0.7952 S,0,106219,106314,0.7952,0.8144 S,0,106314,106409,0.8144,0.7952 S,0,106791,106886,0.7952,0.8144 S,0,106886,106981,0.8144,0.7952 S,0,107362,107457,0.7952,0.8144 S,0,107457,107552,0.8144,0.7952 S,0,107934,108029,0.7952,0.8144 S,0,108029,108124,0.8144,0.7952 S,0,108505,108600,0.7952,0.8144 S,0,108600,108695,0.8144,0.7952 S,0,109076,109171,0.7952,0.8144 S,0,109171,109266,0.8144,0.7952 S,0,109648,109743,0.7952,0.8144 S,0,109743,109838,0.8144,0.7952 S,0,110219,110314,0.7952,0.8144 S,0,110314,110409,0.8144,0.7952 S,0,110791,110886,0.7952,0.8144 S,0,110886,110981,0.8144,0.7952 S,0,111362,111457,0.7952,0.8144 S,0,111457,111552,0.8144,0.7952 S,0,111934,112029,0.7952,0.8144 S,0,112029,112124,0.8144,0.7952 S,0,112505,112600,0.7952,0.8144 S,0,112600,112695,0.8144,0.7952 S,0,113076,113171,0.7952,0.8144 S,0,113171,113266,0.8144,0.7952 S,0,113648,113743,0.7952,0.8144 S,0,113743,113838,0.8144,0.7952 S,0,114219,114314,0.7952,0.8144 S,0,114314,114409,0.8144,0.7952 S,0,114791,114886,0.7952,0.8144 S,0,114886,114981,0.8144,0.7952 S,0,115362,115457,0.7952,0.8144 S,0,115457,115552,0.8144,0.7952 S,0,115934,116029,0.7952,0.8144 S,0,116029,116124,0.8144,0.7952 S,0,116505,116600,0.7952,0.8144 S,0,116600,116695,0.8144,0.7952 S,0,117076,117171,0.7952,0.8144 S,0,117171,117266,0.8144,0.7952 S,0,117648,117743,0.7952,0.8144 S,0,117743,117838,0.8144,0.7952 S,0,118219,118314,0.7952,0.8144 S,0,118314,118409,0.8144,0.7952 S,0,118791,118886,0.7952,0.8144 S,0,118886,118981,0.8144,0.7952 S,0,119362,119457,0.7952,0.8144 S,0,119457,119552,0.8144,0.7952 S,0,119934,120029,0.7952,0.8144 S,0,120029,120124,0.8144,0.7952 S,0,120505,120600,0.7952,0.8144 S,0,120600,120695,0.8144,0.7952 S,0,121076,121171,0.7952,0.8144 S,0,121171,121266,0.8144,0.7952 S,0,121648,121743,0.7952,0.8144 S,0,121743,121838,0.8144,0.7952 S,0,122219,122314,0.7952,0.8144 S,0,122314,122409,0.8144,0.7952 S,0,122791,122886,0.7952,0.8144 S,0,122886,122981,0.8144,0.7952 S,0,123362,123457,0.7952,0.8144 S,0,123457,123552,0.8144,0.7952 S,0,123934,124029,0.7952,0.8144 S,0,124029,124124,0.8144,0.7952 S,0,124505,124600,0.7952,0.8144 S,0,124600,124695,0.8144,0.7952 S,0,125076,125171,0.7952,0.8144 S,0,125171,125266,0.8144,0.7952 S,0,125648,125743,0.7952,0.8144 S,0,125743,125838,0.8144,0.7952 S,0,126219,126314,0.7952,0.8144 S,0,126314,126409,0.8144,0.7952 S,0,126791,126886,0.7952,0.8144 S,0,126886,126981,0.8144,0.7952 S,0,127362,127457,0.7952,0.8144 S,0,127457,127552,0.8144,0.7952 S,0,127934,128029,0.7952,0.8144 S,0,128029,128124,0.8144,0.7952 S,0,128505,128600,0.7952,0.8144 S,0,128600,128695,0.8144,0.7952 S,0,129076,129171,0.7952,0.8144 S,0,129171,129266,0.8144,0.7952 S,0,129648,129743,0.7952,0.8144 S,0,129743,129838,0.8144,0.7952 S,0,130219,130314,0.7952,0.8144 S,0,130314,130409,0.8144,0.7952 S,0,130791,130886,0.7952,0.8144 S,0,130886,130981,0.8144,0.7952 S,0,131362,131457,0.7952,0.8144 S,0,131457,131552,0.8144,0.7952 S,0,131934,132029,0.7952,0.8144 S,0,132029,132124,0.8144,0.7952 S,0,132505,132600,0.7952,0.8144 S,0,132600,132695,0.8144,0.7952 S,0,133076,133171,0.7952,0.8144 S,0,133171,133266,0.8144,0.7952 S,0,133648,133743,0.7952,0.8144 S,0,133743,133838,0.8144,0.7952 S,0,134219,134314,0.7952,0.8144 S,0,134314,134409,0.8144,0.7952 S,0,134791,134886,0.7952,0.8144 S,0,134886,134981,0.8144,0.7952 S,0,135362,135457,0.7952,0.8144 S,0,135457,135552,0.8144,0.7952 S,0,135934,136029,0.7952,0.8144 S,0,136029,136124,0.8144,0.7952 S,0,136505,136600,0.7952,0.8144 S,0,136600,136695,0.8144,0.7952 S,0,137076,137171,0.7952,0.8144 S,0,137171,137266,0.8144,0.7952 S,0,137648,137743,0.7952,0.8144 S,0,137743,137838,0.8144,0.7952 S,0,138219,138314,0.7952,0.8144 S,0,138314,138409,0.8144,0.7952 S,0,138791,138886,0.7952,0.8144 S,0,138886,138981,0.8144,0.7952 S,0,139362,139457,0.7952,0.8144 S,0,139457,139552,0.8144,0.7952 S,0,139934,140029,0.7952,0.8144 S,0,140029,140124,0.8144,0.7952 S,0,140505,140600,0.7952,0.8144 S,0,140600,140695,0.8144,0.7952 S,0,141076,141171,0.7952,0.8144 S,0,141171,141266,0.8144,0.7952 S,0,141648,141743,0.7952,0.8144 S,0,141743,141838,0.8144,0.7952 S,0,142219,142314,0.7952,0.8144 S,0,142314,142409,0.8144,0.7952 S,0,142791,142886,0.7952,0.8144 S,0,142886,142981,0.8144,0.7952 S,0,143362,143457,0.7952,0.8144 S,0,143457,143552,0.8144,0.7952 S,0,143934,144029,0.7952,0.8144 S,0,144029,144124,0.8144,0.7952 S,0,144505,144600,0.7952,0.8144 S,0,144600,144695,0.8144,0.7952 S,0,145076,145171,0.7952,0.8144 S,0,145171,145266,0.8144,0.7952 S,0,145648,145743,0.7952,0.8144 S,0,145743,145838,0.8144,0.7952 S,0,146219,146314,0.7952,0.8144 S,0,146314,146409,0.8144,0.7952 S,0,146791,146886,0.7952,0.8144 S,0,146886,146981,0.8144,0.7952 S,0,147362,147457,0.7952,0.8144 S,0,147457,147552,0.8144,0.7952 S,0,147934,148029,0.7952,0.8144 S,0,148029,148124,0.8144,0.7952 S,0,148505,148600,0.7952,0.8144 S,0,148600,148695,0.8144,0.7952 S,0,149076,149171,0.7952,0.8144 S,0,149171,149266,0.8144,0.7952 S,0,149648,149743,0.7952,0.8144 S,0,149743,149838,0.8144,0.7952 S,0,150219,150314,0.7952,0.8144 S,0,150314,150409,0.8144,0.7952 S,0,150791,150886,0.7952,0.8144 S,0,150886,150981,0.8144,0.7952 S,0,151362,151457,0.7952,0.8144 S,0,151457,151552,0.8144,0.7952 S,0,151934,152029,0.7952,0.8144 S,0,152029,152124,0.8144,0.7952 S,0,152505,152600,0.7952,0.8144 S,0,152600,152695,0.8144,0.7952 S,0,153076,153171,0.7952,0.8144 S,0,153171,153266,0.8144,0.7952 S,0,153648,153743,0.7952,0.8144 S,0,153743,153838,0.8144,0.7952 S,0,154219,154314,0.7952,0.8144 S,0,154314,154409,0.8144,0.7952 S,0,154791,154886,0.7952,0.8144 S,0,154886,154981,0.8144,0.7952 S,0,155362,155457,0.7952,0.8144 S,0,155457,155552,0.8144,0.7952 S,0,155934,156029,0.7952,0.8144 S,0,156029,156124,0.8144,0.7952 S,0,156505,156600,0.7952,0.8144 S,0,156600,156695,0.8144,0.7952 S,0,157077,157172,0.7952,0.8144 S,0,157172,157267,0.8144,0.7952 S,0,157648,157743,0.7952,0.8144 S,0,157743,157838,0.8144,0.7952 S,0,158219,158314,0.7952,0.8144 S,0,158314,158409,0.8144,0.7952 S,0,158791,158886,0.7952,0.8144 S,0,158886,158981,0.8144,0.7952 S,0,159362,159457,0.7952,0.8144 S,0,159457,159552,0.8144,0.7952 S,0,159934,160029,0.7952,0.8144 S,0,160029,160124,0.8144,0.7952 S,0,160505,160600,0.7952,0.8144 S,0,160600,160695,0.8144,0.7952 S,0,161077,161172,0.7952,0.8144 S,0,161172,161267,0.8144,0.7952 S,0,161648,161743,0.7952,0.8144 S,0,161743,161838,0.8144,0.7952 S,0,162219,162314,0.7952,0.8144 S,0,162314,162409,0.8144,0.7952 S,0,162791,162886,0.7952,0.8144 S,0,162886,162981,0.8144,0.7952 S,0,163362,163457,0.7952,0.8144 S,0,163457,163552,0.8144,0.7952 S,0,163934,164029,0.7952,0.8144 S,0,164029,164124,0.8144,0.7952 S,0,164505,164600,0.7952,0.8144 S,0,164600,164695,0.8144,0.7952 S,0,165077,165172,0.7952,0.8144 S,0,165172,165267,0.8144,0.7952 S,0,165648,165743,0.7952,0.8144 S,0,165743,165838,0.8144,0.7952 S,0,166219,166314,0.7952,0.8144 S,0,166314,166409,0.8144,0.7952 S,0,166791,166886,0.7952,0.8144 S,0,166886,166981,0.8144,0.7952 S,0,167362,167457,0.7952,0.8144 S,0,167457,167552,0.8144,0.7952 S,0,167934,168029,0.7952,0.8144 S,0,168029,168124,0.8144,0.7952 S,0,168505,168600,0.7952,0.8144 S,0,168600,168695,0.8144,0.7952 S,0,169077,169172,0.7952,0.8144 S,0,169172,169267,0.8144,0.7952 S,0,169648,169743,0.7952,0.8144 S,0,169743,169838,0.8144,0.7952 S,0,170219,170314,0.7952,0.8144 S,0,170314,170409,0.8144,0.7952 S,0,170791,170886,0.7952,0.8144 S,0,170886,170981,0.8144,0.7952 S,0,171362,171457,0.7952,0.8144 S,0,171457,171552,0.8144,0.7952 S,0,171934,172029,0.7952,0.8144 S,0,172029,172124,0.8144,0.7952 S,0,172505,172600,0.7952,0.8144 S,0,172600,172695,0.8144,0.7952 S,0,173077,173172,0.7952,0.8144 S,0,173172,173267,0.8144,0.7952 S,0,173648,173743,0.7952,0.8144 S,0,173743,173838,0.8144,0.7952 S,0,174219,174314,0.7952,0.8144 S,0,174314,174409,0.8144,0.7952 S,0,174791,174886,0.7952,0.8144 S,0,174886,174981,0.8144,0.7952 S,0,175362,175457,0.7952,0.8144 S,0,175457,175552,0.8144,0.7952 S,0,175934,176029,0.7952,0.8144 S,0,176029,176124,0.8144,0.7952 S,0,176505,176600,0.7952,0.8144 S,0,176600,176695,0.8144,0.7952 S,0,177077,177172,0.7952,0.8144 S,0,177172,177267,0.8144,0.7952 S,0,177648,177743,0.7952,0.8144 S,0,177743,177838,0.8144,0.7952 S,0,178219,178314,0.7952,0.8144 S,0,178314,178409,0.8144,0.7952 S,0,178791,178886,0.7952,0.8144 S,0,178886,178981,0.8144,0.7952 S,0,179362,179457,0.7952,0.8144 S,0,179457,179552,0.8144,0.7952 S,0,179934,180029,0.7952,0.8144 S,0,180029,180124,0.8144,0.7952 S,0,180505,180600,0.7952,0.8144 S,0,180600,180695,0.8144,0.7952 S,0,181077,181172,0.7952,0.8144 S,0,181172,181267,0.8144,0.7952 S,0,181648,181743,0.7952,0.8144 S,0,181743,181838,0.8144,0.7952 S,0,182219,182314,0.7952,0.8144 S,0,182314,182409,0.8144,0.7952 S,0,182791,182886,0.7952,0.8144 S,0,182886,182981,0.8144,0.7952 S,0,183362,183457,0.7952,0.8144 S,0,183457,183552,0.8144,0.7952 S,0,183934,184029,0.7952,0.8144 S,0,184029,184124,0.8144,0.7952 S,0,184505,184600,0.7952,0.8144 S,0,184600,184695,0.8144,0.7952 S,0,185077,185172,0.7952,0.8144 S,0,185172,185267,0.8144,0.7952 S,0,185648,185743,0.7952,0.8144 S,0,185743,185838,0.8144,0.7952 S,0,186219,186314,0.7952,0.8144 S,0,186314,186409,0.8144,0.7952 S,0,186791,186886,0.7952,0.8144 S,0,186886,186981,0.8144,0.7952 S,0,187362,187457,0.7952,0.8144 S,0,187457,187552,0.8144,0.7952 S,0,187934,188029,0.7952,0.8144 S,0,188029,188124,0.8144,0.7952 S,0,188505,188600,0.7952,0.8144 S,0,188600,188695,0.8144,0.7952 S,0,189077,189172,0.7952,0.8144 S,0,189172,189267,0.8144,0.7952 S,0,189648,189743,0.7952,0.8144 S,0,189743,189838,0.8144,0.7952 S,0,190219,190314,0.7952,0.8144 S,0,190314,190409,0.8144,0.7952 S,0,190791,190886,0.7952,0.8144 S,0,190886,190981,0.8144,0.7952 S,0,191362,191457,0.7952,0.8144 S,0,191457,191552,0.8144,0.7952 S,0,191934,192029,0.7952,0.8144 S,0,192029,192124,0.8144,0.7952 S,0,192505,192600,0.7952,0.8144 S,0,192600,192695,0.8144,0.7952 S,0,193077,193172,0.7952,0.8144 S,0,193172,193267,0.8144,0.7952 S,0,193648,193743,0.7952,0.8144 S,0,193743,193838,0.8144,0.7952 S,0,194219,194314,0.7952,0.8144 S,0,194314,194409,0.8144,0.7952 S,0,194791,194886,0.7952,0.8144 S,0,194886,194981,0.8144,0.7952 S,0,195362,195457,0.7952,0.8144 S,0,195457,195552,0.8144,0.7952 S,0,195934,196029,0.7952,0.8144 S,0,196029,196124,0.8144,0.7952 S,0,196505,196600,0.7952,0.8144 S,0,196600,196695,0.8144,0.7952 S,0,197077,197172,0.7952,0.8144 S,0,197172,197267,0.8144,0.7952 S,0,197648,197743,0.7952,0.8144 S,0,197743,197838,0.8144,0.7952 S,0,198219,198314,0.7952,0.8144 S,0,198314,198409,0.8144,0.7952 S,0,198791,198886,0.7952,0.8144 S,0,198886,198981,0.8144,0.7952 S,0,199362,199457,0.7952,0.8144 S,0,199457,199552,0.8144,0.7952 S,0,199934,200029,0.7952,0.8144 S,0,200029,200124,0.8144,0.7952 S,0,200505,200600,0.7952,0.8144 S,0,200600,200695,0.8144,0.7952 S,0,201077,201172,0.7952,0.8144 S,0,201172,201267,0.8144,0.7952 S,0,201648,201743,0.7952,0.8144 S,0,201743,201838,0.8144,0.7952 S,0,202219,202314,0.7952,0.8144 S,0,202314,202409,0.8144,0.7952 S,0,202791,202886,0.7952,0.8144 S,0,202886,202981,0.8144,0.7952 S,0,203362,203457,0.7952,0.8144 S,0,203457,203552,0.8144,0.7952 S,0,203934,204029,0.7952,0.8144 S,0,204029,204124,0.8144,0.7952 S,0,204505,204600,0.7952,0.8144 S,0,204600,204695,0.8144,0.7952 S,0,205077,205172,0.7952,0.8144 S,0,205172,205267,0.8144,0.7952 S,0,205648,205743,0.7952,0.8144 S,0,205743,205838,0.8144,0.7952 S,0,206219,206314,0.7952,0.8144 S,0,206314,206409,0.8144,0.7952 S,0,206791,206886,0.7952,0.8144 S,0,206886,206981,0.8144,0.7952 S,0,207362,207457,0.7952,0.8144 S,0,207457,207552,0.8144,0.7952 S,0,207934,208029,0.7952,0.8144 S,0,208029,208124,0.8144,0.7952 S,0,208505,208600,0.7952,0.8144 S,0,208600,208695,0.8144,0.7952 S,0,209077,209172,0.7952,0.8144 S,0,209172,209267,0.8144,0.7952 S,0,209648,209743,0.7952,0.8144 S,0,209743,209838,0.8144,0.7952 S,0,210219,210314,0.7952,0.8144 S,0,210314,210409,0.8144,0.7952 S,0,210791,210886,0.7952,0.8144 S,0,210886,210981,0.8144,0.7952 S,0,211362,211457,0.7952,0.8144 S,0,211457,211552,0.8144,0.7952 S,0,211934,212029,0.7952,0.8144 S,0,212029,212124,0.8144,0.7952 S,0,212505,212600,0.7952,0.8144 S,0,212600,212695,0.8144,0.7952 S,0,213077,213172,0.7952,0.8144 S,0,213172,213267,0.8144,0.7952 F,0,213457,213743,1,0 S,0,213648,213743,0.7952,0.8144 S,0,213743,,0.8144
//Storyboard Layer 1 (Fail)
//Storyboard Layer 2 (Pass)
//Storyboard Layer 3 (Foreground)
//Storyboard Sound Samples
//Background Colour Transformations
3,100,0,0,0

[TimingPoints]
1172,285.714285714286,4,1,1,80,1,0
37743,-200,4,1,1,80,0,0
38314,-100,4,1,1,80,0,0
42314,-200,4,1,1,80,0,0
42886,-100,4,1,1,80,0,0
56029,-200,4,1,1,80,0,0
56600,-100,4,1,1,80,0,0
60600,-200,4,1,1,80,0,0
61172,-100,4,1,1,80,0,0
78314,-200,4,1,1,80,0,0
83457,-100,4,1,1,80,0,1
92600,-200,4,1,1,80,0,1
93172,-100,4,1,1,80,0,1
110886,-200,4,1,1,80,0,1
111457,-100,4,1,1,80,0,1
115457,-200,4,1,1,80,0,1
116029,-100,4,1,1,80,0,1
120029,-100,4,1,1,80,0,0
147457,-200,4,1,1,80,0,0
148029,-100,4,1,1,80,0,0
152029,-200,4,1,1,80,0,0
152600,-100,4,1,1,80,0,0
169743,-200,4,1,1,80,0,0
172314,-100,4,1,1,80,0,0
174886,-100,4,1,1,80,0,1
184029,-200,4,1,1,80,0,1
184600,-100,4,1,1,80,0,1
202314,-200,4,1,1,80,0,1
202886,-100,4,1,1,80,0,1
206886,-200,4,1,1,80,0,1
207457,-100,4,1,1,80,0,1
213743,-100,4,1,1,80,0,0

[Colours]
Combo1 : 49,112,37
Combo2 : 175,35,46
Combo3 : 223,217,217

[HitObjects]
96,352,28600,5,4
208,304,28886,1,2
96,256,29172,1,0
208,208,29457,2,2,B|265:155|328:231,1,106.666666666667,2|0
304,256,29743,1,0
400,352,30029,2,2,B|400:160,1,160,2|0
352,80,30600,1,2
304,304,30886,5,0
304,304,31172,1,2
256,80,31457,1,0
256,80,31743,1,2
208,304,32029,2,0,B|208:192,1,106.666666666667,0|0
208,152,32314,1,2
416,80,32600,5,0
416,80,32886,1,2
320,320,33172,5,0
128,256,33457,1,2
192,64,33743,1,0
384,128,34029,1,2
384,128,34219,2,0,B|441:154|441:243|365:263,1,160
352,192,34600,1,2
176,256,34886,1,0
352,320,35171,1,2
224,352,35457,6,2,B|96:352,1,106.666666666667,2|0
88,320,35743,1,0
48,192,36029,1,2
160,128,36314,2,2,B|156:209|252:188,1,106.666666666667,2|0
272,192,36600,1,0
384,128,36886,1,2
272,64,37171,5,0
160,128,37457,1,2
64,336,37743,6,0,B|60:224|178:242,1,160,4|0
256,336,38600,1,2
336,288,38791,1,0
288,160,39076,1,0
272,112,39171,1,2
368,32,39457,5,0
464,112,39743,1,2
432,240,40029,6,2,B|256:240,1,160,2|0
272,112,40600,2,2,B|276:31|180:52,1,106.666666666667,2|0
112,128,41076,2,2,B|65:129|28:176|64:232|131:224,1,160,2|0
160,224,41457,1,2
192,352,41743,5,0
320,320,42029,1,2
448,288,42314,6,0,B|391:262|391:173|467:153,1,160,4|0
384,48,43171,2,2,B|256:48,1,106.666666666667,2|0
232,48,43457,1,0
320,144,43743,1,2
240,240,44029,1,0
320,336,44314,1,2
96,304,44600,6,2,B|96:192,1,106.666666666667,6|0
96,152,44886,1,0
160,48,45171,1,0
368,48,45648,2,2,B|415:49|452:96|416:152|349:144,1,160,6|0
320,144,46029,1,0
208,208,46314,1,2
256,288,46505,1,0
304,288,46600,1,0
416,336,46886,5,4
304,288,47172,1,2
416,240,47458,1,0
304,192,47743,2,2,B|251:135|327:72,1,106.666666666667,2|0
352,96,48029,1,0
256,48,48314,1,2
208,144,48600,1,0
304,192,48885,1,2
80,240,49172,5,0
80,240,49457,1,2
304,288,49743,1,0
304,288,50029,1,2
80,336,50314,2,0,B|208:336,1,106.666666666667
232,336,50600,1,2
432,240,50886,5,0
432,240,51172,1,2
368,32,51457,6,0,B|415:33|452:80|416:136|349:128,1,160,0|2
144,80,52029,2,0,B|97:81|60:128|96:184|163:176,1,160,0|2
288,176,52505,2,0,B|345:202|345:291|269:311,1,160
256,240,52886,1,2
48,304,53172,1,0
256,368,53457,1,2
464,304,53743,6,2,B|464:192,1,106.666666666667,2|0
464,152,54029,1,0
368,64,54314,1,2
304,176,54600,2,2,B|247:123|184:199,1,106.666666666667,2|0
208,224,54886,1,0
112,312,55171,1,2
48,192,55457,5,0
112,80,55743,1,2
272,224,56029,6,0,B|268:336|386:318,1,160,4|0
432,208,56886,1,2
400,128,57076,1,0
288,64,57362,1,0
240,80,57457,1,2
128,128,57743,5,0
240,176,58029,1,2
352,224,58314,6,2,B|399:225|436:272|400:328|333:320,1,160,2|0
224,352,58886,1,2
192,272,59076,1,0
96,352,59362,2,2,B|96:176,1,160,2|0
96,144,59743,1,2
192,64,60029,5,0
256,272,60314,1,2
320,64,60600,6,0,B|346:7|435:7|455:83,1,160,4|0
352,144,61457,1,2
416,208,61648,1,0
448,240,61743,2,0,B|452:352|334:334,1,160,0|2
304,224,62314,1,0
256,336,62600,1,2
176,128,62886,6,2,B|180:47|84:68,1,106.666666666667,6|0
64,64,63172,1,0
112,176,63457,1,2
64,256,63648,1,0
80,304,63743,1,0
160,288,63933,1,0
208,272,64029,6,2,B|265:219|328:295,1,106.666666666667,6|0
368,64,64505,1,0
144,112,64791,1,0
368,160,65076,1,4
448,336,73743,5,0
448,336,74029,1,0
224,288,74314,1,4
224,288,74600,1,2
448,240,74886,6,0,B|422:183|333:183|313:259,1,160,0|2
224,128,75362,1,0
432,32,75648,1,0
448,80,75743,1,2
384,288,76029,5,0
352,64,76314,1,2
128,96,76600,1,0
160,320,76886,1,2
208,208,77172,6,0,B|265:155|328:231,1,106.666666666667,0|2
352,320,77648,1,0
416,208,77933,1,0
400,160,78029,1,2
352,32,78314,5,0
256,128,78600,1,0
160,32,78886,2,2,B|108:39|108:128|171:129,1,133.333333333333,6|0
256,240,79743,1,0
352,352,80029,2,2,B|404:345|404:256|341:255,1,133.333333333333,2|0
256,128,80886,1,0
192,160,81172,6,2,B|163:89|207:22|330:20|355:119|309:178,1,293.333333333333,6|6
384,272,82505,1,0
368,320,82600,1,0
256,272,82886,1,0
144,320,83172,1,0
96,208,83457,6,2,B|177:212|156:116,1,106.666666666667,6|0
160,96,83743,1,8
224,32,83933,1,0
272,48,84029,1,2
320,128,84219,1,0
304,176,84314,1,8
320,272,84505,6,2,B|346:329|435:329|455:253,1,160,2|0
384,240,84886,1,8
320,32,85172,1,0
256,240,85457,1,8
192,32,85743,6,2,B|80:28|98:146,1,160,2|8
128,208,86219,1,0
112,256,86314,1,2
144,336,86505,1,0
192,352,86600,1,8
256,288,86791,6,2,B|257:241|304:204|360:240|352:307,1,160,2|0
416,256,87172,1,8
320,64,87457,1,0
96,128,87743,1,8
192,320,88029,6,2,B|135:294|135:205|211:185,1,160,2|8
416,256,88600,2,2,B|473:230|473:141|397:121,1,160,2|8
304,224,89076,1,0
288,176,89171,1,2
64,112,89457,1,8
128,320,89743,1,0
192,112,90029,1,8
256,320,90314,6,2,B|368:324|350:206,1,160,2|8
304,112,90886,1,2
336,32,91076,1,8
464,80,91362,2,2,B|464:256,1,160,2|0
464,288,91743,1,8
352,336,92029,5,0
304,112,92314,1,8
256,336,92600,6,2,B|255:289|208:252|152:288|160:355,1,160,6|0
112,224,93457,1,8
80,144,93648,1,0
160,48,93933,1,0
208,32,94029,1,8
160,144,94314,5,0
384,192,94600,1,8
160,240,94886,6,2,B|156:352|274:334,1,160,2|8
384,336,95457,1,0
352,256,95648,1,8
464,192,95933,1,0
416,64,96219,1,0
368,48,96314,1,8
112,80,96600,5,0
144,336,96886,1,8
400,304,97172,6,2,B|319:308|340:212,1,106.666666666667,2|0
336,192,97457,1,8
272,80,97743,1,0
80,192,98219,5,0
96,320,98505,1,0
144,336,98600,1,8
224,304,98791,1,0
240,256,98886,1,0
160,160,99172,1,8
240,64,99457,6,2,B|416:64,1,160,6|8
448,176,100029,1,2
416,256,100219,1,8
320,176,100505,2,2,B|294:233|205:233|185:157,1,160,6|0
192,128,100886,1,8
112,96,101076,1,0
64,112,101172,1,2
96,240,101457,1,10
176,336,101743,6,2,B|320:336,1,106.666666666667,6|0
328,336,102029,1,8
352,256,102219,1,0
400,240,102314,1,2
432,160,102505,1,0
416,112,102600,1,8
336,80,102791,6,2,B|310:23|221:23|201:99,1,160,2|0
144,112,103172,2,0,B|170:169|259:169|279:93,2,160,8|0|8
336,224,104029,6,2,B|448:220|430:338,1,160,2|8
352,304,104505,1,0
304,320,104600,1,2
224,288,104791,1,0
208,240,104886,1,8
224,160,105076,6,2,B|225:113|272:76|328:112|320:179,1,160,2|0
384,128,105457,1,8
192,64,105743,1,0
128,256,106029,1,8
320,320,106314,6,2,B|367:319|404:272|368:216|301:224,1,160,2|8
192,64,106886,2,2,B|145:65|108:112|144:168|211:160,1,160,2|8
336,112,107362,1,0
384,128,107457,1,2
256,304,107743,1,8
48,240,108029,1,0
256,176,108314,1,8
464,240,108600,6,2,B|468:352|350:334,1,160,2|8
320,224,109172,1,2
352,144,109362,1,8
256,64,109648,2,2,B|230:7|141:7|121:83,1,160,2|0
128,112,110029,1,8
192,320,110314,5,0
256,112,110600,1,8
320,320,110886,6,2,B|432:324|414:206,1,160,6|0
288,192,111743,1,8
320,112,111933,1,0
208,32,112219,1,0
160,16,112314,1,8
144,240,112600,5,0
368,192,112886,1,8
144,144,113172,6,2,B|140:32|258:50,1,160,2|8
368,96,113743,1,0
400,176,113933,1,8
320,272,114219,2,0,B|294:215|205:215|185:291,1,160
192,320,114600,1,8
400,256,114886,5,0
192,192,115172,1,8
400,128,115457,6,2,B|447:127|484:80|448:24|381:32,1,160,6|0
288,80,116314,2,0,B|176:80,1,106.666666666667,8|0
136,80,116600,1,0
64,144,116791,1,0
80,192,116886,1,8
192,256,117172,1,0
304,192,117457,1,8
192,128,117743,5,6
256,336,118029,1,8
320,128,118314,2,0,B|401:124|380:220,1,106.666666666667,0|0
384,240,118600,1,8
304,256,118791,6,2,B|303:209|256:172|200:208|208:275,1,160,6|0
208,304,119172,1,8
128,272,119362,1,0
112,224,119457,1,2
144,144,119648,1,0
192,128,119743,2,0,B|218:71|307:71|327:147,1,160,8|6
352,144,138314,5,4
128,352,139457,5,0
128,352,139743,1,0
128,352,140029,2,0,B|47:356|68:260,1,106.666666666667
64,240,140314,1,0
288,192,140600,5,4
288,192,140886,1,2
64,144,141172,1,0
64,144,141457,1,2
288,96,141743,2,0,B|176:96,1,106.666666666667
136,96,142029,1,2
224,304,142314,5,0
224,304,142600,1,2
448,240,142886,6,0,B|272:240,1,160,0|2
80,176,143457,2,0,B|272:176,1,160,0|2
368,96,143933,2,0,B|342:39|253:39|233:115,1,160
304,128,144314,1,2
240,336,144600,1,0
176,128,144886,1,2
96,336,145172,6,2,B|92:255|188:276,1,106.666666666667,2|0
208,272,145457,1,0
96,208,145743,1,2
208,144,146029,2,2,B|265:91|328:167,1,106.666666666667,2|0
304,192,146314,1,0
368,304,146600,1,2
432,192,146886,5,0
368,80,147172,1,2
144,80,147457,6,0,B|97:81|60:128|96:184|163:176,1,160,4|0
112,304,148314,1,2
192,336,148505,1,0
320,320,148791,1,0
336,272,148886,1,2
224,224,149172,5,0
336,176,149457,1,2
464,128,149743,6,2,B|468:16|350:34,1,160,2|0
256,112,150314,1,2
176,80,150505,1,0
128,192,150791,2,2,B|71:218|71:307|147:327,1,160,2|0
176,320,151172,1,2
384,256,151457,5,0
176,192,151743,1,2
384,128,152029,6,0,B|383:81|336:44|280:80|288:147,1,160,4|0
320,256,152886,1,2
288,336,153076,1,0
240,352,153172,2,0,B|128:356|146:238,1,160,0|2
256,192,153743,1,0
144,128,154029,1,2
256,64,154314,6,2,B|313:11|376:87,1,106.666666666667,6|0
352,112,154600,1,0
416,224,154886,1,2
384,304,155076,1,0
336,320,155172,1,0
256,288,155362,1,0
208,288,155457,6,2,B|127:292|148:196,1,106.666666666667,6|0
368,176,155933,1,0
144,128,156219,1,0
368,80,156505,1,4
192,304,165172,5,0
192,304,165457,1,0
144,80,165743,1,4
144,80,166029,1,2
96,304,166314,6,0,B|39:278|39:189|115:169,1,160,0|2
240,240,166791,1,0
432,352,167076,1,0
448,304,167172,1,2
368,96,167457,6,0,B|415:97|452:144|416:200|349:192,1,160,0|2
144,144,168029,2,0,B|97:145|60:192|96:248|163:240,1,160,0|2
208,352,168600,6,0,B|265:299|328:375,1,106.666666666667,0|2
384,256,169076,1,0
304,160,169362,1,0
256,176,169457,1,2
128,224,169743,5,0
256,272,170029,1,0
384,224,170314,2,2,B|332:217|332:128|395:127,1,133.333333333333,6|0
256,16,171172,1,0
128,64,171457,2,2,B|180:71|180:160|117:161,1,133.333333333333,2|0
256,272,172314,1,0
256,208,172600,12,6,173648
192,208,173933,5,0
176,160,174029,1,0
240,48,174314,1,0
368,96,174600,1,0
416,224,174886,6,2,B|335:220|356:316,1,106.666666666667,6|0
352,336,175172,1,8
272,368,175362,1,0
224,352,175457,1,2
176,272,175648,1,0
192,224,175743,1,8
112,224,175933,6,2,B|55:198|55:109|131:89,1,160,2|0
144,160,176314,2,0,B|201:134|201:45|125:25,2,160,8|0|8
336,48,177172,6,2,B|448:44|430:162,1,160,2|8
368,208,177648,1,0
320,224,177743,1,2
240,208,177933,1,0
224,160,178029,1,8
144,144,178219,6,2,B|97:145|60:192|96:248|163:240,1,160,2|0
176,304,178600,1,8
384,256,178886,1,0
336,48,179172,1,8
128,96,179457,6,2,B|154:39|243:39|263:115,1,160,2|8
192,320,180028,2,2,B|218:377|307:377|327:301,1,160,2|8
224,208,180504,1,0
272,192,180599,1,2
464,96,180885,1,8
400,304,181171,1,0
336,96,181457,1,8
272,304,181743,6,2,B|160:308|178:190,1,160,2|8
224,96,182314,1,2
176,32,182505,1,8
64,96,182791,2,2,B|64:272,1,160,2|0
64,304,183172,1,8
176,352,183457,5,0
400,304,183743,1,8
176,256,184029,6,2,B|223:255|260:208|224:152|157:160,1,160,6|0
256,64,184886,1,8
336,96,185076,1,0
400,208,185362,1,0
384,256,185457,1,8
288,160,185743,5,0
64,208,186029,1,8
288,256,186314,6,2,B|292:368|174:350,1,160,2|8
176,224,186886,1,0
144,144,187076,1,8
256,80,187362,1,0
368,144,187648,1,0
352,192,187743,1,8
192,352,188029,5,0
256,144,188314,1,8
320,352,188600,6,2,B|401:356|380:260,1,106.666666666667,2|0
384,240,188886,1,8
464,144,189172,1,0
288,32,189648,5,0
176,80,189933,1,0
160,128,190029,1,8
192,208,190219,1,0
240,224,190314,1,0
304,336,190600,1,8
192,288,190886,6,2,B|191:335|144:372|88:336|96:269,1,160,6|8
48,176,191457,1,0
80,96,191648,1,8
192,144,191933,2,2,B|218:87|307:87|327:163,1,160,6|0
320,192,192314,1,8
272,272,192505,1,0
288,320,192600,1,2
416,352,192886,1,10
464,240,193172,6,2,B|464:80,1,106.666666666667,6|0
464,88,193457,1,8
400,32,193648,1,0
352,48,193743,1,2
320,128,193933,1,0
336,176,194029,1,8
288,256,194219,6,2,B|262:313|173:313|153:237,1,160,2|0
96,224,194600,2,0,B|122:167|211:167|231:243,2,160,8|0|8
256,80,195457,6,2,B|128:80,1,106.666666666667,2|0
104,80,195743,1,8
48,144,195933,1,0
64,192,196029,1,2
144,240,196219,1,0
192,224,196314,1,8
256,160,196505,6,2,B|368:156|350:274,1,160,2|0
416,304,196886,1,8
368,32,197172,1,0
96,80,197457,1,8
144,352,197743,6,2,B|97:351|60:304|96:248|163:256,1,160,2|8
368,304,198314,2,2,B|415:303|452:256|416:200|349:208,1,160,2|8
224,256,198791,1,0
272,272,198886,1,2
256,48,199172,1,8
48,112,199457,1,2
256,176,199743,1,8
464,112,200029,6,2,B|464:288,1,160,2|8
368,352,200600,1,2
288,320,200791,1,8
304,192,201076,2,2,B|303:145|256:108|200:144|208:211,1,160,2|0
208,240,201457,1,8
416,160,201743,5,0
208,80,202029,1,8
176,304,202314,6,2,B|119:278|119:189|195:169,1,160,6|0
80,96,203172,1,8
128,32,203362,2,0,B|304:32,1,160
336,32,203743,1,8
144,128,204029,5,0
192,352,204314,1,8
240,128,204600,6,2,B|241:175|288:212|344:176|336:109,1,160,2|8
416,224,205172,1,0
448,304,205362,1,8
320,304,205648,2,0,B|294:247|205:247|185:323,1,160
192,352,206029,1,8
256,144,206314,5,0
320,352,206600,1,8
384,144,206886,6,2,B|388:32|270:50,1,160,6|0
160,80,207743,2,0,B|107:137|183:200,1,106.666666666667,8|0
208,176,208029,1,0
272,240,208219,1,0
288,288,208314,1,8
176,352,208600,1,0
64,288,208886,1,8
176,224,209172,5,6
384,160,209457,1,8
176,96,209743,2,0,B|172:15|268:36,1,106.666666666667
288,32,210029,1,8
304,112,210219,6,2,B|257:113|220:160|256:216|323:208,1,160,6|0
352,208,210600,1,8
320,288,210790,1,0
272,304,210885,1,2
192,272,211076,1,0
176,224,211171,2,0,B|119:198|119:109|195:89,1,160,8|6
256,208,211552,12,4,213743
