osu file format v6

[General]
AudioFilename: Rina Satou - Merikuri Song.MP3
AudioLeadIn: 0
PreviewTime: 83352
Countdown: 0
SampleSet: Normal
StackLeniency: 0.7
Mode: 0
LetterboxInBreaks: 0

[Editor]
DistanceSpacing: 0.600000023841858
BeatDivisor: 3
GridSize: 8

[Metadata]
Title:Merikuri Song
Artist:Rina Satou
Creator:Dangaard
Version:Haruka
Source:Minami-ke Okaeri
Tags:Minami-ke happy30 Alace

[Difficulty]
HPDrainRate:5
CircleSize:3
OverallDifficulty:6
SliderMultiplier:1.4
SliderTickRate:1

[Events]
//Background and Video events
0,0,"xmas4.jpg"
//Break Periods
2,120229,137550
//Storyboard Layer 0 (Background)
Sprite,Background,Centre,"colum1.png",320,240 M,0,0,,38,240 F,0,0,,0 S,0,0,,0.7952 F,0,1172,10314,0,1 S,0,10219,10314,0.7952,0.8144 S,0,10314,10409,0.8144,0.7952 S,0,10790,10885,0.7952,0.8144 S,0,10885,10980,0.8144,0.7952 S,0,11362,11457,0.7952,0.8144 S,0,11457,11552,0.8144,0.7952 S,0,11933,12028,0.7952,0.8144 S,0,12028,12123,0.8144,0.7952 S,0,12505,12600,0.7952,0.8144 S,0,12600,12695,0.8144,0.7952 S,0,13076,13171,0.7952,0.8144 S,0,13171,13266,0.8144,0.7952 S,0,13648,13743,0.7952,0.8144 S,0,13743,13838,0.8144,0.7952 S,0,14219,14314,0.7952,0.8144 S,0,14314,14409,0.8144,0.7952 S,0,14790,14885,0.7952,0.8144 S,0,14885,14980,0.8144,0.7952 S,0,15362,15457,0.7952,0.8144 S,0,15457,15552,0.8144,0.7952 S,0,15933,16028,0.7952,0.8144 S,0,16028,16123,0.8144,0.7952 S,0,16505,16600,0.7952,0.8144 S,0,16600,16695,0.8144,0.7952 S,0,17076,17171,0.7952,0.8144 S,0,17171,17266,0.8144,0.7952 S,0,17648,17743,0.7952,0.8144 S,0,17743,17838,0.8144,0.7952 S,0,18219,18314,0.7952,0.8144 S,0,18314,18409,0.8144,0.7952 S,0,18790,18885,0.7952,0.8144 S,0,18885,18980,0.8144,0.7952 S,0,19362,19457,0.7952,0.8144 S,0,19457,19552,0.8144,0.7952 S,0,19933,20028,0.7952,0.8144 S,0,20028,20123,0.8144,0.7952 S,0,20505,20600,0.7952,0.8144 S,0,20600,20695,0.8144,0.7952 S,0,21076,21171,0.7952,0.8144 S,0,21171,21266,0.8144,0.7952 S,0,21648,21743,0.7952,0.8144 S,0,21743,21838,0.8144,0.7952 S,0,22219,22314,0.7952,0.8144 S,0,22314,22409,0.8144,0.7952 S,0,22790,22885,0.7952,0.8144 S,0,22885,22980,0.8144,0.7952 S,0,23362,23457,0.7952,0.8144 S,0,23457,23552,0.8144,0.7952 S,0,23933,24028,0.7952,0.8144 S,0,24028,24123,0.8144,0.7952 S,0,24505,24600,0.7952,0.8144 S,0,24600,24695,0.8144,0.7952 S,0,25076,25171,0.7952,0.8144 S,0,25171,25266,0.8144,0.7952 S,0,25648,25743,0.7952,0.8144 S,0,25743,25838,0.8144,0.7952 S,0,26219,26314,0.7952,0.8144 S,0,26314,26409,0.8144,0.7952 S,0,26790,26885,0.7952,0.8144 S,0,26885,26980,0.8144,0.7952 S,0,27362,27457,0.7952,0.8144 S,0,27457,27552,0.8144,0.7952 S,0,27933,28028,0.7952,0.8144 S,0,28028,28123,0.8144,0.7952 S,0,28505,28600,0.7952,0.8144 S,0,28600,28695,0.8144,0.7952 S,0,29076,29171,0.7952,0.8144 S,0,29171,29266,0.8144,0.7952 S,0,29648,29743,0.7952,0.8144 S,0,29743,29838,0.8144,0.7952 S,0,30219,30314,0.7952,0.8144 S,0,30314,30409,0.8144,0.7952 S,0,30790,30885,0.7952,0.8144 S,0,30885,30980,0.8144,0.7952 S,0,31362,31457,0.7952,0.8144 S,0,31457,31552,0.8144,0.7952 S,0,31933,32028,0.7952,0.8144 S,0,32028,32123,0.8144,0.7952 S,0,32505,32600,0.7952,0.8144 S,0,32600,32695,0.8144,0.7952 S,0,33076,33171,0.7952,0.8144 S,0,33171,33266,0.8144,0.7952 S,0,33648,33743,0.7952,0.8144 S,0,33743,33838,0.8144,0.7952 S,0,34219,34314,0.7952,0.8144 S,0,34314,34409,0.8144,0.7952 S,0,34790,34885,0.7952,0.8144 S,0,34885,34980,0.8144,0.7952 S,0,35362,35457,0.7952,0.8144 S,0,35457,35552,0.8144,0.7952 S,0,35933,36028,0.7952,0.8144 S,0,36028,36123,0.8144,0.7952 S,0,36505,36600,0.7952,0.8144 S,0,36600,36695,0.8144,0.7952 S,0,37076,37171,0.7952,0.8144 S,0,37171,37266,0.8144,0.7952 S,0,37648,37743,0.7952,0.8144 S,0,37743,37838,0.8144,0.7952 S,0,38219,38314,0.7952,0.8144 S,0,38314,38409,0.8144,0.7952 S,0,38791,38886,0.7952,0.8144 S,0,38886,38981,0.8144,0.7952 S,0,39362,39457,0.7952,0.8144 S,0,39457,39552,0.8144,0.7952 S,0,39933,40028,0.7952,0.8144 S,0,40028,40123,0.8144,0.7952 S,0,40505,40600,0.7952,0.8144 S,0,40600,40695,0.8144,0.7952 S,0,41076,41171,0.7952,0.8144 S,0,41171,41266,0.8144,0.7952 S,0,41648,41743,0.7952,0.8144 S,0,41743,41838,0.8144,0.7952 S,0,42219,42314,0.7952,0.8144 S,0,42314,42409,0.8144,0.7952 S,0,42791,42886,0.7952,0.8144 S,0,42886,42981,0.8144,0.7952 S,0,43362,43457,0.7952,0.8144 S,0,43457,43552,0.8144,0.7952 S,0,43933,44028,0.7952,0.8144 S,0,44028,44123,0.8144,0.7952 S,0,44505,44600,0.7952,0.8144 S,0,44600,44695,0.8144,0.7952 S,0,45076,45171,0.7952,0.8144 S,0,45171,45266,0.8144,0.7952 S,0,45648,45743,0.7952,0.8144 S,0,45743,45838,0.8144,0.7952 S,0,46219,46314,0.7952,0.8144 S,0,46314,46409,0.8144,0.7952 S,0,46791,46886,0.7952,0.8144 S,0,46886,46981,0.8144,0.7952 S,0,47362,47457,0.7952,0.8144 S,0,47457,47552,0.8144,0.7952 S,0,47933,48028,0.7952,0.8144 S,0,48028,48123,0.8144,0.7952 S,0,48505,48600,0.7952,0.8144 S,0,48600,48695,0.8144,0.7952 S,0,49076,49171,0.7952,0.8144 S,0,49171,49266,0.8144,0.7952 S,0,49648,49743,0.7952,0.8144 S,0,49743,49838,0.8144,0.7952 S,0,50219,50314,0.7952,0.8144 S,0,50314,50409,0.8144,0.7952 S,0,50791,50886,0.7952,0.8144 S,0,50886,50981,0.8144,0.7952 S,0,51362,51457,0.7952,0.8144 S,0,51457,51552,0.8144,0.7952 S,0,51933,52028,0.7952,0.8144 S,0,52028,52123,0.8144,0.7952 S,0,52505,52600,0.7952,0.8144 S,0,52600,52695,0.8144,0.7952 S,0,53076,53171,0.7952,0.8144 S,0,53171,53266,0.8144,0.7952 S,0,53648,53743,0.7952,0.8144 S,0,53743,53838,0.8144,0.7952 S,0,54219,54314,0.7952,0.8144 S,0,54314,54409,0.8144,0.7952 S,0,54791,54886,0.7952,0.8144 S,0,54886,54981,0.8144,0.7952 S,0,55362,55457,0.7952,0.8144 S,0,55457,55552,0.8144,0.7952 S,0,55933,56028,0.7952,0.8144 S,0,56028,56123,0.8144,0.7952 S,0,56505,56600,0.7952,0.8144 S,0,56600,56695,0.8144,0.7952 S,0,57076,57171,0.7952,0.8144 S,0,57171,57266,0.8144,0.7952 S,0,57648,57743,0.7952,0.8144 S,0,57743,57838,0.8144,0.7952 S,0,58219,58314,0.7952,0.8144 S,0,58314,58409,0.8144,0.7952 S,0,58791,58886,0.7952,0.8144 S,0,58886,58981,0.8144,0.7952 S,0,59362,59457,0.7952,0.8144 S,0,59457,59552,0.8144,0.7952 S,0,59933,60028,0.7952,0.8144 S,0,60028,60123,0.8144,0.7952 S,0,60505,60600,0.7952,0.8144 S,0,60600,60695,0.8144,0.7952 S,0,61076,61171,0.7952,0.8144 S,0,61171,61266,0.8144,0.7952 S,0,61648,61743,0.7952,0.8144 S,0,61743,61838,0.8144,0.7952 S,0,62219,62314,0.7952,0.8144 S,0,62314,62409,0.8144,0.7952 S,0,62791,62886,0.7952,0.8144 S,0,62886,62981,0.8144,0.7952 S,0,63362,63457,0.7952,0.8144 S,0,63457,63552,0.8144,0.7952 S,0,63933,64028,0.7952,0.8144 S,0,64028,64123,0.8144,0.7952 S,0,64505,64600,0.7952,0.8144 S,0,64600,64695,0.8144,0.7952 S,0,65076,65171,0.7952,0.8144 S,0,65171,65266,0.8144,0.7952 S,0,65648,65743,0.7952,0.8144 S,0,65743,65838,0.8144,0.7952 S,0,66219,66314,0.7952,0.8144 S,0,66314,66409,0.8144,0.7952 S,0,66791,66886,0.7952,0.8144 S,0,66886,66981,0.8144,0.7952 S,0,67362,67457,0.7952,0.8144 S,0,67457,67552,0.8144,0.7952 S,0,67933,68028,0.7952,0.8144 S,0,68028,68123,0.8144,0.7952 S,0,68505,68600,0.7952,0.8144 S,0,68600,68695,0.8144,0.7952 S,0,69076,69171,0.7952,0.8144 S,0,69171,69266,0.8144,0.7952 S,0,69648,69743,0.7952,0.8144 S,0,69743,69838,0.8144,0.7952 S,0,70219,70314,0.7952,0.8144 S,0,70314,70409,0.8144,0.7952 S,0,70791,70886,0.7952,0.8144 S,0,70886,70981,0.8144,0.7952 S,0,71362,71457,0.7952,0.8144 S,0,71457,71552,0.8144,0.7952 S,0,71933,72028,0.7952,0.8144 S,0,72028,72123,0.8144,0.7952 S,0,72505,72600,0.7952,0.8144 S,0,72600,72695,0.8144,0.7952 S,0,73076,73171,0.7952,0.8144 S,0,73171,73266,0.8144,0.7952 S,0,73648,73743,0.7952,0.8144 S,0,73743,73838,0.8144,0.7952 S,0,74219,74314,0.7952,0.8144 S,0,74314,74409,0.8144,0.7952 S,0,74791,74886,0.7952,0.8144 S,0,74886,74981,0.8144,0.7952 S,0,75362,75457,0.7952,0.8144 S,0,75457,75552,0.8144,0.7952 S,0,75933,76028,0.7952,0.8144 S,0,76028,76123,0.8144,0.7952 S,0,76505,76600,0.7952,0.8144 S,0,76600,76695,0.8144,0.7952 S,0,77076,77171,0.7952,0.8144 S,0,77171,77266,0.8144,0.7952 S,0,77648,77743,0.7952,0.8144 S,0,77743,77838,0.8144,0.7952 S,0,78219,78314,0.7952,0.8144 S,0,78314,78409,0.8144,0.7952 S,0,78791,78886,0.7952,0.8144 S,0,78886,78981,0.8144,0.7952 S,0,79362,79457,0.7952,0.8144 S,0,79457,79552,0.8144,0.7952 S,0,79933,80028,0.7952,0.8144 S,0,80028,80123,0.8144,0.7952 S,0,80505,80600,0.7952,0.8144 S,0,80600,80695,0.8144,0.7952 S,0,81076,81171,0.7952,0.8144 S,0,81171,81266,0.8144,0.7952 S,0,81648,81743,0.7952,0.8144 S,0,81743,81838,0.8144,0.7952 S,0,82219,82314,0.7952,0.8144 S,0,82314,82409,0.8144,0.7952 S,0,82791,82886,0.7952,0.8144 S,0,82886,82981,0.8144,0.7952 S,0,83362,83457,0.7952,0.8144 S,0,83457,83552,0.8144,0.7952 S,0,83933,84028,0.7952,0.8144 S,0,84028,84123,0.8144,0.7952 S,0,84505,84600,0.7952,0.8144 S,0,84600,84695,0.8144,0.7952 S,0,85076,85171,0.7952,0.8144 S,0,85171,85266,0.8144,0.7952 S,0,85648,85743,0.7952,0.8144 S,0,85743,85838,0.8144,0.7952 S,0,86219,86314,0.7952,0.8144 S,0,86314,86409,0.8144,0.7952 S,0,86791,86886,0.7952,0.8144 S,0,86886,86981,0.8144,0.7952 S,0,87362,87457,0.7952,0.8144 S,0,87457,87552,0.8144,0.7952 S,0,87933,88028,0.7952,0.8144 S,0,88028,88123,0.8144,0.7952 S,0,88505,88600,0.7952,0.8144 S,0,88600,88695,0.8144,0.7952 S,0,89076,89171,0.7952,0.8144 S,0,89171,89266,0.8144,0.7952 S,0,89648,89743,0.7952,0.8144 S,0,89743,89838,0.8144,0.7952 S,0,90219,90314,0.7952,0.8144 S,0,90314,90409,0.8144,0.7952 S,0,90791,90886,0.7952,0.8144 S,0,90886,90981,0.8144,0.7952 S,0,91362,91457,0.7952,0.8144 S,0,91457,91552,0.8144,0.7952 S,0,91933,92028,0.7952,0.8144 S,0,92028,92123,0.8144,0.7952 S,0,92505,92600,0.7952,0.8144 S,0,92600,92695,0.8144,0.7952 S,0,93076,93171,0.7952,0.8144 S,0,93171,93266,0.8144,0.7952 S,0,93648,93743,0.7952,0.8144 S,0,93743,93838,0.8144,0.7952 S,0,94219,94314,0.7952,0.8144 S,0,94314,94409,0.8144,0.7952 S,0,94791,94886,0.7952,0.8144 S,0,94886,94981,0.8144,0.7952 S,0,95362,95457,0.7952,0.8144 S,0,95457,95552,0.8144,0.7952 S,0,95933,96028,0.7952,0.8144 S,0,96028,96123,0.8144,0.7952 S,0,96505,96600,0.7952,0.8144 S,0,96600,96695,0.8144,0.7952 S,0,97076,97171,0.7952,0.8144 S,0,97171,97266,0.8144,0.7952 S,0,97648,97743,0.7952,0.8144 S,0,97743,97838,0.8144,0.7952 S,0,98219,98314,0.7952,0.8144 S,0,98314,98409,0.8144,0.7952 S,0,98791,98886,0.7952,0.8144 S,0,98886,98981,0.8144,0.7952 S,0,99362,99457,0.7952,0.8144 S,0,99457,99552,0.8144,0.7952 S,0,99934,100029,0.7952,0.8144 S,0,100029,100124,0.8144,0.7952 S,0,100505,100600,0.7952,0.8144 S,0,100600,100695,0.8144,0.7952 S,0,101076,101171,0.7952,0.8144 S,0,101171,101266,0.8144,0.7952 S,0,101648,101743,0.7952,0.8144 S,0,101743,101838,0.8144,0.7952 S,0,102219,102314,0.7952,0.8144 S,0,102314,102409,0.8144,0.7952 S,0,102791,102886,0.7952,0.8144 S,0,102886,102981,0.8144,0.7952 S,0,103362,103457,0.7952,0.8144 S,0,103457,103552,0.8144,0.7952 S,0,103934,104029,0.7952,0.8144 S,0,104029,104124,0.8144,0.7952 S,0,104505,104600,0.7952,0.8144 S,0,104600,104695,0.8144,0.7952 S,0,105076,105171,0.7952,0.8144 S,0,105171,105266,0.8144,0.7952 S,0,105648,105743,0.7952,0.8144 S,0,105743,105838,0.8144,0.7952 S,0,106219,106314,0.7952,0.8144 S,0,106314,106409,0.8144,0.7952 S,0,106791,106886,0.7952,0.8144 S,0,106886,106981,0.8144,0.7952 S,0,107362,107457,0.7952,0.8144 S,0,107457,107552,0.8144,0.7952 S,0,107934,108029,0.7952,0.8144 S,0,108029,108124,0.8144,0.7952 S,0,108505,108600,0.7952,0.8144 S,0,108600,108695,0.8144,0.7952 S,0,109076,109171,0.7952,0.8144 S,0,109171,109266,0.8144,0.7952 S,0,109648,109743,0.7952,0.8144 S,0,109743,109838,0.8144,0.7952 S,0,110219,110314,0.7952,0.8144 S,0,110314,110409,0.8144,0.7952 S,0,110791,110886,0.7952,0.8144 S,0,110886,110981,0.8144,0.7952 S,0,111362,111457,0.7952,0.8144 S,0,111457,111552,0.8144,0.7952 S,0,111934,112029,0.7952,0.8144 S,0,112029,112124,0.8144,0.7952 S,0,112505,112600,0.7952,0.8144 S,0,112600,112695,0.8144,0.7952 S,0,113076,113171,0.7952,0.8144 S,0,113171,113266,0.8144,0.7952 S,0,113648,113743,0.7952,0.8144 S,0,113743,113838,0.8144,0.7952 S,0,114219,114314,0.7952,0.8144 S,0,114314,114409,0.8144,0.7952 S,0,114791,114886,0.7952,0.8144 S,0,114886,114981,0.8144,0.7952 S,0,115362,115457,0.7952,0.8144 S,0,115457,115552,0.8144,0.7952 S,0,115934,116029,0.7952,0.8144 S,0,116029,116124,0.8144,0.7952 S,0,116505,116600,0.7952,0.8144 S,0,116600,116695,0.8144,0.7952 S,0,117076,117171,0.7952,0.8144 S,0,117171,117266,0.8144,0.7952 S,0,117648,117743,0.7952,0.8144 S,0,117743,117838,0.8144,0.7952 S,0,118219,118314,0.7952,0.8144 S,0,118314,118409,0.8144,0.7952 S,0,118791,118886,0.7952,0.8144 S,0,118886,118981,0.8144,0.7952 S,0,119362,119457,0.7952,0.8144 S,0,119457,119552,0.8144,0.7952 S,0,119934,120029,0.7952,0.8144 S,0,120029,120124,0.8144,0.7952 S,0,120505,120600,0.7952,0.8144 S,0,120600,120695,0.8144,0.7952 S,0,121076,121171,0.7952,0.8144 S,0,121171,121266,0.8144,0.7952 S,0,121648,121743,0.7952,0.8144 S,0,121743,121838,0.8144,0.7952 S,0,122219,122314,0.7952,0.8144 S,0,122314,122409,0.8144,0.7952 S,0,122791,122886,0.7952,0.8144 S,0,122886,122981,0.8144,0.7952 S,0,123362,123457,0.7952,0.8144 S,0,123457,123552,0.8144,0.7952 S,0,123934,124029,0.7952,0.8144 S,0,124029,124124,0.8144,0.7952 S,0,124505,124600,0.7952,0.8144 S,0,124600,124695,0.8144,0.7952 S,0,125076,125171,0.7952,0.8144 S,0,125171,125266,0.8144,0.7952 S,0,125648,125743,0.7952,0.8144 S,0,125743,125838,0.8144,0.7952 S,0,126219,126314,0.7952,0.8144 S,0,126314,126409,0.8144,0.7952 S,0,126791,126886,0.7952,0.8144 S,0,126886,126981,0.8144,0.7952 S,0,127362,127457,0.7952,0.8144 S,0,127457,127552,0.8144,0.7952 S,0,127934,128029,0.7952,0.8144 S,0,128029,128124,0.8144,0.7952 S,0,128505,128600,0.7952,0.8144 S,0,128600,128695,0.8144,0.7952 S,0,129076,129171,0.7952,0.8144 S,0,129171,129266,0.8144,0.7952 S,0,129648,129743,0.7952,0.8144 S,0,129743,129838,0.8144,0.7952 S,0,130219,130314,0.7952,0.8144 S,0,130314,130409,0.8144,0.7952 S,0,130791,130886,0.7952,0.8144 S,0,130886,130981,0.8144,0.7952 S,0,131362,131457,0.7952,0.8144 S,0,131457,131552,0.8144,0.7952 S,0,131934,132029,0.7952,0.8144 S,0,132029,132124,0.8144,0.7952 S,0,132505,132600,0.7952,0.8144 S,0,132600,132695,0.8144,0.7952 S,0,133076,133171,0.7952,0.8144 S,0,133171,133266,0.8144,0.7952 S,0,133648,133743,0.7952,0.8144 S,0,133743,133838,0.8144,0.7952 S,0,134219,134314,0.7952,0.8144 S,0,134314,134409,0.8144,0.7952 S,0,134791,134886,0.7952,0.8144 S,0,134886,134981,0.8144,0.7952 S,0,135362,135457,0.7952,0.8144 S,0,135457,135552,0.8144,0.7952 S,0,135934,136029,0.7952,0.8144 S,0,136029,136124,0.8144,0.7952 S,0,136505,136600,0.7952,0.8144 S,0,136600,136695,0.8144,0.7952 S,0,137076,137171,0.7952,0.8144 S,0,137171,137266,0.8144,0.7952 S,0,137648,137743,0.7952,0.8144 S,0,137743,137838,0.8144,0.7952 S,0,138219,138314,0.7952,0.8144 S,0,138314,138409,0.8144,0.7952 S,0,138791,138886,0.7952,0.8144 S,0,138886,138981,0.8144,0.7952 S,0,139362,139457,0.7952,0.8144 S,0,139457,139552,0.8144,0.7952 S,0,139934,140029,0.7952,0.8144 S,0,140029,140124,0.8144,0.7952 S,0,140505,140600,0.7952,0.8144 S,0,140600,140695,0.8144,0.7952 S,0,141076,141171,0.7952,0.8144 S,0,141171,141266,0.8144,0.7952 S,0,141648,141743,0.7952,0.8144 S,0,141743,141838,0.8144,0.7952 S,0,142219,142314,0.7952,0.8144 S,0,142314,142409,0.8144,0.7952 S,0,142791,142886,0.7952,0.8144 S,0,142886,142981,0.8144,0.7952 S,0,143362,143457,0.7952,0.8144 S,0,143457,143552,0.8144,0.7952 S,0,143934,144029,0.7952,0.8144 S,0,144029,144124,0.8144,0.7952 S,0,144505,144600,0.7952,0.8144 S,0,144600,144695,0.8144,0.7952 S,0,145076,145171,0.7952,0.8144 S,0,145171,145266,0.8144,0.7952 S,0,145648,145743,0.7952,0.8144 S,0,145743,145838,0.8144,0.7952 S,0,146219,146314,0.7952,0.8144 S,0,146314,146409,0.8144,0.7952 S,0,146791,146886,0.7952,0.8144 S,0,146886,146981,0.8144,0.7952 S,0,147362,147457,0.7952,0.8144 S,0,147457,147552,0.8144,0.7952 S,0,147934,148029,0.7952,0.8144 S,0,148029,148124,0.8144,0.7952 S,0,148505,148600,0.7952,0.8144 S,0,148600,148695,0.8144,0.7952 S,0,149076,149171,0.7952,0.8144 S,0,149171,149266,0.8144,0.7952 S,0,149648,149743,0.7952,0.8144 S,0,149743,149838,0.8144,0.7952 S,0,150219,150314,0.7952,0.8144 S,0,150314,150409,0.8144,0.7952 S,0,150791,150886,0.7952,0.8144 S,0,150886,150981,0.8144,0.7952 S,0,151362,151457,0.7952,0.8144 S,0,151457,151552,0.8144,0.7952 S,0,151934,152029,0.7952,0.8144 S,0,152029,152124,0.8144,0.7952 S,0,152505,152600,0.7952,0.8144 S,0,152600,152695,0.8144,0.7952 S,0,153076,153171,0.7952,0.8144 S,0,153171,153266,0.8144,0.7952 S,0,153648,153743,0.7952,0.8144 S,0,153743,153838,0.8144,0.7952 S,0,154219,154314,0.7952,0.8144 S,0,154314,154409,0.8144,0.7952 S,0,154791,154886,0.7952,0.8144 S,0,154886,154981,0.8144,0.7952 S,0,155362,155457,0.7952,0.8144 S,0,155457,155552,0.8144,0.7952 S,0,155934,156029,0.7952,0.8144 S,0,156029,156124,0.8144,0.7952 S,0,156505,156600,0.7952,0.8144 S,0,156600,156695,0.8144,0.7952 S,0,157077,157172,0.7952,0.8144 S,0,157172,157267,0.8144,0.7952 S,0,157648,157743,0.7952,0.8144 S,0,157743,157838,0.8144,0.7952 S,0,158219,158314,0.7952,0.8144 S,0,158314,158409,0.8144,0.7952 S,0,158791,158886,0.7952,0.8144 S,0,158886,158981,0.8144,0.7952 S,0,159362,159457,0.7952,0.8144 S,0,159457,159552,0.8144,0.7952 S,0,159934,160029,0.7952,0.8144 S,0,160029,160124,0.8144,0.7952 S,0,160505,160600,0.7952,0.8144 S,0,160600,160695,0.8144,0.7952 S,0,161077,161172,0.7952,0.8144 S,0,161172,161267,0.8144,0.7952 S,0,161648,161743,0.7952,0.8144 S,0,161743,161838,0.8144,0.7952 S,0,162219,162314,0.7952,0.8144 S,0,162314,162409,0.8144,0.7952 S,0,162791,162886,0.7952,0.8144 S,0,162886,162981,0.8144,0.7952 S,0,163362,163457,0.7952,0.8144 S,0,163457,163552,0.8144,0.7952 S,0,163934,164029,0.7952,0.8144 S,0,164029,164124,0.8144,0.7952 S,0,164505,164600,0.7952,0.8144 S,0,164600,164695,0.8144,0.7952 S,0,165077,165172,0.7952,0.8144 S,0,165172,165267,0.8144,0.7952 S,0,165648,165743,0.7952,0.8144 S,0,165743,165838,0.8144,0.7952 S,0,166219,166314,0.7952,0.8144 S,0,166314,166409,0.8144,0.7952 S,0,166791,166886,0.7952,0.8144 S,0,166886,166981,0.8144,0.7952 S,0,167362,167457,0.7952,0.8144 S,0,167457,167552,0.8144,0.7952 S,0,167934,168029,0.7952,0.8144 S,0,168029,168124,0.8144,0.7952 S,0,168505,168600,0.7952,0.8144 S,0,168600,168695,0.8144,0.7952 S,0,169077,169172,0.7952,0.8144 S,0,169172,169267,0.8144,0.7952 S,0,169648,169743,0.7952,0.8144 S,0,169743,169838,0.8144,0.7952 S,0,170219,170314,0.7952,0.8144 S,0,170314,170409,0.8144,0.7952 S,0,170791,170886,0.7952,0.8144 S,0,170886,170981,0.8144,0.7952 S,0,171362,171457,0.7952,0.8144 S,0,171457,171552,0.8144,0.7952 S,0,171934,172029,0.7952,0.8144 S,0,172029,172124,0.8144,0.7952 S,0,172505,172600,0.7952,0.8144 S,0,172600,172695,0.8144,0.7952 S,0,173077,173172,0.7952,0.8144 S,0,173172,173267,0.8144,0.7952 S,0,173648,173743,0.7952,0.8144 S,0,173743,173838,0.8144,0.7952 S,0,174219,174314,0.7952,0.8144 S,0,174314,174409,0.8144,0.7952 S,0,174791,174886,0.7952,0.8144 S,0,174886,174981,0.8144,0.7952 S,0,175362,175457,0.7952,0.8144 S,0,175457,175552,0.8144,0.7952 S,0,175934,176029,0.7952,0.8144 S,0,176029,176124,0.8144,0.7952 S,0,176505,176600,0.7952,0.8144 S,0,176600,176695,0.8144,0.7952 S,0,177077,177172,0.7952,0.8144 S,0,177172,177267,0.8144,0.7952 S,0,177648,177743,0.7952,0.8144 S,0,177743,177838,0.8144,0.7952 S,0,178219,178314,0.7952,0.8144 S,0,178314,178409,0.8144,0.7952 S,0,178791,178886,0.7952,0.8144 S,0,178886,178981,0.8144,0.7952 S,0,179362,179457,0.7952,0.8144 S,0,179457,179552,0.8144,0.7952 S,0,179934,180029,0.7952,0.8144 S,0,180029,180124,0.8144,0.7952 S,0,180505,180600,0.7952,0.8144 S,0,180600,180695,0.8144,0.7952 S,0,181077,181172,0.7952,0.8144 S,0,181172,181267,0.8144,0.7952 S,0,181648,181743,0.7952,0.8144 S,0,181743,181838,0.8144,0.7952 S,0,182219,182314,0.7952,0.8144 S,0,182314,182409,0.8144,0.7952 S,0,182791,182886,0.7952,0.8144 S,0,182886,182981,0.8144,0.7952 S,0,183362,183457,0.7952,0.8144 S,0,183457,183552,0.8144,0.7952 S,0,183934,184029,0.7952,0.8144 S,0,184029,184124,0.8144,0.7952 S,0,184505,184600,0.7952,0.8144 S,0,184600,184695,0.8144,0.7952 S,0,185077,185172,0.7952,0.8144 S,0,185172,185267,0.8144,0.7952 S,0,185648,185743,0.7952,0.8144 S,0,185743,185838,0.8144,0.7952 S,0,186219,186314,0.7952,0.8144 S,0,186314,186409,0.8144,0.7952 S,0,186791,186886,0.7952,0.8144 S,0,186886,186981,0.8144,0.7952 S,0,187362,187457,0.7952,0.8144 S,0,187457,187552,0.8144,0.7952 S,0,187934,188029,0.7952,0.8144 S,0,188029,188124,0.8144,0.7952 S,0,188505,188600,0.7952,0.8144 S,0,188600,188695,0.8144,0.7952 S,0,189077,189172,0.7952,0.8144 S,0,189172,189267,0.8144,0.7952 S,0,189648,189743,0.7952,0.8144 S,0,189743,189838,0.8144,0.7952 S,0,190219,190314,0.7952,0.8144 S,0,190314,190409,0.8144,0.7952 S,0,190791,190886,0.7952,0.8144 S,0,190886,190981,0.8144,0.7952 S,0,191362,191457,0.7952,0.8144 S,0,191457,191552,0.8144,0.7952 S,0,191934,192029,0.7952,0.8144 S,0,192029,192124,0.8144,0.7952 S,0,192505,192600,0.7952,0.8144 S,0,192600,192695,0.8144,0.7952 S,0,193077,193172,0.7952,0.8144 S,0,193172,193267,0.8144,0.7952 S,0,193648,193743,0.7952,0.8144 S,0,193743,193838,0.8144,0.7952 S,0,194219,194314,0.7952,0.8144 S,0,194314,194409,0.8144,0.7952 S,0,194791,194886,0.7952,0.8144 S,0,194886,194981,0.8144,0.7952 S,0,195362,195457,0.7952,0.8144 S,0,195457,195552,0.8144,0.7952 S,0,195934,196029,0.7952,0.8144 S,0,196029,196124,0.8144,0.7952 S,0,196505,196600,0.7952,0.8144 S,0,196600,196695,0.8144,0.7952 S,0,197077,197172,0.7952,0.8144 S,0,197172,197267,0.8144,0.7952 S,0,197648,197743,0.7952,0.8144 S,0,197743,197838,0.8144,0.7952 S,0,198219,198314,0.7952,0.8144 S,0,198314,198409,0.8144,0.7952 S,0,198791,198886,0.7952,0.8144 S,0,198886,198981,0.8144,0.7952 S,0,199362,199457,0.7952,0.8144 S,0,199457,199552,0.8144,0.7952 S,0,199934,200029,0.7952,0.8144 S,0,200029,200124,0.8144,0.7952 S,0,200505,200600,0.7952,0.8144 S,0,200600,200695,0.8144,0.7952 S,0,201077,201172,0.7952,0.8144 S,0,201172,201267,0.8144,0.7952 S,0,201648,201743,0.7952,0.8144 S,0,201743,201838,0.8144,0.7952 S,0,202219,202314,0.7952,0.8144 S,0,202314,202409,0.8144,0.7952 S,0,202791,202886,0.7952,0.8144 S,0,202886,202981,0.8144,0.7952 S,0,203362,203457,0.7952,0.8144 S,0,203457,203552,0.8144,0.7952 S,0,203934,204029,0.7952,0.8144 S,0,204029,204124,0.8144,0.7952 S,0,204505,204600,0.7952,0.8144 S,0,204600,204695,0.8144,0.7952 S,0,205077,205172,0.7952,0.8144 S,0,205172,205267,0.8144,0.7952 S,0,205648,205743,0.7952,0.8144 S,0,205743,205838,0.8144,0.7952 S,0,206219,206314,0.7952,0.8144 S,0,206314,206409,0.8144,0.7952 S,0,206791,206886,0.7952,0.8144 S,0,206886,206981,0.8144,0.7952 S,0,207362,207457,0.7952,0.8144 S,0,207457,207552,0.8144,0.7952 S,0,207934,208029,0.7952,0.8144 S,0,208029,208124,0.8144,0.7952 S,0,208505,208600,0.7952,0.8144 S,0,208600,208695,0.8144,0.7952 S,0,209077,209172,0.7952,0.8144 S,0,209172,209267,0.8144,0.7952 S,0,209648,209743,0.7952,0.8144 S,0,209743,209838,0.8144,0.7952 S,0,210219,210314,0.7952,0.8144 S,0,210314,210409,0.8144,0.7952 S,0,210791,210886,0.7952,0.8144 S,0,210886,210981,0.8144,0.7952 F,0,211172,211457,1,0 S,0,211362,211457,0.7952,0.8144 S,0,211457,,0.8144
Sprite,Background,Centre,"colum2.png",320,240 M,0,0,,600,240 F,0,0,,0 S,0,0,,0.7952 F,0,1172,10314,0,1 S,0,10219,10314,0.7952,0.8144 S,0,10314,10409,0.8144,0.7952 S,0,10790,10885,0.7952,0.8144 S,0,10885,10980,0.8144,0.7952 S,0,11362,11457,0.7952,0.8144 S,0,11457,11552,0.8144,0.7952 S,0,11933,12028,0.7952,0.8144 S,0,12028,12123,0.8144,0.7952 S,0,12505,12600,0.7952,0.8144 S,0,12600,12695,0.8144,0.7952 S,0,13076,13171,0.7952,0.8144 S,0,13171,13266,0.8144,0.7952 S,0,13648,13743,0.7952,0.8144 S,0,13743,13838,0.8144,0.7952 S,0,14219,14314,0.7952,0.8144 S,0,14314,14409,0.8144,0.7952 S,0,14790,14885,0.7952,0.8144 S,0,14885,14980,0.8144,0.7952 S,0,15362,15457,0.7952,0.8144 S,0,15457,15552,0.8144,0.7952 S,0,15933,16028,0.7952,0.8144 S,0,16028,16123,0.8144,0.7952 S,0,16505,16600,0.7952,0.8144 S,0,16600,16695,0.8144,0.7952 S,0,17076,17171,0.7952,0.8144 S,0,17171,17266,0.8144,0.7952 S,0,17648,17743,0.7952,0.8144 S,0,17743,17838,0.8144,0.7952 S,0,18219,18314,0.7952,0.8144 S,0,18314,18409,0.8144,0.7952 S,0,18790,18885,0.7952,0.8144 S,0,18885,18980,0.8144,0.7952 S,0,19362,19457,0.7952,0.8144 S,0,19457,19552,0.8144,0.7952 S,0,19933,20028,0.7952,0.8144 S,0,20028,20123,0.8144,0.7952 S,0,20505,20600,0.7952,0.8144 S,0,20600,20695,0.8144,0.7952 S,0,21076,21171,0.7952,0.8144 S,0,21171,21266,0.8144,0.7952 S,0,21648,21743,0.7952,0.8144 S,0,21743,21838,0.8144,0.7952 S,0,22219,22314,0.7952,0.8144 S,0,22314,22409,0.8144,0.7952 S,0,22790,22885,0.7952,0.8144 S,0,22885,22980,0.8144,0.7952 S,0,23362,23457,0.7952,0.8144 S,0,23457,23552,0.8144,0.7952 S,0,23933,24028,0.7952,0.8144 S,0,24028,24123,0.8144,0.7952 S,0,24505,24600,0.7952,0.8144 S,0,24600,24695,0.8144,0.7952 S,0,25076,25171,0.7952,0.8144 S,0,25171,25266,0.8144,0.7952 S,0,25648,25743,0.7952,0.8144 S,0,25743,25838,0.8144,0.7952 S,0,26219,26314,0.7952,0.8144 S,0,26314,26409,0.8144,0.7952 S,0,26790,26885,0.7952,0.8144 S,0,26885,26980,0.8144,0.7952 S,0,27362,27457,0.7952,0.8144 S,0,27457,27552,0.8144,0.7952 S,0,27933,28028,0.7952,0.8144 S,0,28028,28123,0.8144,0.7952 S,0,28505,28600,0.7952,0.8144 S,0,28600,28695,0.8144,0.7952 S,0,29076,29171,0.7952,0.8144 S,0,29171,29266,0.8144,0.7952 S,0,29648,29743,0.7952,0.8144 S,0,29743,29838,0.8144,0.7952 S,0,30219,30314,0.7952,0.8144 S,0,30314,30409,0.8144,0.7952 S,0,30790,30885,0.7952,0.8144 S,0,30885,30980,0.8144,0.7952 S,0,31362,31457,0.7952,0.8144 S,0,31457,31552,0.8144,0.7952 S,0,31933,32028,0.7952,0.8144 S,0,32028,32123,0.8144,0.7952 S,0,32505,32600,0.7952,0.8144 S,0,32600,32695,0.8144,0.7952 S,0,33076,33171,0.7952,0.8144 S,0,33171,33266,0.8144,0.7952 S,0,33648,33743,0.7952,0.8144 S,0,33743,33838,0.8144,0.7952 S,0,34219,34314,0.7952,0.8144 S,0,34314,34409,0.8144,0.7952 S,0,34790,34885,0.7952,0.8144 S,0,34885,34980,0.8144,0.7952 S,0,35362,35457,0.7952,0.8144 S,0,35457,35552,0.8144,0.7952 S,0,35933,36028,0.7952,0.8144 S,0,36028,36123,0.8144,0.7952 S,0,36505,36600,0.7952,0.8144 S,0,36600,36695,0.8144,0.7952 S,0,37076,37171,0.7952,0.8144 S,0,37171,37266,0.8144,0.7952 S,0,37648,37743,0.7952,0.8144 S,0,37743,37838,0.8144,0.7952 S,0,38219,38314,0.7952,0.8144 S,0,38314,38409,0.8144,0.7952 S,0,38791,38886,0.7952,0.8144 S,0,38886,38981,0.8144,0.7952 S,0,39362,39457,0.7952,0.8144 S,0,39457,39552,0.8144,0.7952 S,0,39933,40028,0.7952,0.8144 S,0,40028,40123,0.8144,0.7952 S,0,40505,40600,0.7952,0.8144 S,0,40600,40695,0.8144,0.7952 S,0,41076,41171,0.7952,0.8144 S,0,41171,41266,0.8144,0.7952 S,0,41648,41743,0.7952,0.8144 S,0,41743,41838,0.8144,0.7952 S,0,42219,42314,0.7952,0.8144 S,0,42314,42409,0.8144,0.7952 S,0,42791,42886,0.7952,0.8144 S,0,42886,42981,0.8144,0.7952 S,0,43362,43457,0.7952,0.8144 S,0,43457,43552,0.8144,0.7952 S,0,43933,44028,0.7952,0.8144 S,0,44028,44123,0.8144,0.7952 S,0,44505,44600,0.7952,0.8144 S,0,44600,44695,0.8144,0.7952 S,0,45076,45171,0.7952,0.8144 S,0,45171,45266,0.8144,0.7952 S,0,45648,45743,0.7952,0.8144 S,0,45743,45838,0.8144,0.7952 S,0,46219,46314,0.7952,0.8144 S,0,46314,46409,0.8144,0.7952 S,0,46791,46886,0.7952,0.8144 S,0,46886,46981,0.8144,0.7952 S,0,47362,47457,0.7952,0.8144 S,0,47457,47552,0.8144,0.7952 S,0,47933,48028,0.7952,0.8144 S,0,48028,48123,0.8144,0.7952 S,0,48505,48600,0.7952,0.8144 S,0,48600,48695,0.8144,0.7952 S,0,49076,49171,0.7952,0.8144 S,0,49171,49266,0.8144,0.7952 S,0,49648,49743,0.7952,0.8144 S,0,49743,49838,0.8144,0.7952 S,0,50219,50314,0.7952,0.8144 S,0,50314,50409,0.8144,0.7952 S,0,50791,50886,0.7952,0.8144 S,0,50886,50981,0.8144,0.7952 S,0,51362,51457,0.7952,0.8144 S,0,51457,51552,0.8144,0.7952 S,0,51933,52028,0.7952,0.8144 S,0,52028,52123,0.8144,0.7952 S,0,52505,52600,0.7952,0.8144 S,0,52600,52695,0.8144,0.7952 S,0,53076,53171,0.7952,0.8144 S,0,53171,53266,0.8144,0.7952 S,0,53648,53743,0.7952,0.8144 S,0,53743,53838,0.8144,0.7952 S,0,54219,54314,0.7952,0.8144 S,0,54314,54409,0.8144,0.7952 S,0,54791,54886,0.7952,0.8144 S,0,54886,54981,0.8144,0.7952 S,0,55362,55457,0.7952,0.8144 S,0,55457,55552,0.8144,0.7952 S,0,55933,56028,0.7952,0.8144 S,0,56028,56123,0.8144,0.7952 S,0,56505,56600,0.7952,0.8144 S,0,56600,56695,0.8144,0.7952 S,0,57076,57171,0.7952,0.8144 S,0,57171,57266,0.8144,0.7952 S,0,57648,57743,0.7952,0.8144 S,0,57743,57838,0.8144,0.7952 S,0,58219,58314,0.7952,0.8144 S,0,58314,58409,0.8144,0.7952 S,0,58791,58886,0.7952,0.8144 S,0,58886,58981,0.8144,0.7952 S,0,59362,59457,0.7952,0.8144 S,0,59457,59552,0.8144,0.7952 S,0,59933,60028,0.7952,0.8144 S,0,60028,60123,0.8144,0.7952 S,0,60505,60600,0.7952,0.8144 S,0,60600,60695,0.8144,0.7952 S,0,61076,61171,0.7952,0.8144 S,0,61171,61266,0.8144,0.7952 S,0,61648,61743,0.7952,0.8144 S,0,61743,61838,0.8144,0.7952 S,0,62219,62314,0.7952,0.8144 S,0,62314,62409,0.8144,0.7952 S,0,62791,62886,0.7952,0.8144 S,0,62886,62981,0.8144,0.7952 S,0,63362,63457,0.7952,0.8144 S,0,63457,63552,0.8144,0.7952 S,0,63933,64028,0.7952,0.8144 S,0,64028,64123,0.8144,0.7952 S,0,64505,64600,0.7952,0.8144 S,0,64600,64695,0.8144,0.7952 S,0,65076,65171,0.7952,0.8144 S,0,65171,65266,0.8144,0.7952 S,0,65648,65743,0.7952,0.8144 S,0,65743,65838,0.8144,0.7952 S,0,66219,66314,0.7952,0.8144 S,0,66314,66409,0.8144,0.7952 S,0,66791,66886,0.7952,0.8144 S,0,66886,66981,0.8144,0.7952 S,0,67362,67457,0.7952,0.8144 S,0,67457,67552,0.8144,0.7952 S,0,67933,68028,0.7952,0.8144 S,0,68028,68123,0.8144,0.7952 S,0,68505,68600,0.7952,0.8144 S,0,68600,68695,0.8144,0.7952 S,0,69076,69171,0.7952,0.8144 S,0,69171,69266,0.8144,0.7952 S,0,69648,69743,0.7952,0.8144 S,0,69743,69838,0.8144,0.7952 S,0,70219,70314,0.7952,0.8144 S,0,70314,70409,0.8144,0.7952 S,0,70791,70886,0.7952,0.8144 S,0,70886,70981,0.8144,0.7952 S,0,71362,71457,0.7952,0.8144 S,0,71457,71552,0.8144,0.7952 S,0,71933,72028,0.7952,0.8144 S,0,72028,72123,0.8144,0.7952 S,0,72505,72600,0.7952,0.8144 S,0,72600,72695,0.8144,0.7952 S,0,73076,73171,0.7952,0.8144 S,0,73171,73266,0.8144,0.7952 S,0,73648,73743,0.7952,0.8144 S,0,73743,73838,0.8144,0.7952 S,0,74219,74314,0.7952,0.8144 S,0,74314,74409,0.8144,0.7952 S,0,74791,74886,0.7952,0.8144 S,0,74886,74981,0.8144,0.7952 S,0,75362,75457,0.7952,0.8144 S,0,75457,75552,0.8144,0.7952 S,0,75933,76028,0.7952,0.8144 S,0,76028,76123,0.8144,0.7952 S,0,76505,76600,0.7952,0.8144 S,0,76600,76695,0.8144,0.7952 S,0,77076,77171,0.7952,0.8144 S,0,77171,77266,0.8144,0.7952 S,0,77648,77743,0.7952,0.8144 S,0,77743,77838,0.8144,0.7952 S,0,78219,78314,0.7952,0.8144 S,0,78314,78409,0.8144,0.7952 S,0,78791,78886,0.7952,0.8144 S,0,78886,78981,0.8144,0.7952 S,0,79362,79457,0.7952,0.8144 S,0,79457,79552,0.8144,0.7952 S,0,79933,80028,0.7952,0.8144 S,0,80028,80123,0.8144,0.7952 S,0,80505,80600,0.7952,0.8144 S,0,80600,80695,0.8144,0.7952 S,0,81076,81171,0.7952,0.8144 S,0,81171,81266,0.8144,0.7952 S,0,81648,81743,0.7952,0.8144 S,0,81743,81838,0.8144,0.7952 S,0,82219,82314,0.7952,0.8144 S,0,82314,82409,0.8144,0.7952 S,0,82791,82886,0.7952,0.8144 S,0,82886,82981,0.8144,0.7952 S,0,83362,83457,0.7952,0.8144 S,0,83457,83552,0.8144,0.7952 S,0,83933,84028,0.7952,0.8144 S,0,84028,84123,0.8144,0.7952 S,0,84505,84600,0.7952,0.8144 S,0,84600,84695,0.8144,0.7952 S,0,85076,85171,0.7952,0.8144 S,0,85171,85266,0.8144,0.7952 S,0,85648,85743,0.7952,0.8144 S,0,85743,85838,0.8144,0.7952 S,0,86219,86314,0.7952,0.8144 S,0,86314,86409,0.8144,0.7952 S,0,86791,86886,0.7952,0.8144 S,0,86886,86981,0.8144,0.7952 S,0,87362,87457,0.7952,0.8144 S,0,87457,87552,0.8144,0.7952 S,0,87933,88028,0.7952,0.8144 S,0,88028,88123,0.8144,0.7952 S,0,88505,88600,0.7952,0.8144 S,0,88600,88695,0.8144,0.7952 S,0,89076,89171,0.7952,0.8144 S,0,89171,89266,0.8144,0.7952 S,0,89648,89743,0.7952,0.8144 S,0,89743,89838,0.8144,0.7952 S,0,90219,90314,0.7952,0.8144 S,0,90314,90409,0.8144,0.7952 S,0,90791,90886,0.7952,0.8144 S,0,90886,90981,0.8144,0.7952 S,0,91362,91457,0.7952,0.8144 S,0,91457,91552,0.8144,0.7952 S,0,91933,92028,0.7952,0.8144 S,0,92028,92123,0.8144,0.7952 S,0,92505,92600,0.7952,0.8144 S,0,92600,92695,0.8144,0.7952 S,0,93076,93171,0.7952,0.8144 S,0,93171,93266,0.8144,0.7952 S,0,93648,93743,0.7952,0.8144 S,0,93743,93838,0.8144,0.7952 S,0,94219,94314,0.7952,0.8144 S,0,94314,94409,0.8144,0.7952 S,0,94791,94886,0.7952,0.8144 S,0,94886,94981,0.8144,0.7952 S,0,95362,95457,0.7952,0.8144 S,0,95457,95552,0.8144,0.7952 S,0,95933,96028,0.7952,0.8144 S,0,96028,96123,0.8144,0.7952 S,0,96505,96600,0.7952,0.8144 S,0,96600,96695,0.8144,0.7952 S,0,97076,97171,0.7952,0.8144 S,0,97171,97266,0.8144,0.7952 S,0,97648,97743,0.7952,0.8144 S,0,97743,97838,0.8144,0.7952 S,0,98219,98314,0.7952,0.8144 S,0,98314,98409,0.8144,0.7952 S,0,98791,98886,0.7952,0.8144 S,0,98886,98981,0.8144,0.7952 S,0,99362,99457,0.7952,0.8144 S,0,99457,99552,0.8144,0.7952 S,0,99934,100029,0.7952,0.8144 S,0,100029,100124,0.8144,0.7952 S,0,100505,100600,0.7952,0.8144 S,0,100600,100695,0.8144,0.7952 S,0,101076,101171,0.7952,0.8144 S,0,101171,101266,0.8144,0.7952 S,0,101648,101743,0.7952,0.8144 S,0,101743,101838,0.8144,0.7952 S,0,102219,102314,0.7952,0.8144 S,0,102314,102409,0.8144,0.7952 S,0,102791,102886,0.7952,0.8144 S,0,102886,102981,0.8144,0.7952 S,0,103362,103457,0.7952,0.8144 S,0,103457,103552,0.8144,0.7952 S,0,103934,104029,0.7952,0.8144 S,0,104029,104124,0.8144,0.7952 S,0,104505,104600,0.7952,0.8144 S,0,104600,104695,0.8144,0.7952 S,0,105076,105171,0.7952,0.8144 S,0,105171,105266,0.8144,0.7952 S,0,105648,105743,0.7952,0.8144 S,0,105743,105838,0.8144,0.7952 S,0,106219,106314,0.7952,0.8144 S,0,106314,106409,0.8144,0.7952 S,0,106791,106886,0.7952,0.8144 S,0,106886,106981,0.8144,0.7952 S,0,107362,107457,0.7952,0.8144 S,0,107457,107552,0.8144,0.7952 S,0,107934,108029,0.7952,0.8144 S,0,108029,108124,0.8144,0.7952 S,0,108505,108600,0.7952,0.8144 S,0,108600,108695,0.8144,0.7952 S,0,109076,109171,0.7952,0.8144 S,0,109171,109266,0.8144,0.7952 S,0,109648,109743,0.7952,0.8144 S,0,109743,109838,0.8144,0.7952 S,0,110219,110314,0.7952,0.8144 S,0,110314,110409,0.8144,0.7952 S,0,110791,110886,0.7952,0.8144 S,0,110886,110981,0.8144,0.7952 S,0,111362,111457,0.7952,0.8144 S,0,111457,111552,0.8144,0.7952 S,0,111934,112029,0.7952,0.8144 S,0,112029,112124,0.8144,0.7952 S,0,112505,112600,0.7952,0.8144 S,0,112600,112695,0.8144,0.7952 S,0,113076,113171,0.7952,0.8144 S,0,113171,113266,0.8144,0.7952 S,0,113648,113743,0.7952,0.8144 S,0,113743,113838,0.8144,0.7952 S,0,114219,114314,0.7952,0.8144 S,0,114314,114409,0.8144,0.7952 S,0,114791,114886,0.7952,0.8144 S,0,114886,114981,0.8144,0.7952 S,0,115362,115457,0.7952,0.8144 S,0,115457,115552,0.8144,0.7952 S,0,115934,116029,0.7952,0.8144 S,0,116029,116124,0.8144,0.7952 S,0,116505,116600,0.7952,0.8144 S,0,116600,116695,0.8144,0.7952 S,0,117076,117171,0.7952,0.8144 S,0,117171,117266,0.8144,0.7952 S,0,117648,117743,0.7952,0.8144 S,0,117743,117838,0.8144,0.7952 S,0,118219,118314,0.7952,0.8144 S,0,118314,118409,0.8144,0.7952 S,0,118791,118886,0.7952,0.8144 S,0,118886,118981,0.8144,0.7952 S,0,119362,119457,0.7952,0.8144 S,0,119457,119552,0.8144,0.7952 S,0,119934,120029,0.7952,0.8144 S,0,120029,120124,0.8144,0.7952 S,0,120505,120600,0.7952,0.8144 S,0,120600,120695,0.8144,0.7952 S,0,121076,121171,0.7952,0.8144 S,0,121171,121266,0.8144,0.7952 S,0,121648,121743,0.7952,0.8144 S,0,121743,121838,0.8144,0.7952 S,0,122219,122314,0.7952,0.8144 S,0,122314,122409,0.8144,0.7952 S,0,122791,122886,0.7952,0.8144 S,0,122886,122981,0.8144,0.7952 S,0,123362,123457,0.7952,0.8144 S,0,123457,123552,0.8144,0.7952 S,0,123934,124029,0.7952,0.8144 S,0,124029,124124,0.8144,0.7952 S,0,124505,124600,0.7952,0.8144 S,0,124600,124695,0.8144,0.7952 S,0,125076,125171,0.7952,0.8144 S,0,125171,125266,0.8144,0.7952 S,0,125648,125743,0.7952,0.8144 S,0,125743,125838,0.8144,0.7952 S,0,126219,126314,0.7952,0.8144 S,0,126314,126409,0.8144,0.7952 S,0,126791,126886,0.7952,0.8144 S,0,126886,126981,0.8144,0.7952 S,0,127362,127457,0.7952,0.8144 S,0,127457,127552,0.8144,0.7952 S,0,127934,128029,0.7952,0.8144 S,0,128029,128124,0.8144,0.7952 S,0,128505,128600,0.7952,0.8144 S,0,128600,128695,0.8144,0.7952 S,0,129076,129171,0.7952,0.8144 S,0,129171,129266,0.8144,0.7952 S,0,129648,129743,0.7952,0.8144 S,0,129743,129838,0.8144,0.7952 S,0,130219,130314,0.7952,0.8144 S,0,130314,130409,0.8144,0.7952 S,0,130791,130886,0.7952,0.8144 S,0,130886,130981,0.8144,0.7952 S,0,131362,131457,0.7952,0.8144 S,0,131457,131552,0.8144,0.7952 S,0,131934,132029,0.7952,0.8144 S,0,132029,132124,0.8144,0.7952 S,0,132505,132600,0.7952,0.8144 S,0,132600,132695,0.8144,0.7952 S,0,133076,133171,0.7952,0.8144 S,0,133171,133266,0.8144,0.7952 S,0,133648,133743,0.7952,0.8144 S,0,133743,133838,0.8144,0.7952 S,0,134219,134314,0.7952,0.8144 S,0,134314,134409,0.8144,0.7952 S,0,134791,134886,0.7952,0.8144 S,0,134886,134981,0.8144,0.7952 S,0,135362,135457,0.7952,0.8144 S,0,135457,135552,0.8144,0.7952 S,0,135934,136029,0.7952,0.8144 S,0,136029,136124,0.8144,0.7952 S,0,136505,136600,0.7952,0.8144 S,0,136600,136695,0.8144,0.7952 S,0,137076,137171,0.7952,0.8144 S,0,137171,137266,0.8144,0.7952 S,0,137648,137743,0.7952,0.8144 S,0,137743,137838,0.8144,0.7952 S,0,138219,138314,0.7952,0.8144 S,0,138314,138409,0.8144,0.7952 S,0,138791,138886,0.7952,0.8144 S,0,138886,138981,0.8144,0.7952 S,0,139362,139457,0.7952,0.8144 S,0,139457,139552,0.8144,0.7952 S,0,139934,140029,0.7952,0.8144 S,0,140029,140124,0.8144,0.7952 S,0,140505,140600,0.7952,0.8144 S,0,140600,140695,0.8144,0.7952 S,0,141076,141171,0.7952,0.8144 S,0,141171,141266,0.8144,0.7952 S,0,141648,141743,0.7952,0.8144 S,0,141743,141838,0.8144,0.7952 S,0,142219,142314,0.7952,0.8144 S,0,142314,142409,0.8144,0.7952 S,0,142791,142886,0.7952,0.8144 S,0,142886,142981,0.8144,0.7952 S,0,143362,143457,0.7952,0.8144 S,0,143457,143552,0.8144,0.7952 S,0,143934,144029,0.7952,0.8144 S,0,144029,144124,0.8144,0.7952 S,0,144505,144600,0.7952,0.8144 S,0,144600,144695,0.8144,0.7952 S,0,145076,145171,0.7952,0.8144 S,0,145171,145266,0.8144,0.7952 S,0,145648,145743,0.7952,0.8144 S,0,145743,145838,0.8144,0.7952 S,0,146219,146314,0.7952,0.8144 S,0,146314,146409,0.8144,0.7952 S,0,146791,146886,0.7952,0.8144 S,0,146886,146981,0.8144,0.7952 S,0,147362,147457,0.7952,0.8144 S,0,147457,147552,0.8144,0.7952 S,0,147934,148029,0.7952,0.8144 S,0,148029,148124,0.8144,0.7952 S,0,148505,148600,0.7952,0.8144 S,0,148600,148695,0.8144,0.7952 S,0,149076,149171,0.7952,0.8144 S,0,149171,149266,0.8144,0.7952 S,0,149648,149743,0.7952,0.8144 S,0,149743,149838,0.8144,0.7952 S,0,150219,150314,0.7952,0.8144 S,0,150314,150409,0.8144,0.7952 S,0,150791,150886,0.7952,0.8144 S,0,150886,150981,0.8144,0.7952 S,0,151362,151457,0.7952,0.8144 S,0,151457,151552,0.8144,0.7952 S,0,151934,152029,0.7952,0.8144 S,0,152029,152124,0.8144,0.7952 S,0,152505,152600,0.7952,0.8144 S,0,152600,152695,0.8144,0.7952 S,0,153076,153171,0.7952,0.8144 S,0,153171,153266,0.8144,0.7952 S,0,153648,153743,0.7952,0.8144 S,0,153743,153838,0.8144,0.7952 S,0,154219,154314,0.7952,0.8144 S,0,154314,154409,0.8144,0.7952 S,0,154791,154886,0.7952,0.8144 S,0,154886,154981,0.8144,0.7952 S,0,155362,155457,0.7952,0.8144 S,0,155457,155552,0.8144,0.7952 S,0,155934,156029,0.7952,0.8144 S,0,156029,156124,0.8144,0.7952 S,0,156505,156600,0.7952,0.8144 S,0,156600,156695,0.8144,0.7952 S,0,157077,157172,0.7952,0.8144 S,0,157172,157267,0.8144,0.7952 S,0,157648,157743,0.7952,0.8144 S,0,157743,157838,0.8144,0.7952 S,0,158219,158314,0.7952,0.8144 S,0,158314,158409,0.8144,0.7952 S,0,158791,158886,0.7952,0.8144 S,0,158886,158981,0.8144,0.7952 S,0,159362,159457,0.7952,0.8144 S,0,159457,159552,0.8144,0.7952 S,0,159934,160029,0.7952,0.8144 S,0,160029,160124,0.8144,0.7952 S,0,160505,160600,0.7952,0.8144 S,0,160600,160695,0.8144,0.7952 S,0,161077,161172,0.7952,0.8144 S,0,161172,161267,0.8144,0.7952 S,0,161648,161743,0.7952,0.8144 S,0,161743,161838,0.8144,0.7952 S,0,162219,162314,0.7952,0.8144 S,0,162314,162409,0.8144,0.7952 S,0,162791,162886,0.7952,0.8144 S,0,162886,162981,0.8144,0.7952 S,0,163362,163457,0.7952,0.8144 S,0,163457,163552,0.8144,0.7952 S,0,163934,164029,0.7952,0.8144 S,0,164029,164124,0.8144,0.7952 S,0,164505,164600,0.7952,0.8144 S,0,164600,164695,0.8144,0.7952 S,0,165077,165172,0.7952,0.8144 S,0,165172,165267,0.8144,0.7952 S,0,165648,165743,0.7952,0.8144 S,0,165743,165838,0.8144,0.7952 S,0,166219,166314,0.7952,0.8144 S,0,166314,166409,0.8144,0.7952 S,0,166791,166886,0.7952,0.8144 S,0,166886,166981,0.8144,0.7952 S,0,167362,167457,0.7952,0.8144 S,0,167457,167552,0.8144,0.7952 S,0,167934,168029,0.7952,0.8144 S,0,168029,168124,0.8144,0.7952 S,0,168505,168600,0.7952,0.8144 S,0,168600,168695,0.8144,0.7952 S,0,169077,169172,0.7952,0.8144 S,0,169172,169267,0.8144,0.7952 S,0,169648,169743,0.7952,0.8144 S,0,169743,169838,0.8144,0.7952 S,0,170219,170314,0.7952,0.8144 S,0,170314,170409,0.8144,0.7952 S,0,170791,170886,0.7952,0.8144 S,0,170886,170981,0.8144,0.7952 S,0,171362,171457,0.7952,0.8144 S,0,171457,171552,0.8144,0.7952 S,0,171934,172029,0.7952,0.8144 S,0,172029,172124,0.8144,0.7952 S,0,172505,172600,0.7952,0.8144 S,0,172600,172695,0.8144,0.7952 S,0,173077,173172,0.7952,0.8144 S,0,173172,173267,0.8144,0.7952 S,0,173648,173743,0.7952,0.8144 S,0,173743,173838,0.8144,0.7952 S,0,174219,174314,0.7952,0.8144 S,0,174314,174409,0.8144,0.7952 S,0,174791,174886,0.7952,0.8144 S,0,174886,174981,0.8144,0.7952 S,0,175362,175457,0.7952,0.8144 S,0,175457,175552,0.8144,0.7952 S,0,175934,176029,0.7952,0.8144 S,0,176029,176124,0.8144,0.7952 S,0,176505,176600,0.7952,0.8144 S,0,176600,176695,0.8144,0.7952 S,0,177077,177172,0.7952,0.8144 S,0,177172,177267,0.8144,0.7952 S,0,177648,177743,0.7952,0.8144 S,0,177743,177838,0.8144,0.7952 S,0,178219,178314,0.7952,0.8144 S,0,178314,178409,0.8144,0.7952 S,0,178791,178886,0.7952,0.8144 S,0,178886,178981,0.8144,0.7952 S,0,179362,179457,0.7952,0.8144 S,0,179457,179552,0.8144,0.7952 S,0,179934,180029,0.7952,0.8144 S,0,180029,180124,0.8144,0.7952 S,0,180505,180600,0.7952,0.8144 S,0,180600,180695,0.8144,0.7952 S,0,181077,181172,0.7952,0.8144 S,0,181172,181267,0.8144,0.7952 S,0,181648,181743,0.7952,0.8144 S,0,181743,181838,0.8144,0.7952 S,0,182219,182314,0.7952,0.8144 S,0,182314,182409,0.8144,0.7952 S,0,182791,182886,0.7952,0.8144 S,0,182886,182981,0.8144,0.7952 S,0,183362,183457,0.7952,0.8144 S,0,183457,183552,0.8144,0.7952 S,0,183934,184029,0.7952,0.8144 S,0,184029,184124,0.8144,0.7952 S,0,184505,184600,0.7952,0.8144 S,0,184600,184695,0.8144,0.7952 S,0,185077,185172,0.7952,0.8144 S,0,185172,185267,0.8144,0.7952 S,0,185648,185743,0.7952,0.8144 S,0,185743,185838,0.8144,0.7952 S,0,186219,186314,0.7952,0.8144 S,0,186314,186409,0.8144,0.7952 S,0,186791,186886,0.7952,0.8144 S,0,186886,186981,0.8144,0.7952 S,0,187362,187457,0.7952,0.8144 S,0,187457,187552,0.8144,0.7952 S,0,187934,188029,0.7952,0.8144 S,0,188029,188124,0.8144,0.7952 S,0,188505,188600,0.7952,0.8144 S,0,188600,188695,0.8144,0.7952 S,0,189077,189172,0.7952,0.8144 S,0,189172,189267,0.8144,0.7952 S,0,189648,189743,0.7952,0.8144 S,0,189743,189838,0.8144,0.7952 S,0,190219,190314,0.7952,0.8144 S,0,190314,190409,0.8144,0.7952 S,0,190791,190886,0.7952,0.8144 S,0,190886,190981,0.8144,0.7952 S,0,191362,191457,0.7952,0.8144 S,0,191457,191552,0.8144,0.7952 S,0,191934,192029,0.7952,0.8144 S,0,192029,192124,0.8144,0.7952 S,0,192505,192600,0.7952,0.8144 S,0,192600,192695,0.8144,0.7952 S,0,193077,193172,0.7952,0.8144 S,0,193172,193267,0.8144,0.7952 S,0,193648,193743,0.7952,0.8144 S,0,193743,193838,0.8144,0.7952 S,0,194219,194314,0.7952,0.8144 S,0,194314,194409,0.8144,0.7952 S,0,194791,194886,0.7952,0.8144 S,0,194886,194981,0.8144,0.7952 S,0,195362,195457,0.7952,0.8144 S,0,195457,195552,0.8144,0.7952 S,0,195934,196029,0.7952,0.8144 S,0,196029,196124,0.8144,0.7952 S,0,196505,196600,0.7952,0.8144 S,0,196600,196695,0.8144,0.7952 S,0,197077,197172,0.7952,0.8144 S,0,197172,197267,0.8144,0.7952 S,0,197648,197743,0.7952,0.8144 S,0,197743,197838,0.8144,0.7952 S,0,198219,198314,0.7952,0.8144 S,0,198314,198409,0.8144,0.7952 S,0,198791,198886,0.7952,0.8144 S,0,198886,198981,0.8144,0.7952 S,0,199362,199457,0.7952,0.8144 S,0,199457,199552,0.8144,0.7952 S,0,199934,200029,0.7952,0.8144 S,0,200029,200124,0.8144,0.7952 S,0,200505,200600,0.7952,0.8144 S,0,200600,200695,0.8144,0.7952 S,0,201077,201172,0.7952,0.8144 S,0,201172,201267,0.8144,0.7952 S,0,201648,201743,0.7952,0.8144 S,0,201743,201838,0.8144,0.7952 S,0,202219,202314,0.7952,0.8144 S,0,202314,202409,0.8144,0.7952 S,0,202791,202886,0.7952,0.8144 S,0,202886,202981,0.8144,0.7952 S,0,203362,203457,0.7952,0.8144 S,0,203457,203552,0.8144,0.7952 S,0,203934,204029,0.7952,0.8144 S,0,204029,204124,0.8144,0.7952 S,0,204505,204600,0.7952,0.8144 S,0,204600,204695,0.8144,0.7952 S,0,205077,205172,0.7952,0.8144 S,0,205172,205267,0.8144,0.7952 S,0,205648,205743,0.7952,0.8144 S,0,205743,205838,0.8144,0.7952 S,0,206219,206314,0.7952,0.8144 S,0,206314,206409,0.8144,0.7952 S,0,206791,206886,0.7952,0.8144 S,0,206886,206981,0.8144,0.7952 S,0,207362,207457,0.7952,0.8144 S,0,207457,207552,0.8144,0.7952 S,0,207934,208029,0.7952,0.8144 S,0,208029,208124,0.8144,0.7952 S,0,208505,208600,0.7952,0.8144 S,0,208600,208695,0.8144,0.7952 S,0,209077,209172,0.7952,0.8144 S,0,209172,209267,0.8144,0.7952 S,0,209648,209743,0.7952,0.8144 S,0,209743,209838,0.8144,0.7952 S,0,210219,210314,0.7952,0.8144 S,0,210314,210409,0.8144,0.7952 S,0,210791,210886,0.7952,0.8144 S,0,210886,210981,0.8144,0.7952 F,0,211172,211457,1,0 S,0,211362,211457,0.7952,0.8144 S,0,211457,,0.8144
//Storyboard Layer 1 (Fail)
//Storyboard Layer 2 (Pass)
//Storyboard Layer 3 (Foreground)
//Storyboard Sound Samples
//Background Colour Transformations
3,100,0,0,0

[TimingPoints]
1172,285.714285714286,4,1,1,70,1,0
65362,-100,4,1,1,62,0,0
83172,-100,4,1,1,80,0,0
138314,-100,4,1,1,70,0,0
156791,-100,4,1,1,59,0,0
174314,-100,4,1,1,80,0,0

[Colours]
Combo1 : 49,112,37
Combo2 : 175,35,46
Combo3 : 223,217,217

[HitObjects]
96,208,28886,1,0
256,144,29457,1,0
224,304,30029,1,0
160,144,30600,1,0
160,144,30886,2,0,B|176:256|272:320|384:304,2,280,0|0|0
160,144,32314,5,0
320,208,32885,1,0
288,48,33457,1,0
224,208,34028,1,0
224,208,34314,2,0,B|240:96|336:32|448:48,2,280
224,208,35743,5,0
304,224,36029,1,0
384,256,36314,2,0,B|488:280,1,93.3333333333333
474,276,36600,1,0
480,192,36886,5,0
416,32,37457,1,0
256,80,38029,1,0
320,240,38600,1,0
240,272,38886,1,0
168,320,39172,1,0
80,224,39457,6,0,B|144:176|144:96,1,140
143,104,40029,2,0,B|216:88|296:136,1,140
360,96,40600,2,0,B|440:160,1,93.3333333333333
424,184,40886,2,0,B|336:224,1,93.3333333333333
344,248,41172,2,0,B|424:312,1,93.3333333333333
440,328,41457,1,0
360,344,41743,5,0
280,352,42029,1,0
200,320,42314,1,0
96,184,42886,1,0
224,80,43457,1,0
304,88,43743,1,0
376,128,44029,1,0
320,192,44314,1,0
240,168,44600,1,0
264,248,44886,5,0
264,248,45457,1,0
264,248,46029,1,0
288,328,46314,1,0
208,312,46600,1,0
80,208,47172,5,0
152,56,47743,1,0
312,104,48314,1,0
240,256,48885,1,0
272,176,49172,2,0,B|120:160|8:48,2,280
352,192,50600,5,0
280,344,51171,1,0
120,296,51742,1,0
192,144,52313,1,0
160,224,52600,2,0,B|312:240|424:352,2,280
72,216,54029,5,0
128,152,54315,1,0
208,120,54600,2,0,B|312:88,1,93.3333333333333
297,92,54886,1,0
392,80,55172,5,0
464,232,55743,1,0
320,320,56314,1,0
248,168,56885,1,0
288,240,57172,1,0
216,280,57457,1,0
176,208,57743,6,0,B|128:144|144:64,1,140
216,40,58314,2,0,B|264:104|248:184,1,140
240,256,58886,2,0,B|352:232,1,93.3333333333333
360,224,59172,2,0,B|424:152,1,93.3333333333333
432,128,59457,2,0,B|456:32,1,93.3333333333333
454,37,59743,1,0
360,40,60029,5,0
280,64,60315,1,0
344,120,60600,1,0
184,168,61172,1,0
304,288,61743,1,0
248,224,62029,1,0
328,200,62315,1,0
264,144,62600,1,0
224,72,62886,1,0
144,56,63172,5,0
64,224,63743,1,0
208,352,64315,1,0
128,344,64600,1,0
48,312,64886,1,0
120,264,65172,1,0
80,192,65457,5,0
144,136,65743,1,0
216,96,66029,2,0,B|312:72,1,93.3333333333333
306,73,66314,1,0
392,72,66600,1,0
472,96,66886,1,0
408,152,67172,1,0
488,184,67457,1,0
464,272,67743,5,0
400,216,68029,1,0
328,176,68315,2,0,B|232:152,1,93.3333333333333
237,153,68600,1,0
152,152,68886,1,0
72,176,69172,1,0
136,232,69458,1,0
56,264,69743,1,0
80,352,70029,5,0
144,296,70315,1,0
216,256,70601,2,0,B|312:232,1,93.3333333333333
306,233,70886,1,0
392,232,71172,1,0
472,256,71458,1,0
408,312,71744,1,0
408,312,72029,5,0
256,56,72600,5,0
104,312,73172,5,0
312,224,73743,6,0,B|416:128,2,140
200,224,74886,2,0,B|96:128,2,140
312,344,76029,6,0,B|264:288|312:200,1,140
232,168,76600,2,0,B|280:112|232:24,1,140
168,88,77172,2,0,B|80:136,1,93.3333333333333
80,160,77457,2,0,B|40:256,1,93.3333333333333
40,272,77743,1,0
200,320,78314,5,0
280,288,78600,1,0
352,240,78886,2,0,B|440:176|456:32,1,233.333333333333
424,40,79457,2,0,B|272:40,1,140
48,192,80314,5,0
288,344,80886,1,0
256,208,81172,12,0,82219
144,56,83457,5,0
168,136,83743,1,0
224,72,84029,1,0
248,152,84314,1,0
304,160,84505,2,0,B|376:144|456:208,1,140
432,224,84886,2,0,B|440:272|384:312,1,93.3333333333333
368,320,85172,2,0,B|296:312|232:368,1,140
176,304,85743,5,0
96,280,86029,1,0
152,216,86314,1,0
232,232,86600,1,0
200,184,86791,2,0,B|280:152|280:64,1,140
304,72,87172,2,0,B|352:104|408:88,1,93.3333333333333
416,112,87457,2,0,B|392:192|456:248,1,140
384,296,88029,5,0
304,264,88314,1,0
224,240,88600,1,0
144,216,88886,1,0
168,136,89172,5,0
264,168,89457,1,0
360,200,89743,1,0
456,232,90029,1,0
456,232,90314,6,0,B|424:160|472:88,2,140
408,256,91076,2,0,B|336:272|304:352,1,140
280,344,91457,2,0,B|184:344,1,93.3333333333333
184,344,91743,1,0
104,312,92029,5,0
104,232,92314,1,0
104,152,92600,2,0,B|200:48,1,140
272,96,93172,2,0,B|232:240,1,140
224,312,93743,1,0
312,312,94029,5,0
392,288,94314,1,0
456,232,94600,1,0
472,152,94886,1,0
256,48,95457,1,0
40,152,96029,1,0
112,184,96314,5,0
80,264,96600,1,0
160,296,96886,1,0
192,216,97172,2,0,B|256:240|296:200,1,93.3333333333333
281,211,97457,2,0,B|352:176|432:232,1,140
496,232,98029,5,0
256,56,98600,1,0
16,232,99172,1,0
16,232,99457,5,0
176,192,100029,1,0
336,192,100600,1,0
496,232,101172,1,0
496,232,101457,1,0
416,208,101743,5,0
440,128,102029,1,0
360,104,102315,1,0
336,184,102600,1,0
336,184,102791,2,0,B|296:256|216:256,1,140
192,264,103172,2,0,B|128:264|104:312,1,93.3333333333333
110,300,103457,1,0
24,320,103743,1,0
24,232,104029,5,0
0,152,104315,1,0
80,128,104601,1,0
104,208,104886,1,0
104,208,105077,2,0,B|144:280|224:280,1,140
248,288,105458,2,0,B|312:288|336:336,1,93.3333333333333
330,324,105743,1,0
416,344,106029,1,0
432,264,106315,5,0
456,184,106600,1,0
376,168,106886,1,0
408,88,107172,1,0
328,56,107458,5,0
256,144,107743,1,0
256,256,108029,1,0
320,352,108315,1,0
320,352,108600,6,0,B|384:304|392:216,2,140
272,328,109362,2,0,B|224:264|136:320,1,140
120,320,109743,2,0,B|64:344|24:296,1,93.3333333333333
33,306,110029,1,0
64,232,110315,5,0
144,248,110600,1,0
136,168,110886,2,0,B|176:88|264:88,1,140
296,152,111457,2,0,B|363:153|403:73,1,140
480,104,112029,1,0
456,184,112314,5,0
392,240,112600,1,0
328,288,112886,1,0
256,328,113172,1,0
48,192,113743,1,0
256,56,114314,1,0
336,72,114600,5,0
416,96,114886,1,0
480,152,115172,1,0
400,184,115457,2,0,B|312:336|176:72|16:240,1,420
72,304,116600,1,0
152,328,116886,1,0
208,336,117076,1,0
208,336,117172,1,0
264,320,117362,1,0
264,320,117457,1,0
320,256,117743,5,0
376,160,118029,1,0
264,168,118314,1,0
256,208,118600,12,0,120029
72,120,138600,5,0
256,48,139171,1,0
256,248,139743,1,0
440,176,140314,1,0
360,232,140600,2,0,B|328:120|144:168|152:64,2,280
440,176,142029,5,0
256,248,142600,1,0
256,48,143172,1,0
72,120,143743,1,0
152,64,144029,2,0,B|184:176|368:128|360:232,2,280
64,104,145457,1,0
120,184,145743,1,0
200,240,146028,1,0
256,272,146219,1,0
256,272,146314,1,0
352,296,146600,5,0
424,112,147172,1,0
256,16,147743,1,0
88,112,148314,1,0
88,208,148600,1,0
168,160,148886,1,0
160,256,149172,6,0,B|208:328|296:288,1,140
240,208,149743,2,0,B|314:173|362:245,1,140
408,328,150314,1,0
448,280,150505,1,0
448,280,150600,1,0
456,216,150791,1,0
456,216,150886,1,0
440,152,151076,1,0
440,152,151172,1,0
376,80,151457,5,0
288,40,151743,1,0
296,136,152028,1,0
256,328,152600,1,0
80,240,153171,1,0
104,144,153457,1,0
128,48,153743,1,0
200,112,154029,1,0
168,208,154314,1,0
264,184,154600,5,0
392,336,155171,1,0
440,144,155743,1,0
384,64,156028,1,0
288,88,156314,1,0
264,184,156600,1,0
184,240,156886,6,0,B|120:184|144:112,2,140
232,280,157648,1,0
232,280,157743,2,0,B|288:328|376:272,1,140
456,304,158314,1,0
440,208,158600,1,0
344,184,158886,1,0
344,184,159172,6,0,B|408:128|384:56,2,140
296,224,159934,1,0
296,224,160029,2,0,B|240:272|152:216,1,140
72,248,160600,1,0
88,152,160886,1,0
184,128,161172,1,0
184,128,161457,6,0,B|99:135|76:208,2,140
246,123,162219,1,0
246,123,162314,2,0,B|319:117|358:214,1,140
441,236,162885,1,0
372,304,163171,1,0
272,320,163457,5,0
184,280,163742,1,0
104,224,164028,1,0
80,160,164219,1,0
80,160,164314,1,0
64,64,164600,1,0
312,160,165172,6,0,B|416:256,2,140
200,160,166315,2,0,B|96:256,2,140
312,40,167458,6,0,B|264:96|312:184,1,140
232,216,168029,2,0,B|280:272|232:360,1,140
168,296,168601,2,0,B|80:248,1,93.3333333333333
80,224,168886,2,0,B|40:128,1,93.3333333333333
40,112,169172,1,0
200,64,169743,5,0
280,96,170029,1,0
352,144,170315,2,0,B|440:208|456:352,1,233.333333333333
424,344,170886,2,0,B|272:344,1,140
48,192,171743,5,0
288,40,172315,1,0
256,208,172600,12,0,173647
56,200,174885,5,0
152,232,175171,1,0
80,296,175457,1,0
168,336,175742,1,0
232,352,175933,1,0
232,352,176029,1,0
296,344,176219,1,0
296,344,176314,1,0
360,320,176505,1,0
360,320,176600,1,0
448,272,176886,1,0
392,192,177172,5,0
296,160,177458,1,0
368,96,177744,1,0
280,56,178029,1,0
216,40,178219,1,0
216,40,178314,1,0
152,48,178506,1,0
152,48,178601,1,0
88,72,178792,1,0
88,72,178887,1,0
0,120,179173,1,0
88,168,179457,5,0
176,128,179742,1,0
216,216,180028,1,0
128,256,180314,1,0
128,256,180600,5,0
176,360,180886,1,0
280,312,181172,1,0
232,208,181458,1,0
232,208,181743,6,0,B|304:168|296:72,2,140
168,216,182505,1,0
168,216,182600,1,0
104,192,182791,1,0
104,192,182886,1,0
64,144,183076,1,0
64,144,183172,1,0
144,88,183457,6,0,B|200:80|256:96|304:80,1,140
283,84,184029,1,0
448,192,184600,1,0
283,299,185172,1,0
192,328,185457,5,0
96,344,185742,1,0
136,256,186028,1,0
56,192,186314,1,0
256,32,186886,1,0
456,192,187457,1,0
416,280,187743,6,0,B|272:320,1,140
224,240,188314,2,0,B|344:160,1,140
392,120,188791,1,0
392,120,188886,1,0
464,56,189172,1,0
368,32,189457,5,0
256,312,190028,1,0
144,32,190600,1,0
256,64,190885,5,0
112,192,191457,1,0
256,320,192029,1,0
400,192,192601,1,0
400,192,192886,1,0
336,120,193172,6,0,B|192:80,1,140
120,144,193743,2,0,B|264:184,1,140
320,200,194219,1,0
320,200,194314,1,0
384,216,194505,1,0
384,216,194600,1,0
448,232,194791,1,0
448,232,194886,1,0
448,232,195172,1,0
376,304,195457,6,0,B|232:344,1,140
160,280,196028,2,0,B|304:240,1,140
360,224,196504,1,0
360,224,196599,1,0
424,208,196790,1,0
424,208,196885,1,0
488,192,197076,1,0
488,192,197171,1,0
488,192,197457,1,0
472,96,197743,5,0
384,56,198028,1,0
344,144,198314,1,0
256,104,198599,1,0
216,192,198886,5,0
112,144,199171,1,0
80,256,199457,1,0
184,304,199742,1,0
280,320,200029,5,0
376,304,200314,1,0
448,240,200600,1,0
448,240,200695,1,0
472,176,200886,1,0
480,112,201076,1,0
480,112,201172,1,0
464,48,201362,1,0
464,48,201457,1,0
368,64,201743,6,0,B|216:96,1,140
231,92,202314,1,0
56,192,202886,1,0
231,291,203457,1,0
232,192,203743,5,0
144,192,204029,1,0
56,192,204314,1,0
56,192,204600,1,0
256,48,205172,1,0
456,192,205743,1,0
408,280,206029,5,0
328,336,206314,1,0
240,296,206600,1,0
256,208,206886,12,0,207743
256,272,208314,5,0
224,320,208505,1,0
224,320,208600,1,0
280,320,208791,1,0
280,320,208886,1,0
352,280,209172,5,0
256,232,209457,1,0
160,280,209743,1,0
256,208,210028,12,0,211457
