osu file format v6

[General]
AudioFilename: Rina Satou - Merikuri Song.MP3
AudioLeadIn: 0
PreviewTime: 83352
Countdown: 0
SampleSet: Normal
StackLeniency: 0.7
Mode: 0
LetterboxInBreaks: 0

[Editor]
Bookmarks: 10314,28600,46886,65172,83457,101743,120029,138314,156600,174886,193172,211457,232029,250314,270886
DistanceSpacing: 0.800000011920929
BeatDivisor: 3
GridSize: 8

[Metadata]
Title:Merikuri Song
Artist:Rina Satou
Creator:Dangaard
Version:Chiaki
Source:Minami-ke Okaeri
Tags:Minami-ke happy30 Alace

[Difficulty]
HPDrainRate:6
CircleSize:4
OverallDifficulty:7
SliderMultiplier:1.4
SliderTickRate:0.5

[Events]
//Background and Video events
0,0,"xmas2.jpg"
//Break Periods
//Storyboard Layer 0 (Background)
Sprite,Background,Centre,"colum1.png",320,240 M,0,0,,38,240 F,0,0,,0 S,0,0,,0.7952 F,0,1172,10314,0,1 S,0,10219,10314,0.7952,0.8144 S,0,10314,10409,0.8144,0.7952 S,0,10790,10885,0.7952,0.8144 S,0,10885,10980,0.8144,0.7952 S,0,11362,11457,0.7952,0.8144 S,0,11457,11552,0.8144,0.7952 S,0,11933,12028,0.7952,0.8144 S,0,12028,12123,0.8144,0.7952 S,0,12505,12600,0.7952,0.8144 S,0,12600,12695,0.8144,0.7952 S,0,13076,13171,0.7952,0.8144 S,0,13171,13266,0.8144,0.7952 S,0,13648,13743,0.7952,0.8144 S,0,13743,13838,0.8144,0.7952 S,0,14219,14314,0.7952,0.8144 S,0,14314,14409,0.8144,0.7952 S,0,14790,14885,0.7952,0.8144 S,0,14885,14980,0.8144,0.7952 S,0,15362,15457,0.7952,0.8144 S,0,15457,15552,0.8144,0.7952 S,0,15933,16028,0.7952,0.8144 S,0,16028,16123,0.8144,0.7952 S,0,16505,16600,0.7952,0.8144 S,0,16600,16695,0.8144,0.7952 S,0,17076,17171,0.7952,0.8144 S,0,17171,17266,0.8144,0.7952 S,0,17648,17743,0.7952,0.8144 S,0,17743,17838,0.8144,0.7952 S,0,18219,18314,0.7952,0.8144 S,0,18314,18409,0.8144,0.7952 S,0,18790,18885,0.7952,0.8144 S,0,18885,18980,0.8144,0.7952 S,0,19362,19457,0.7952,0.8144 S,0,19457,19552,0.8144,0.7952 S,0,19933,20028,0.7952,0.8144 S,0,20028,20123,0.8144,0.7952 S,0,20505,20600,0.7952,0.8144 S,0,20600,20695,0.8144,0.7952 S,0,21076,21171,0.7952,0.8144 S,0,21171,21266,0.8144,0.7952 S,0,21648,21743,0.7952,0.8144 S,0,21743,21838,0.8144,0.7952 S,0,22219,22314,0.7952,0.8144 S,0,22314,22409,0.8144,0.7952 S,0,22790,22885,0.7952,0.8144 S,0,22885,22980,0.8144,0.7952 S,0,23362,23457,0.7952,0.8144 S,0,23457,23552,0.8144,0.7952 S,0,23933,24028,0.7952,0.8144 S,0,24028,24123,0.8144,0.7952 S,0,24505,24600,0.7952,0.8144 S,0,24600,24695,0.8144,0.7952 S,0,25076,25171,0.7952,0.8144 S,0,25171,25266,0.8144,0.7952 S,0,25648,25743,0.7952,0.8144 S,0,25743,25838,0.8144,0.7952 S,0,26219,26314,0.7952,0.8144 S,0,26314,26409,0.8144,0.7952 S,0,26790,26885,0.7952,0.8144 S,0,26885,26980,0.8144,0.7952 S,0,27362,27457,0.7952,0.8144 S,0,27457,27552,0.8144,0.7952 S,0,27933,28028,0.7952,0.8144 S,0,28028,28123,0.8144,0.7952 S,0,28505,28600,0.7952,0.8144 S,0,28600,28695,0.8144,0.7952 S,0,29076,29171,0.7952,0.8144 S,0,29171,29266,0.8144,0.7952 S,0,29648,29743,0.7952,0.8144 S,0,29743,29838,0.8144,0.7952 S,0,30219,30314,0.7952,0.8144 S,0,30314,30409,0.8144,0.7952 S,0,30790,30885,0.7952,0.8144 S,0,30885,30980,0.8144,0.7952 S,0,31362,31457,0.7952,0.8144 S,0,31457,31552,0.8144,0.7952 S,0,31933,32028,0.7952,0.8144 S,0,32028,32123,0.8144,0.7952 S,0,32505,32600,0.7952,0.8144 S,0,32600,32695,0.8144,0.7952 S,0,33076,33171,0.7952,0.8144 S,0,33171,33266,0.8144,0.7952 S,0,33648,33743,0.7952,0.8144 S,0,33743,33838,0.8144,0.7952 S,0,34219,34314,0.7952,0.8144 S,0,34314,34409,0.8144,0.7952 S,0,34790,34885,0.7952,0.8144 S,0,34885,34980,0.8144,0.7952 S,0,35362,35457,0.7952,0.8144 S,0,35457,35552,0.8144,0.7952 S,0,35933,36028,0.7952,0.8144 S,0,36028,36123,0.8144,0.7952 S,0,36505,36600,0.7952,0.8144 S,0,36600,36695,0.8144,0.7952 S,0,37076,37171,0.7952,0.8144 S,0,37171,37266,0.8144,0.7952 S,0,37648,37743,0.7952,0.8144 S,0,37743,37838,0.8144,0.7952 S,0,38219,38314,0.7952,0.8144 S,0,38314,38409,0.8144,0.7952 S,0,38791,38886,0.7952,0.8144 S,0,38886,38981,0.8144,0.7952 S,0,39362,39457,0.7952,0.8144 S,0,39457,39552,0.8144,0.7952 S,0,39933,40028,0.7952,0.8144 S,0,40028,40123,0.8144,0.7952 S,0,40505,40600,0.7952,0.8144 S,0,40600,40695,0.8144,0.7952 S,0,41076,41171,0.7952,0.8144 S,0,41171,41266,0.8144,0.7952 S,0,41648,41743,0.7952,0.8144 S,0,41743,41838,0.8144,0.7952 S,0,42219,42314,0.7952,0.8144 S,0,42314,42409,0.8144,0.7952 S,0,42791,42886,0.7952,0.8144 S,0,42886,42981,0.8144,0.7952 S,0,43362,43457,0.7952,0.8144 S,0,43457,43552,0.8144,0.7952 S,0,43933,44028,0.7952,0.8144 S,0,44028,44123,0.8144,0.7952 S,0,44505,44600,0.7952,0.8144 S,0,44600,44695,0.8144,0.7952 S,0,45076,45171,0.7952,0.8144 S,0,45171,45266,0.8144,0.7952 S,0,45648,45743,0.7952,0.8144 S,0,45743,45838,0.8144,0.7952 S,0,46219,46314,0.7952,0.8144 S,0,46314,46409,0.8144,0.7952 S,0,46791,46886,0.7952,0.8144 S,0,46886,46981,0.8144,0.7952 S,0,47362,47457,0.7952,0.8144 S,0,47457,47552,0.8144,0.7952 S,0,47933,48028,0.7952,0.8144 S,0,48028,48123,0.8144,0.7952 S,0,48505,48600,0.7952,0.8144 S,0,48600,48695,0.8144,0.7952 S,0,49076,49171,0.7952,0.8144 S,0,49171,49266,0.8144,0.7952 S,0,49648,49743,0.7952,0.8144 S,0,49743,49838,0.8144,0.7952 S,0,50219,50314,0.7952,0.8144 S,0,50314,50409,0.8144,0.7952 S,0,50791,50886,0.7952,0.8144 S,0,50886,50981,0.8144,0.7952 S,0,51362,51457,0.7952,0.8144 S,0,51457,51552,0.8144,0.7952 S,0,51933,52028,0.7952,0.8144 S,0,52028,52123,0.8144,0.7952 S,0,52505,52600,0.7952,0.8144 S,0,52600,52695,0.8144,0.7952 S,0,53076,53171,0.7952,0.8144 S,0,53171,53266,0.8144,0.7952 S,0,53648,53743,0.7952,0.8144 S,0,53743,53838,0.8144,0.7952 S,0,54219,54314,0.7952,0.8144 S,0,54314,54409,0.8144,0.7952 S,0,54791,54886,0.7952,0.8144 S,0,54886,54981,0.8144,0.7952 S,0,55362,55457,0.7952,0.8144 S,0,55457,55552,0.8144,0.7952 S,0,55933,56028,0.7952,0.8144 S,0,56028,56123,0.8144,0.7952 S,0,56505,56600,0.7952,0.8144 S,0,56600,56695,0.8144,0.7952 S,0,57076,57171,0.7952,0.8144 S,0,57171,57266,0.8144,0.7952 S,0,57648,57743,0.7952,0.8144 S,0,57743,57838,0.8144,0.7952 S,0,58219,58314,0.7952,0.8144 S,0,58314,58409,0.8144,0.7952 S,0,58791,58886,0.7952,0.8144 S,0,58886,58981,0.8144,0.7952 S,0,59362,59457,0.7952,0.8144 S,0,59457,59552,0.8144,0.7952 S,0,59933,60028,0.7952,0.8144 S,0,60028,60123,0.8144,0.7952 S,0,60505,60600,0.7952,0.8144 S,0,60600,60695,0.8144,0.7952 S,0,61076,61171,0.7952,0.8144 S,0,61171,61266,0.8144,0.7952 S,0,61648,61743,0.7952,0.8144 S,0,61743,61838,0.8144,0.7952 S,0,62219,62314,0.7952,0.8144 S,0,62314,62409,0.8144,0.7952 S,0,62791,62886,0.7952,0.8144 S,0,62886,62981,0.8144,0.7952 S,0,63362,63457,0.7952,0.8144 S,0,63457,63552,0.8144,0.7952 S,0,63933,64028,0.7952,0.8144 S,0,64028,64123,0.8144,0.7952 S,0,64505,64600,0.7952,0.8144 S,0,64600,64695,0.8144,0.7952 S,0,65076,65171,0.7952,0.8144 S,0,65171,65266,0.8144,0.7952 S,0,65648,65743,0.7952,0.8144 S,0,65743,65838,0.8144,0.7952 S,0,66219,66314,0.7952,0.8144 S,0,66314,66409,0.8144,0.7952 S,0,66791,66886,0.7952,0.8144 S,0,66886,66981,0.8144,0.7952 S,0,67362,67457,0.7952,0.8144 S,0,67457,67552,0.8144,0.7952 S,0,67933,68028,0.7952,0.8144 S,0,68028,68123,0.8144,0.7952 S,0,68505,68600,0.7952,0.8144 S,0,68600,68695,0.8144,0.7952 S,0,69076,69171,0.7952,0.8144 S,0,69171,69266,0.8144,0.7952 S,0,69648,69743,0.7952,0.8144 S,0,69743,69838,0.8144,0.7952 S,0,70219,70314,0.7952,0.8144 S,0,70314,70409,0.8144,0.7952 S,0,70791,70886,0.7952,0.8144 S,0,70886,70981,0.8144,0.7952 S,0,71362,71457,0.7952,0.8144 S,0,71457,71552,0.8144,0.7952 S,0,71933,72028,0.7952,0.8144 S,0,72028,72123,0.8144,0.7952 S,0,72505,72600,0.7952,0.8144 S,0,72600,72695,0.8144,0.7952 S,0,73076,73171,0.7952,0.8144 S,0,73171,73266,0.8144,0.7952 S,0,73648,73743,0.7952,0.8144 S,0,73743,73838,0.8144,0.7952 S,0,74219,74314,0.7952,0.8144 S,0,74314,74409,0.8144,0.7952 S,0,74791,74886,0.7952,0.8144 S,0,74886,74981,0.8144,0.7952 S,0,75362,75457,0.7952,0.8144 S,0,75457,75552,0.8144,0.7952 S,0,75933,76028,0.7952,0.8144 S,0,76028,76123,0.8144,0.7952 S,0,76505,76600,0.7952,0.8144 S,0,76600,76695,0.8144,0.7952 S,0,77076,77171,0.7952,0.8144 S,0,77171,77266,0.8144,0.7952 S,0,77648,77743,0.7952,0.8144 S,0,77743,77838,0.8144,0.7952 S,0,78219,78314,0.7952,0.8144 S,0,78314,78409,0.8144,0.7952 S,0,78791,78886,0.7952,0.8144 S,0,78886,78981,0.8144,0.7952 S,0,79362,79457,0.7952,0.8144 S,0,79457,79552,0.8144,0.7952 S,0,79933,80028,0.7952,0.8144 S,0,80028,80123,0.8144,0.7952 S,0,80505,80600,0.7952,0.8144 S,0,80600,80695,0.8144,0.7952 S,0,81076,81171,0.7952,0.8144 S,0,81171,81266,0.8144,0.7952 S,0,81648,81743,0.7952,0.8144 S,0,81743,81838,0.8144,0.7952 S,0,82219,82314,0.7952,0.8144 S,0,82314,82409,0.8144,0.7952 S,0,82791,82886,0.7952,0.8144 S,0,82886,82981,0.8144,0.7952 S,0,83362,83457,0.7952,0.8144 S,0,83457,83552,0.8144,0.7952 S,0,83933,84028,0.7952,0.8144 S,0,84028,84123,0.8144,0.7952 S,0,84505,84600,0.7952,0.8144 S,0,84600,84695,0.8144,0.7952 S,0,85076,85171,0.7952,0.8144 S,0,85171,85266,0.8144,0.7952 S,0,85648,85743,0.7952,0.8144 S,0,85743,85838,0.8144,0.7952 S,0,86219,86314,0.7952,0.8144 S,0,86314,86409,0.8144,0.7952 S,0,86791,86886,0.7952,0.8144 S,0,86886,86981,0.8144,0.7952 S,0,87362,87457,0.7952,0.8144 S,0,87457,87552,0.8144,0.7952 S,0,87933,88028,0.7952,0.8144 S,0,88028,88123,0.8144,0.7952 S,0,88505,88600,0.7952,0.8144 S,0,88600,88695,0.8144,0.7952 S,0,89076,89171,0.7952,0.8144 S,0,89171,89266,0.8144,0.7952 S,0,89648,89743,0.7952,0.8144 S,0,89743,89838,0.8144,0.7952 S,0,90219,90314,0.7952,0.8144 S,0,90314,90409,0.8144,0.7952 S,0,90791,90886,0.7952,0.8144 S,0,90886,90981,0.8144,0.7952 S,0,91362,91457,0.7952,0.8144 S,0,91457,91552,0.8144,0.7952 S,0,91933,92028,0.7952,0.8144 S,0,92028,92123,0.8144,0.7952 S,0,92505,92600,0.7952,0.8144 S,0,92600,92695,0.8144,0.7952 S,0,93076,93171,0.7952,0.8144 S,0,93171,93266,0.8144,0.7952 S,0,93648,93743,0.7952,0.8144 S,0,93743,93838,0.8144,0.7952 S,0,94219,94314,0.7952,0.8144 S,0,94314,94409,0.8144,0.7952 S,0,94791,94886,0.7952,0.8144 S,0,94886,94981,0.8144,0.7952 S,0,95362,95457,0.7952,0.8144 S,0,95457,95552,0.8144,0.7952 S,0,95933,96028,0.7952,0.8144 S,0,96028,96123,0.8144,0.7952 S,0,96505,96600,0.7952,0.8144 S,0,96600,96695,0.8144,0.7952 S,0,97076,97171,0.7952,0.8144 S,0,97171,97266,0.8144,0.7952 S,0,97648,97743,0.7952,0.8144 S,0,97743,97838,0.8144,0.7952 S,0,98219,98314,0.7952,0.8144 S,0,98314,98409,0.8144,0.7952 S,0,98791,98886,0.7952,0.8144 S,0,98886,98981,0.8144,0.7952 S,0,99362,99457,0.7952,0.8144 S,0,99457,99552,0.8144,0.7952 S,0,99934,100029,0.7952,0.8144 S,0,100029,100124,0.8144,0.7952 S,0,100505,100600,0.7952,0.8144 S,0,100600,100695,0.8144,0.7952 S,0,101076,101171,0.7952,0.8144 S,0,101171,101266,0.8144,0.7952 S,0,101648,101743,0.7952,0.8144 S,0,101743,101838,0.8144,0.7952 S,0,102219,102314,0.7952,0.8144 S,0,102314,102409,0.8144,0.7952 S,0,102791,102886,0.7952,0.8144 S,0,102886,102981,0.8144,0.7952 S,0,103362,103457,0.7952,0.8144 S,0,103457,103552,0.8144,0.7952 S,0,103934,104029,0.7952,0.8144 S,0,104029,104124,0.8144,0.7952 S,0,104505,104600,0.7952,0.8144 S,0,104600,104695,0.8144,0.7952 S,0,105076,105171,0.7952,0.8144 S,0,105171,105266,0.8144,0.7952 S,0,105648,105743,0.7952,0.8144 S,0,105743,105838,0.8144,0.7952 S,0,106219,106314,0.7952,0.8144 S,0,106314,106409,0.8144,0.7952 S,0,106791,106886,0.7952,0.8144 S,0,106886,106981,0.8144,0.7952 S,0,107362,107457,0.7952,0.8144 S,0,107457,107552,0.8144,0.7952 S,0,107934,108029,0.7952,0.8144 S,0,108029,108124,0.8144,0.7952 S,0,108505,108600,0.7952,0.8144 S,0,108600,108695,0.8144,0.7952 S,0,109076,109171,0.7952,0.8144 S,0,109171,109266,0.8144,0.7952 S,0,109648,109743,0.7952,0.8144 S,0,109743,109838,0.8144,0.7952 S,0,110219,110314,0.7952,0.8144 S,0,110314,110409,0.8144,0.7952 S,0,110791,110886,0.7952,0.8144 S,0,110886,110981,0.8144,0.7952 S,0,111362,111457,0.7952,0.8144 S,0,111457,111552,0.8144,0.7952 S,0,111934,112029,0.7952,0.8144 S,0,112029,112124,0.8144,0.7952 S,0,112505,112600,0.7952,0.8144 S,0,112600,112695,0.8144,0.7952 S,0,113076,113171,0.7952,0.8144 S,0,113171,113266,0.8144,0.7952 S,0,113648,113743,0.7952,0.8144 S,0,113743,113838,0.8144,0.7952 S,0,114219,114314,0.7952,0.8144 S,0,114314,114409,0.8144,0.7952 S,0,114791,114886,0.7952,0.8144 S,0,114886,114981,0.8144,0.7952 S,0,115362,115457,0.7952,0.8144 S,0,115457,115552,0.8144,0.7952 S,0,115934,116029,0.7952,0.8144 S,0,116029,116124,0.8144,0.7952 S,0,116505,116600,0.7952,0.8144 S,0,116600,116695,0.8144,0.7952 S,0,117076,117171,0.7952,0.8144 S,0,117171,117266,0.8144,0.7952 S,0,117648,117743,0.7952,0.8144 S,0,117743,117838,0.8144,0.7952 S,0,118219,118314,0.7952,0.8144 S,0,118314,118409,0.8144,0.7952 S,0,118791,118886,0.7952,0.8144 S,0,118886,118981,0.8144,0.7952 S,0,119362,119457,0.7952,0.8144 S,0,119457,119552,0.8144,0.7952 F,0,119743,120029,1,0 S,0,119934,120029,0.7952,0.8144 S,0,120029,,0.8144
Sprite,Background,Centre,"colum2.png",320,240 M,0,0,,600,240 F,0,0,,0 S,0,0,,0.7952 F,0,1172,10314,0,1 S,0,10219,10314,0.7952,0.8144 S,0,10314,10409,0.8144,0.7952 S,0,10790,10885,0.7952,0.8144 S,0,10885,10980,0.8144,0.7952 S,0,11362,11457,0.7952,0.8144 S,0,11457,11552,0.8144,0.7952 S,0,11933,12028,0.7952,0.8144 S,0,12028,12123,0.8144,0.7952 S,0,12505,12600,0.7952,0.8144 S,0,12600,12695,0.8144,0.7952 S,0,13076,13171,0.7952,0.8144 S,0,13171,13266,0.8144,0.7952 S,0,13648,13743,0.7952,0.8144 S,0,13743,13838,0.8144,0.7952 S,0,14219,14314,0.7952,0.8144 S,0,14314,14409,0.8144,0.7952 S,0,14790,14885,0.7952,0.8144 S,0,14885,14980,0.8144,0.7952 S,0,15362,15457,0.7952,0.8144 S,0,15457,15552,0.8144,0.7952 S,0,15933,16028,0.7952,0.8144 S,0,16028,16123,0.8144,0.7952 S,0,16505,16600,0.7952,0.8144 S,0,16600,16695,0.8144,0.7952 S,0,17076,17171,0.7952,0.8144 S,0,17171,17266,0.8144,0.7952 S,0,17648,17743,0.7952,0.8144 S,0,17743,17838,0.8144,0.7952 S,0,18219,18314,0.7952,0.8144 S,0,18314,18409,0.8144,0.7952 S,0,18790,18885,0.7952,0.8144 S,0,18885,18980,0.8144,0.7952 S,0,19362,19457,0.7952,0.8144 S,0,19457,19552,0.8144,0.7952 S,0,19933,20028,0.7952,0.8144 S,0,20028,20123,0.8144,0.7952 S,0,20505,20600,0.7952,0.8144 S,0,20600,20695,0.8144,0.7952 S,0,21076,21171,0.7952,0.8144 S,0,21171,21266,0.8144,0.7952 S,0,21648,21743,0.7952,0.8144 S,0,21743,21838,0.8144,0.7952 S,0,22219,22314,0.7952,0.8144 S,0,22314,22409,0.8144,0.7952 S,0,22790,22885,0.7952,0.8144 S,0,22885,22980,0.8144,0.7952 S,0,23362,23457,0.7952,0.8144 S,0,23457,23552,0.8144,0.7952 S,0,23933,24028,0.7952,0.8144 S,0,24028,24123,0.8144,0.7952 S,0,24505,24600,0.7952,0.8144 S,0,24600,24695,0.8144,0.7952 S,0,25076,25171,0.7952,0.8144 S,0,25171,25266,0.8144,0.7952 S,0,25648,25743,0.7952,0.8144 S,0,25743,25838,0.8144,0.7952 S,0,26219,26314,0.7952,0.8144 S,0,26314,26409,0.8144,0.7952 S,0,26790,26885,0.7952,0.8144 S,0,26885,26980,0.8144,0.7952 S,0,27362,27457,0.7952,0.8144 S,0,27457,27552,0.8144,0.7952 S,0,27933,28028,0.7952,0.8144 S,0,28028,28123,0.8144,0.7952 S,0,28505,28600,0.7952,0.8144 S,0,28600,28695,0.8144,0.7952 S,0,29076,29171,0.7952,0.8144 S,0,29171,29266,0.8144,0.7952 S,0,29648,29743,0.7952,0.8144 S,0,29743,29838,0.8144,0.7952 S,0,30219,30314,0.7952,0.8144 S,0,30314,30409,0.8144,0.7952 S,0,30790,30885,0.7952,0.8144 S,0,30885,30980,0.8144,0.7952 S,0,31362,31457,0.7952,0.8144 S,0,31457,31552,0.8144,0.7952 S,0,31933,32028,0.7952,0.8144 S,0,32028,32123,0.8144,0.7952 S,0,32505,32600,0.7952,0.8144 S,0,32600,32695,0.8144,0.7952 S,0,33076,33171,0.7952,0.8144 S,0,33171,33266,0.8144,0.7952 S,0,33648,33743,0.7952,0.8144 S,0,33743,33838,0.8144,0.7952 S,0,34219,34314,0.7952,0.8144 S,0,34314,34409,0.8144,0.7952 S,0,34790,34885,0.7952,0.8144 S,0,34885,34980,0.8144,0.7952 S,0,35362,35457,0.7952,0.8144 S,0,35457,35552,0.8144,0.7952 S,0,35933,36028,0.7952,0.8144 S,0,36028,36123,0.8144,0.7952 S,0,36505,36600,0.7952,0.8144 S,0,36600,36695,0.8144,0.7952 S,0,37076,37171,0.7952,0.8144 S,0,37171,37266,0.8144,0.7952 S,0,37648,37743,0.7952,0.8144 S,0,37743,37838,0.8144,0.7952 S,0,38219,38314,0.7952,0.8144 S,0,38314,38409,0.8144,0.7952 S,0,38791,38886,0.7952,0.8144 S,0,38886,38981,0.8144,0.7952 S,0,39362,39457,0.7952,0.8144 S,0,39457,39552,0.8144,0.7952 S,0,39933,40028,0.7952,0.8144 S,0,40028,40123,0.8144,0.7952 S,0,40505,40600,0.7952,0.8144 S,0,40600,40695,0.8144,0.7952 S,0,41076,41171,0.7952,0.8144 S,0,41171,41266,0.8144,0.7952 S,0,41648,41743,0.7952,0.8144 S,0,41743,41838,0.8144,0.7952 S,0,42219,42314,0.7952,0.8144 S,0,42314,42409,0.8144,0.7952 S,0,42791,42886,0.7952,0.8144 S,0,42886,42981,0.8144,0.7952 S,0,43362,43457,0.7952,0.8144 S,0,43457,43552,0.8144,0.7952 S,0,43933,44028,0.7952,0.8144 S,0,44028,44123,0.8144,0.7952 S,0,44505,44600,0.7952,0.8144 S,0,44600,44695,0.8144,0.7952 S,0,45076,45171,0.7952,0.8144 S,0,45171,45266,0.8144,0.7952 S,0,45648,45743,0.7952,0.8144 S,0,45743,45838,0.8144,0.7952 S,0,46219,46314,0.7952,0.8144 S,0,46314,46409,0.8144,0.7952 S,0,46791,46886,0.7952,0.8144 S,0,46886,46981,0.8144,0.7952 S,0,47362,47457,0.7952,0.8144 S,0,47457,47552,0.8144,0.7952 S,0,47933,48028,0.7952,0.8144 S,0,48028,48123,0.8144,0.7952 S,0,48505,48600,0.7952,0.8144 S,0,48600,48695,0.8144,0.7952 S,0,49076,49171,0.7952,0.8144 S,0,49171,49266,0.8144,0.7952 S,0,49648,49743,0.7952,0.8144 S,0,49743,49838,0.8144,0.7952 S,0,50219,50314,0.7952,0.8144 S,0,50314,50409,0.8144,0.7952 S,0,50791,50886,0.7952,0.8144 S,0,50886,50981,0.8144,0.7952 S,0,51362,51457,0.7952,0.8144 S,0,51457,51552,0.8144,0.7952 S,0,51933,52028,0.7952,0.8144 S,0,52028,52123,0.8144,0.7952 S,0,52505,52600,0.7952,0.8144 S,0,52600,52695,0.8144,0.7952 S,0,53076,53171,0.7952,0.8144 S,0,53171,53266,0.8144,0.7952 S,0,53648,53743,0.7952,0.8144 S,0,53743,53838,0.8144,0.7952 S,0,54219,54314,0.7952,0.8144 S,0,54314,54409,0.8144,0.7952 S,0,54791,54886,0.7952,0.8144 S,0,54886,54981,0.8144,0.7952 S,0,55362,55457,0.7952,0.8144 S,0,55457,55552,0.8144,0.7952 S,0,55933,56028,0.7952,0.8144 S,0,56028,56123,0.8144,0.7952 S,0,56505,56600,0.7952,0.8144 S,0,56600,56695,0.8144,0.7952 S,0,57076,57171,0.7952,0.8144 S,0,57171,57266,0.8144,0.7952 S,0,57648,57743,0.7952,0.8144 S,0,57743,57838,0.8144,0.7952 S,0,58219,58314,0.7952,0.8144 S,0,58314,58409,0.8144,0.7952 S,0,58791,58886,0.7952,0.8144 S,0,58886,58981,0.8144,0.7952 S,0,59362,59457,0.7952,0.8144 S,0,59457,59552,0.8144,0.7952 S,0,59933,60028,0.7952,0.8144 S,0,60028,60123,0.8144,0.7952 S,0,60505,60600,0.7952,0.8144 S,0,60600,60695,0.8144,0.7952 S,0,61076,61171,0.7952,0.8144 S,0,61171,61266,0.8144,0.7952 S,0,61648,61743,0.7952,0.8144 S,0,61743,61838,0.8144,0.7952 S,0,62219,62314,0.7952,0.8144 S,0,62314,62409,0.8144,0.7952 S,0,62791,62886,0.7952,0.8144 S,0,62886,62981,0.8144,0.7952 S,0,63362,63457,0.7952,0.8144 S,0,63457,63552,0.8144,0.7952 S,0,63933,64028,0.7952,0.8144 S,0,64028,64123,0.8144,0.7952 S,0,64505,64600,0.7952,0.8144 S,0,64600,64695,0.8144,0.7952 S,0,65076,65171,0.7952,0.8144 S,0,65171,65266,0.8144,0.7952 S,0,65648,65743,0.7952,0.8144 S,0,65743,65838,0.8144,0.7952 S,0,66219,66314,0.7952,0.8144 S,0,66314,66409,0.8144,0.7952 S,0,66791,66886,0.7952,0.8144 S,0,66886,66981,0.8144,0.7952 S,0,67362,67457,0.7952,0.8144 S,0,67457,67552,0.8144,0.7952 S,0,67933,68028,0.7952,0.8144 S,0,68028,68123,0.8144,0.7952 S,0,68505,68600,0.7952,0.8144 S,0,68600,68695,0.8144,0.7952 S,0,69076,69171,0.7952,0.8144 S,0,69171,69266,0.8144,0.7952 S,0,69648,69743,0.7952,0.8144 S,0,69743,69838,0.8144,0.7952 S,0,70219,70314,0.7952,0.8144 S,0,70314,70409,0.8144,0.7952 S,0,70791,70886,0.7952,0.8144 S,0,70886,70981,0.8144,0.7952 S,0,71362,71457,0.7952,0.8144 S,0,71457,71552,0.8144,0.7952 S,0,71933,72028,0.7952,0.8144 S,0,72028,72123,0.8144,0.7952 S,0,72505,72600,0.7952,0.8144 S,0,72600,72695,0.8144,0.7952 S,0,73076,73171,0.7952,0.8144 S,0,73171,73266,0.8144,0.7952 S,0,73648,73743,0.7952,0.8144 S,0,73743,73838,0.8144,0.7952 S,0,74219,74314,0.7952,0.8144 S,0,74314,74409,0.8144,0.7952 S,0,74791,74886,0.7952,0.8144 S,0,74886,74981,0.8144,0.7952 S,0,75362,75457,0.7952,0.8144 S,0,75457,75552,0.8144,0.7952 S,0,75933,76028,0.7952,0.8144 S,0,76028,76123,0.8144,0.7952 S,0,76505,76600,0.7952,0.8144 S,0,76600,76695,0.8144,0.7952 S,0,77076,77171,0.7952,0.8144 S,0,77171,77266,0.8144,0.7952 S,0,77648,77743,0.7952,0.8144 S,0,77743,77838,0.8144,0.7952 S,0,78219,78314,0.7952,0.8144 S,0,78314,78409,0.8144,0.7952 S,0,78791,78886,0.7952,0.8144 S,0,78886,78981,0.8144,0.7952 S,0,79362,79457,0.7952,0.8144 S,0,79457,79552,0.8144,0.7952 S,0,79933,80028,0.7952,0.8144 S,0,80028,80123,0.8144,0.7952 S,0,80505,80600,0.7952,0.8144 S,0,80600,80695,0.8144,0.7952 S,0,81076,81171,0.7952,0.8144 S,0,81171,81266,0.8144,0.7952 S,0,81648,81743,0.7952,0.8144 S,0,81743,81838,0.8144,0.7952 S,0,82219,82314,0.7952,0.8144 S,0,82314,82409,0.8144,0.7952 S,0,82791,82886,0.7952,0.8144 S,0,82886,82981,0.8144,0.7952 S,0,83362,83457,0.7952,0.8144 S,0,83457,83552,0.8144,0.7952 S,0,83933,84028,0.7952,0.8144 S,0,84028,84123,0.8144,0.7952 S,0,84505,84600,0.7952,0.8144 S,0,84600,84695,0.8144,0.7952 S,0,85076,85171,0.7952,0.8144 S,0,85171,85266,0.8144,0.7952 S,0,85648,85743,0.7952,0.8144 S,0,85743,85838,0.8144,0.7952 S,0,86219,86314,0.7952,0.8144 S,0,86314,86409,0.8144,0.7952 S,0,86791,86886,0.7952,0.8144 S,0,86886,86981,0.8144,0.7952 S,0,87362,87457,0.7952,0.8144 S,0,87457,87552,0.8144,0.7952 S,0,87933,88028,0.7952,0.8144 S,0,88028,88123,0.8144,0.7952 S,0,88505,88600,0.7952,0.8144 S,0,88600,88695,0.8144,0.7952 S,0,89076,89171,0.7952,0.8144 S,0,89171,89266,0.8144,0.7952 S,0,89648,89743,0.7952,0.8144 S,0,89743,89838,0.8144,0.7952 S,0,90219,90314,0.7952,0.8144 S,0,90314,90409,0.8144,0.7952 S,0,90791,90886,0.7952,0.8144 S,0,90886,90981,0.8144,0.7952 S,0,91362,91457,0.7952,0.8144 S,0,91457,91552,0.8144,0.7952 S,0,91933,92028,0.7952,0.8144 S,0,92028,92123,0.8144,0.7952 S,0,92505,92600,0.7952,0.8144 S,0,92600,92695,0.8144,0.7952 S,0,93076,93171,0.7952,0.8144 S,0,93171,93266,0.8144,0.7952 S,0,93648,93743,0.7952,0.8144 S,0,93743,93838,0.8144,0.7952 S,0,94219,94314,0.7952,0.8144 S,0,94314,94409,0.8144,0.7952 S,0,94791,94886,0.7952,0.8144 S,0,94886,94981,0.8144,0.7952 S,0,95362,95457,0.7952,0.8144 S,0,95457,95552,0.8144,0.7952 S,0,95933,96028,0.7952,0.8144 S,0,96028,96123,0.8144,0.7952 S,0,96505,96600,0.7952,0.8144 S,0,96600,96695,0.8144,0.7952 S,0,97076,97171,0.7952,0.8144 S,0,97171,97266,0.8144,0.7952 S,0,97648,97743,0.7952,0.8144 S,0,97743,97838,0.8144,0.7952 S,0,98219,98314,0.7952,0.8144 S,0,98314,98409,0.8144,0.7952 S,0,98791,98886,0.7952,0.8144 S,0,98886,98981,0.8144,0.7952 S,0,99362,99457,0.7952,0.8144 S,0,99457,99552,0.8144,0.7952 S,0,99934,100029,0.7952,0.8144 S,0,100029,100124,0.8144,0.7952 S,0,100505,100600,0.7952,0.8144 S,0,100600,100695,0.8144,0.7952 S,0,101076,101171,0.7952,0.8144 S,0,101171,101266,0.8144,0.7952 S,0,101648,101743,0.7952,0.8144 S,0,101743,101838,0.8144,0.7952 S,0,102219,102314,0.7952,0.8144 S,0,102314,102409,0.8144,0.7952 S,0,102791,102886,0.7952,0.8144 S,0,102886,102981,0.8144,0.7952 S,0,103362,103457,0.7952,0.8144 S,0,103457,103552,0.8144,0.7952 S,0,103934,104029,0.7952,0.8144 S,0,104029,104124,0.8144,0.7952 S,0,104505,104600,0.7952,0.8144 S,0,104600,104695,0.8144,0.7952 S,0,105076,105171,0.7952,0.8144 S,0,105171,105266,0.8144,0.7952 S,0,105648,105743,0.7952,0.8144 S,0,105743,105838,0.8144,0.7952 S,0,106219,106314,0.7952,0.8144 S,0,106314,106409,0.8144,0.7952 S,0,106791,106886,0.7952,0.8144 S,0,106886,106981,0.8144,0.7952 S,0,107362,107457,0.7952,0.8144 S,0,107457,107552,0.8144,0.7952 S,0,107934,108029,0.7952,0.8144 S,0,108029,108124,0.8144,0.7952 S,0,108505,108600,0.7952,0.8144 S,0,108600,108695,0.8144,0.7952 S,0,109076,109171,0.7952,0.8144 S,0,109171,109266,0.8144,0.7952 S,0,109648,109743,0.7952,0.8144 S,0,109743,109838,0.8144,0.7952 S,0,110219,110314,0.7952,0.8144 S,0,110314,110409,0.8144,0.7952 S,0,110791,110886,0.7952,0.8144 S,0,110886,110981,0.8144,0.7952 S,0,111362,111457,0.7952,0.8144 S,0,111457,111552,0.8144,0.7952 S,0,111934,112029,0.7952,0.8144 S,0,112029,112124,0.8144,0.7952 S,0,112505,112600,0.7952,0.8144 S,0,112600,112695,0.8144,0.7952 S,0,113076,113171,0.7952,0.8144 S,0,113171,113266,0.8144,0.7952 S,0,113648,113743,0.7952,0.8144 S,0,113743,113838,0.8144,0.7952 S,0,114219,114314,0.7952,0.8144 S,0,114314,114409,0.8144,0.7952 S,0,114791,114886,0.7952,0.8144 S,0,114886,114981,0.8144,0.7952 S,0,115362,115457,0.7952,0.8144 S,0,115457,115552,0.8144,0.7952 S,0,115934,116029,0.7952,0.8144 S,0,116029,116124,0.8144,0.7952 S,0,116505,116600,0.7952,0.8144 S,0,116600,116695,0.8144,0.7952 S,0,117076,117171,0.7952,0.8144 S,0,117171,117266,0.8144,0.7952 S,0,117648,117743,0.7952,0.8144 S,0,117743,117838,0.8144,0.7952 S,0,118219,118314,0.7952,0.8144 S,0,118314,118409,0.8144,0.7952 S,0,118791,118886,0.7952,0.8144 S,0,118886,118981,0.8144,0.7952 S,0,119362,119457,0.7952,0.8144 S,0,119457,119552,0.8144,0.7952 F,0,119743,120029,1,0 S,0,119934,120029,0.7952,0.8144 S,0,120029,,0.8144
//Storyboard Layer 1 (Fail)
//Storyboard Layer 2 (Pass)
//Storyboard Layer 3 (Foreground)
//Storyboard Sound Samples
//Background Colour Transformations
3,100,0,0,0

[TimingPoints]
1172,285.714285714286,4,1,1,100,1,0
45172,-100,4,1,1,100,0,0
45648,-100,4,1,1,100,0,0
83457,-100,4,1,1,100,0,1
120314,-100,4,2,1,100,0,0

[Colours]
Combo1 : 49,112,37
Combo2 : 175,35,46
Combo3 : 223,217,217

[HitObjects]
256,208,26314,12,0,28600
224,168,28886,6,0,B|176:240|240:312,2,140,0|2|0
288,208,29743,1,0
288,208,30029,2,0,B|336:136|272:64,2,140,0|2|0
176,240,30886,6,0,B|32:240,1,140,4|0
112,336,31457,2,0,B|256:336,1,140,2|0
288,272,31933,1,0
288,272,32029,2,0,B|352:240|400:288|400:352,2,140,0|0|2
208,192,32886,6,0,B|144:128|224:48,1,140,0|4
304,192,33457,2,0,B|368:256|288:336,1,140,0|2
192,304,34029,1,0
208,192,34314,2,0,B|360:192,2,140,0|0|2
128,112,35172,1,0
208,32,35457,6,0,B|304:32,1,93.3333333333333,4|0
336,32,35743,1,0
256,112,36029,2,0,B|176:160|224:240,1,140,2|0
272,288,36505,1,0
272,288,36600,2,0,B|352:240|304:160,1,140
256,112,37076,1,0
256,112,37172,1,2
160,160,37457,1,0
64,96,37743,6,0,B|24:176|88:232,1,140,4|0
184,264,38314,2,0,B|224:184|160:128,1,140,2|0
56,296,38791,1,0
56,296,38886,2,0,B|80:376|176:344,1,140
272,304,39457,5,2
256,192,39743,1,0
360,144,40029,1,4
424,232,40314,1,0
376,336,40600,1,2
376,336,40791,2,0,B|208:336,1,140
200,336,41172,1,0
120,256,41457,6,0,B|264:256,1,140,0|2
392,88,42029,1,0
392,88,42314,2,0,B|248:88,1,140,4|0
144,128,42886,2,0,B|208:280|304:96|352:288,1,280,2|0
264,344,43743,5,0
184,272,44029,1,2
232,168,44314,1,0
336,208,44600,1,4
280,256,44791,1,2
280,256,44886,2,0,B|136:256,1,140,0|2
64,104,45648,6,0,B|216:104,1,140,6|0
204,104,46029,1,2
416,192,46314,2,0,B|304:192,1,93.3333333333333,0|0
322,192,46600,1,2
256,312,46886,1,4
144,224,47172,6,0,B|96:296|160:360,2,140,0|2|0
88,176,47933,1,0
88,176,48029,2,0,B|136:104|72:40,2,140,0|0|2
200,200,48886,1,0
136,288,49172,6,0,B|192:352|288:296,1,140
400,248,49743,2,0,B|344:184|248:240,1,140,2|0
200,200,50219,1,0
200,200,50314,2,0,B|152:136|248:136|168:40,2,140,0|0|2
88,208,51172,1,0
144,304,51457,6,0,B|178:381|258:357,2,140,4|0|2
248,256,52314,1,0
272,184,52505,1,0
272,184,52600,2,0,B|306:106|386:130,2,140,0|0|2
344,264,53457,1,0
264,336,53743,5,4
200,296,53933,1,0
200,296,54029,2,0,B|144:232|192:144,1,140,0|2
240,72,54600,1,0
312,88,54791,1,0
312,88,54887,2,0,B|368:152|320:240,1,140
296,288,55362,1,0
296,288,55457,1,2
384,352,55743,1,0
392,240,56029,6,0,B|328:88|232:272|184:80,1,280,4|2
80,80,56886,1,0
32,184,57172,1,0
104,272,57457,1,0
208,224,57743,1,2
192,112,58029,6,0,B|336:112,2,140,0|4|0
336,232,58886,1,2
336,232,59076,2,0,B|336:320|240:336,1,140
224,344,59457,1,0
176,288,59648,1,0
152,256,59743,1,2
88,160,60029,2,0,B|40:96|88:24,1,140,2|2
168,104,60600,6,0,B|312:104|208:280|376:280,1,280,4|2
448,216,61457,1,0
448,216,61743,2,0,B|496:280|448:352,1,140,0|2
368,280,62314,2,0,B|320:216|368:144,1,140,2|2
424,56,62886,6,0,B|320:56,1,93.3333333333333,4|0
296,56,63172,1,2
184,56,63457,1,2
104,224,63933,2,0,B|248:224,1,140,6|0
280,224,64314,1,2
208,304,64600,5,2
176,90,64886,1,0
383,173,65172,1,4
432,272,65457,6,0,B|432:344,2,70
360,272,65933,2,0,B|272:248|352:200|256:144,1,140
200,240,66504,1,0
200,240,66600,2,0,B|128:272|160:368,1,140
80,192,67171,5,2
432,192,67457,1,4
432,80,67743,6,0,B|432:8,2,70
360,96,68219,2,0,B|320:160|352:240,2,140
360,96,68885,1,0
256,48,69171,1,0
432,192,69457,5,2
80,192,69743,1,4
80,80,70028,6,0,B|80:8,2,70
152,112,70504,2,0,B|216:56|304:136,2,140
160,144,71172,2,0,B|176:288,1,140,0|0
352,240,71743,2,0,B|336:96,1,140,2|4
336,100,72457,1,0
176,312,72886,5,0
176,312,73172,2,0,B|280:312,1,93.3333333333333,4|0
328,256,73457,2,0,B|224:256,1,93.3333333333333
234,256,73743,1,0
280,152,74029,1,0
384,184,74314,6,0,B|440:256|368:344,2,140,4|0|2
280,152,75172,1,0
184,200,75457,2,0,B|128:128|200:40,2,140,0|0|2
256,280,76314,1,0
352,216,76600,6,0,B|408:288|336:376,2,140,0|0|2
424,184,77362,1,0
376,80,77648,1,0
376,80,77743,1,0
280,136,78029,1,0
192,72,78314,1,2
120,192,78600,1,0
184,320,78886,6,0,B|320:256,1,140,4|0
352,320,79362,1,0
352,320,79743,1,0
352,192,80029,6,0,B|216:128,1,140,4|0
184,192,80505,1,0
184,192,80886,1,0
256,208,81172,12,0,83172
344,48,83457,6,4,B|400:80|384:144,1,93.3333333333333,4|0
368,160,83743,1,8
280,112,83933,1,0
280,112,84029,2,0,B|224:144|240:208,1,93.3333333333333,2|0
280,216,84315,1,8
184,248,84505,1,0
176,56,84791,1,0
176,56,84886,1,8
368,160,85172,1,2
56,264,85457,1,8
176,344,85743,6,0,B|320:344,1,140,4|8
264,264,86219,1,0
264,264,86314,2,0,B|208:216|264:144,1,93.3333333333333,2|0
256,144,86600,2,0,B|384:184,1,93.3333333333333,8|0
344,312,87076,1,0
344,312,87172,1,8
176,208,87457,1,2
336,80,87743,1,8
64,120,88029,6,0,B|88:32|208:40,1,140,4|8
256,152,88600,1,2
256,296,88886,1,8
256,152,89172,1,0
368,320,89457,2,0,B|432:264|392:184,2,140,8|2|8
256,232,90314,2,0,B|208:152|112:192,1,140,4|8
80,312,90886,1,2
80,312,91076,2,0,B|256:312,1,140,0|4
396,232,91648,1,0
396,232,91743,2,0,B|252:232,1,140,8|2
360,320,92314,5,8
448,208,92600,2,0,B|488:136|432:64,2,140,4|8|2
312,168,93457,1,8
184,120,93743,2,0,B|144:192|200:264,2,140,0|8|2
272,232,94600,1,8
192,352,94886,6,0,B|104:352|80:256,1,140,4|8
48,144,95457,1,2
48,144,95648,2,0,B|200:144,1,140
304,224,96219,1,0
304,224,96314,2,0,B|360:168|320:80,2,140,8|2|8
184,304,97172,5,4
264,352,97362,1,0
264,352,97457,2,0,B|416:352,1,140,8|2
352,128,98219,1,4
216,160,98505,1,2
312,264,98791,1,0
312,264,98886,1,0
352,128,99172,1,2
256,208,99457,12,0,101457
305,302,101743,6,0,B|353:278|345:206,1,93.3333333333333,4|0
329,190,102029,1,8
241,222,102219,1,0
223,188,102315,2,0,B|217:134|265:110,1,93.3333333333333,2|0
297,94,102600,1,8
361,158,102791,2,0,B|393:246|273:294,1,140
281,294,103172,1,8
145,270,103457,1,2
129,134,103743,1,8
257,182,104029,6,0,B|193:246|257:310,1,140,4|8
393,222,104505,1,0
393,222,104600,2,0,B|441:174|393:110,1,93.3333333333333,2|0
185,62,105076,2,0,B|121:118|161:206,1,140
225,326,105457,2,0,B|289:270|249:182,1,140,8|2
256,200,106029,1,8
368,280,106314,1,4
440,160,106600,6,0,B|440:16,1,140,0|2
320,96,107172,2,0,B|320:240,1,140,8|0
408,344,107743,1,8
400,248,107933,1,0
400,248,108029,2,0,B|336:176|248:232,1,140,2|8
144,272,108600,6,0,B|208:344|296:288,1,140,0|8
328,176,109172,1,2
328,176,109362,2,0,B|160:176,1,140,0|4
56,312,109933,1,0
56,312,110029,2,0,B|232:312,1,140,8|2
196,312,110600,1,8
280,200,110886,6,0,B|256:288|336:328,2,140,4|8|2
144,160,111743,1,8
144,160,112029,2,0,B|168:72|88:32,2,140,0|8|2
88,288,112886,1,8
88,288,113172,6,0,B|248:288,1,140,4|8
328,192,113743,1,2
328,192,113933,2,0,B|176:192,2,140
376,192,114600,2,0,B|416:280|336:336,1,140,8|2
232,256,115172,1,8
128,352,115457,6,0,B|48:328|48:224,2,140,4|8|2
232,256,116314,1,8
256,120,116600,2,0,B|336:144|336:248,2,140,0|0|2
256,120,117457,1,8
128,72,117743,5,4
128,72,118029,1,10
128,72,118314,1,2
136,304,118791,6,0,B|296:256,1,140,2|0
272,304,119172,2,0,B|368:272,1,93.3333333333333,8|0
392,256,119457,1,2
432,192,119648,1,0
464,176,119743,2,0,B|450:90|361:92,1,140,8|4
