osu file format v5

[General]
AudioFilename: Rina Satou - Kokoro no Tsubasa.mp3
AudioLeadIn: 2000
PreviewTime: 36789
Countdown: 0
SampleSet: Soft
StackLeniency: 0.7
Mode: 0
LetterboxInBreaks: 1
EditorBookmarks: 8152,15425,29970,44516,59061,73607

[Metadata]
Title:Kokoro no Tsubasa (TV Size)
Artist:Rina Satou
Creator:Dangaard
Version:Normal
Source:Minami-ke Okawari
Tags:Minami ke Okawari Anime OP opening

[Difficulty]
HPDrainRate:3
CircleSize:4
OverallDifficulty:5
SliderMultiplier:1.4
SliderTickRate:1

[Events]
//Background and Video events
0,0,"Okawari.jpg"
1,0,"Minami-ke Okawari.AVI"
//Break Periods
//Storyboard Layer 0 (Background)
//Storyboard Layer 1 (Failing)
//Storyboard Layer 2 (Passing)
//Storyboard Layer 3 (Foreground)
//Storyboard Sound Samples
//Background Colour Transformations
3,100,0,0,0

[TimingPoints]
880,454.545454545455,4,2,0,100,1
4175,-100,4,2,0,0,0
6447,-100,4,1,1,100,0
28152,-100,4,2,0,100,0
29174,-100,4,1,1,100,0
52016,-100,4,2,0,100,0
58720,-100,4,1,1,100,0
66561,-100,4,2,0,100,0
73266,-100,4,1,1,100,0
81107,-100,4,2,0,100,0
84175,-100,4,1,1,100,0

[Colours]
Combo1 : 60,30,0
Combo2 : 255,128,0
Combo3 : 255,0,0

[HitObjects]
72,352,652,1,0
128,352,880,2,2,B|128:136,1,210,2|0
128,88,1789,2,0,B|24:40,2,105,2|0|0
184,88,2698,2,2,B|296:24|408:104,1,210,2|0
384,144,3607,2,0,B|384:280,1,105,2|0
256,192,4289,12,0,6334
256,192,7243,5,4
104,24,8152,5,2
160,24,8380,1,0
216,24,8607,1,8
272,24,8834,1,4
480,96,9743,6,0,B|480:16,2,70,2|0|0
480,152,10425,1,8
424,152,10652,1,0
424,264,11107,2,0,B|424:360,2,70,2|8|4
312,264,12016,6,0,B|360:264,2,35,2|0|8
256,264,12470,1,0
200,264,12698,2,0,B|152:264,2,35,2|0|0
256,48,13834,5,0
256,128,14175,1,0
256,208,14516,1,4
128,320,15198,6,0,B|80:320,2,35,0|0|0
128,208,15880,1,2
208,208,16220,1,0
208,128,16561,2,0,B|104:128,1,70,2|2
24,128,17243,1,0
24,240,17698,2,0,B|80:296,1,70,2|0
73,289,18039,1,0
248,192,18834,5,0
192,192,19061,1,0
136,192,19289,1,0
192,96,19743,5,0
248,96,19970,1,0
304,96,20198,1,0
304,40,20425,1,2
416,40,20880,2,0,B|536:184|400:304,1,280,0|4
256,344,22470,6,0,B|312:344,2,35
256,232,23152,2,0,B|256:112,1,105,2|0
256,48,23834,1,2
200,48,24061,1,2
200,104,24289,1,0
200,160,24516,1,0
200,240,24857,2,0,B|144:264|72:232,1,105,2|0
97,241,25425,1,2
224,352,26107,5,0
224,296,26334,2,2,B|224:152,1,140,2|0
336,160,27243,2,2,L|376:200|488:200,1,140,2|0
464,144,27925,2,2,L|400:88|120:88,1,350,2|4
80,88,29289,5,8
80,144,29516,1,8
136,144,29743,1,0
136,200,29970,1,2
24,200,30425,2,0,B|24:280,1,70,8|0
24,270,30766,1,2
24,352,31107,5,0
80,352,31334,1,8
80,296,31561,2,2,L|136:296|216:368,1,140,2|4
200,128,32925,6,0,B|144:48,1,70,0|8
216,72,33380,2,0,B|268:146,1,70,0|2
320,216,34061,1,8
432,216,34516,1,2
432,328,34970,1,8
376,328,35198,2,2,L|176:328|176:264|264:208,1,350,2|4
392,128,37016,5,0
336,128,37243,2,2,B|240:64|120:136,1,210,2|0
136,184,38152,2,0,B|136:312,1,105,2|0
64,240,38834,1,0
64,184,39061,2,0,B|64:72,2,105,2|0|0
120,184,39970,1,2
120,72,40425,6,0,B|192:16|264:88,1,140,0|2
248,240,41561,1,0
192,240,41789,2,2,L|88:240|120:328|208:328,1,280,2|0
256,328,42925,1,0
256,272,43152,1,8
312,264,43380,2,0,B|312:200,1,35,0|2
368,224,43720,2,0,B|416:160|344:104,1,105,8|12
464,64,44516,5,2
464,120,44743,1,0
464,176,44970,1,8
464,232,45198,2,0,B|408:288,1,70,0|2
414,281,45539,2,0,B|318:281,1,70,0|8
344,200,46107,5,0
344,144,46334,1,2
288,144,46561,1,0
232,144,46789,1,8
232,88,47016,2,0,B|152:32,1,70,0|2
174,47,47357,2,0,B|94:47,1,70,0|8
104,184,48152,5,2
104,184,48266,1,0
48,184,48493,2,0,B|0:240|72:304,1,105,8|0
104,280,49061,1,2
104,280,49175,2,0,B|192:280,1,70,0|8
232,224,49743,1,8
176,224,49970,2,0,B|176:112,2,105,2|8|0
176,280,50880,2,0,B|240:328|336:264,1,140,2|12
424,88,52243,5,2
424,200,52698,2,0,B|520:200,2,70,0|0|2
424,144,53380,1,0
368,144,53607,1,0
288,144,53948,1,2
288,64,54289,2,0,L|192:64|120:120|120:152,1,210,0|8
160,184,55198,5,0
120,224,55425,2,0,B|-8:224,2,105,2|8|0
160,264,56334,2,0,B|288:264,2,105,2|8|0
120,304,57243,1,2
40,304,57584,1,8
40,224,57925,1,0
40,224,58152,1,6
112,64,58834,6,0,B|40:64,2,70,0|2|0
168,64,59516,2,0,B|232:128|144:216,1,140,8|2
167,189,60084,2,0,B|240:248,1,70,0|8
304,232,60652,6,0,B|296:160,2,70,0|2|0
304,288,61334,2,0,B|384:344|448:272,1,140,8|2
432,287,61902,2,0,B|424:216,1,70,0|8
424,80,62698,5,2
424,80,62811,1,0
368,80,63039,2,0,B|328:136|376:184,1,105,8|0
424,176,63607,1,2
424,176,63720,2,0,L|472:264,1,70,0|8
456,320,64289,1,8
400,320,64516,2,0,B|288:320,2,105,2|8|0
400,264,65426,2,0,B|336:136,1,140,2|12
136,40,66789,5,2
248,40,67243,1,0
192,40,67470,1,0
192,96,67698,1,2
192,152,67925,2,0,B|120:184,1,70
128,264,68494,1,2
208,264,68834,2,0,L|416:172,1,210,0|8
456,176,69743,6,0,B|456:112,2,35,0|0|2
456,232,70198,1,0
456,288,70425,1,8
360,344,70880,2,0,B|360:296,1,35,2|0
360,256,71220,1,8
256,152,71789,1,2
256,232,72130,1,8
256,312,72470,1,0
256,312,72698,1,6
120,152,73380,6,0,B|120:208,2,35,0|0|2
264,152,74061,2,0,B|176:152,2,70,8|0|2
304,152,74630,1,0
304,152,74857,1,8
368,232,75198,6,0,B|368:288,2,35,0|0|2
224,232,75879,2,0,B|312:232,2,70,8|0|2
184,232,76448,1,0
184,232,76675,1,8
88,336,77243,6,0,B|88:272,1,35,2|0
88,248,77584,1,8
168,248,77925,2,0,B|168:152,1,70,0|2
168,178,78266,1,0
168,178,78493,1,8
248,176,78834,1,8
248,176,79061,1,2
328,176,79402,1,8
408,176,79743,1,0
408,176,79970,2,2,L|360:112|176:112|168:128,1,280,2|4
168,240,81334,5,2
280,240,81789,1,0
280,184,82016,2,0,B|208:120,1,70,0|2
280,120,82470,2,0,B|352:184,1,70,0|0
416,168,83039,1,2
416,248,83380,2,0,L|368:304|224:304,1,210,0|4
176,304,84289,5,0
176,248,84516,1,2
176,168,84857,1,0
104,200,85198,1,0
104,256,85425,1,2
104,336,85766,1,0
176,304,86107,5,0
232,304,86334,1,2
312,304,86675,1,0
280,232,87016,1,0
224,232,87243,1,2
144,232,87584,1,0
144,152,87925,1,6
