osu file format v5

[General]
AudioFilename: Rina Satou - Kokoro no Tsubasa.mp3
AudioLeadIn: 2000
PreviewTime: 36789
Countdown: 0
SampleSet: Normal
StackLeniency: 0.7
Mode: 0
LetterboxInBreaks: 1
EditorBookmarks: 8152,15425,29970,44516,59061,73607

[Metadata]
Title:Kokoro no Tsubasa (TV Size)
Artist:Rina Satou
Creator:Dangaard
Version:Hard
Source:Minami-ke Okawari
Tags:Minami ke Okawari Anime OP opening

[Difficulty]
HPDrainRate:5
CircleSize:5
OverallDifficulty:7
SliderMultiplier:1.4
SliderTickRate:1

[Events]
//Background and Video events
0,0,"Okawari.jpg"
1,0,"Minami-ke Okawari.AVI"
//Break Periods
//Storyboard Layer 0 (Background)
//Storyboard Layer 1 (Failing)
//Storyboard Layer 2 (Passing)
//Storyboard Layer 3 (Foreground)
//Storyboard Sound Samples
//Background Colour Transformations
3,100,0,0,0

[TimingPoints]
880,454.545454545455,4,2,0,100,1
4175,-100,4,2,0,0,0
6447,-100,4,1,1,100,0
28152,-100,4,2,0,100,0
29174,-100,4,1,1,100,0
52016,-100,4,2,0,100,0
58720,-100,4,1,1,100,0
66561,-100,4,2,0,100,0
73266,-100,4,1,1,100,0
81107,-100,4,2,0,100,0
84175,-100,4,1,1,100,0

[Colours]
Combo1 : 60,30,0
Combo2 : 255,128,0
Combo3 : 255,0,0

[HitObjects]
120,96,652,1,0
176,96,880,2,0,B|312:96,1,105,2|0
392,192,1561,1,0
336,192,1789,2,0,B|200:192,1,105,2|0
192,288,2357,5,0
192,288,2470,1,0
248,288,2698,1,2
392,288,3039,2,0,B|352:232|408:168,1,105
448,192,3607,1,2
448,40,3948,1,0
256,192,4289,12,0,6334
256,192,7243,5,4
376,32,8152,5,2
320,32,8380,1,0
264,32,8607,1,8
208,32,8834,1,0
208,32,8948,1,0
208,104,9175,6,0,B|208:176,1,70,8|0
208,174,9516,1,8
152,256,9743,6,0,B|152:304,2,35,0|0|2
152,200,10198,1,0
152,144,10425,1,8
208,144,10652,1,0
208,144,10766,1,0
304,144,10993,5,8
304,144,11107,2,0,B|304:48,2,70,0|8|4
256,336,12016,6,0,B|256:392,8,35,2|0|8|0|0|0|2|8|0
256,240,13152,1,8
256,144,13380,1,0
256,144,13493,1,0
368,240,13834,5,0
464,240,14061,1,8
464,240,14175,1,0
464,144,14402,1,0
464,144,14516,2,0,B|512:144,2,35,0|2|8
464,48,14970,1,12
336,48,15198,5,0
336,48,15311,1,0
336,48,15425,1,0
320,104,15652,2,0,B|232:104,1,70,0|2
192,104,16107,1,0
192,104,16220,1,0
96,104,16448,5,0
96,104,16561,2,0,L|16:160,1,70,2|2
40,240,17016,1,0
136,240,17243,1,0
136,144,17470,1,0
40,144,17698,1,2
40,240,17925,1,0
40,240,18039,1,0
80,328,18266,5,8
136,328,18493,1,0
136,328,18607,1,8
200,256,18834,5,0
296,256,19061,1,0
392,256,19289,1,0
256,88,19630,1,0
256,88,19743,2,0,B|240:168,1,70,0|0
312,88,20198,2,0,B|328:8,1,70,0|2
312,296,20880,1,4
480,192,21334,5,8
480,40,21675,2,0,B|384:40,1,70,2|8
410,40,22016,2,0,B|376:8|312:32,1,70,0|8
256,112,22470,5,0
256,112,22584,1,0
256,112,22698,1,0
312,112,22925,2,0,B|312:200,2,70,0|2|0
312,112,23493,1,0
256,32,23720,5,0
256,32,23834,2,0,B|184:32,1,70,2|2
88,32,24289,2,0,B|56:120,1,70
64,96,24630,1,0
64,192,24857,1,2
208,192,25198,1,0
208,96,25425,2,2,B|304:32|392:112,1,175,2|0
370,95,26107,5,0
464,96,26334,1,2
464,336,26789,1,0
224,336,27243,1,2
224,96,27698,1,0
224,96,27925,1,6
328,184,28380,6,0,B|328:128,5,35,2|0|8|2|0|8
296,144,29061,2,0,B|296:224,2,70,2|8|8
152,144,29743,1,0
152,144,29970,1,2
72,320,30425,2,0,B|72:232,1,70,8|0
72,250,30766,1,2
152,192,30993,5,0
152,192,31107,1,0
152,248,31334,1,8
208,248,31561,1,2
400,248,32016,2,0,B|368:208|416:160,1,70,2|8
397,183,32357,2,0,B|344:120,1,70,0|8
256,32,32811,5,0
256,32,32925,2,0,B|256:128,1,70,0|8
200,184,33380,2,0,B|200:80,1,70,0|2
16,184,34061,1,8
16,328,34402,1,2
112,328,34630,1,0
112,328,34743,1,0
112,232,34970,1,8
208,232,35198,1,6
128,56,35652,6,0,B|216:104,1,70,2|8
272,136,36107,1,0
272,136,36220,2,0,B|328:80,1,70,2|8
321,86,36561,2,0,B|368:72|408:112,1,70,0|8
408,192,37016,5,0
352,192,37243,2,0,B|248:192,1,70,2|0
282,192,37584,1,0
176,296,37925,1,0
232,296,38152,2,0,B|336:296,1,70,2|0
302,296,38493,1,0
192,192,38834,5,0
136,192,39061,1,2
136,136,39289,1,0
136,136,39402,1,0
80,272,39743,1,0
136,272,39970,1,6
384,136,40425,5,0
384,136,40880,2,2,B|384:224|464:224|464:328,1,210,2|0
463,324,41789,1,4
424,48,42698,6,0,B|488:48,2,35,0|2|0
368,48,43152,1,8
368,104,43380,1,0
368,104,43493,1,2
312,104,43720,1,8
256,104,43948,1,0
256,104,44061,1,12
144,48,44289,5,0
144,120,44516,2,0,B|64:120,1,70,2|0
72,192,44970,1,8
72,264,45198,2,0,B|96:304|160:304,1,70,0|2
128,301,45539,2,0,B|176:240,1,70,0|8
256,128,46107,6,0,B|312:128,2,35,0|0|2
256,200,46561,1,0
328,200,46789,2,0,B|416:200,1,70,8|0
400,128,47243,1,2
400,128,47357,1,0
328,128,47584,1,8
328,200,47811,1,2
328,200,47925,1,8
256,272,48152,5,2
256,272,48266,1,0
184,272,48493,2,0,B|152:216|192:160,1,105,8|0
256,176,49061,1,2
256,176,49175,1,0
256,104,49402,1,8
328,104,49630,5,0
328,104,49743,1,8
328,32,49970,1,2
240,184,50311,1,8
416,184,50652,1,0
328,104,50880,1,6
64,320,51334,6,0,B|64:376,2,35,0|8|0
120,320,51789,1,2
360,320,52243,6,0,B|192:320,1,140,2|0
144,256,52925,2,0,B|160:168,1,70,0|2
224,120,53380,2,0,B|210:201,1,70,0|0
360,192,53948,1,2
304,56,54289,2,0,B|280:184,1,105,0|8
284,159,54743,1,0
264,256,54970,1,8
264,256,55084,1,0
264,256,55198,5,0
264,352,55425,2,0,B|384:352,1,105,2|0
369,352,55880,1,8
369,352,56107,1,0
368,256,56334,2,0,B|480:184,1,105,2|0
456,199,56789,1,8
456,199,57016,5,0
456,104,57243,1,2
456,104,57357,1,0
360,104,57584,1,8
248,200,57925,1,0
248,104,58152,1,2
248,104,58266,1,8
248,104,58380,1,0
152,104,58607,1,12
152,280,58834,6,0,B|152:328,2,35,0|0|2
80,280,59289,1,0
80,208,59516,2,0,B|16:160,1,70,8|0
24,96,59970,1,2
24,96,60084,1,0
96,96,60311,1,8
240,96,60652,6,0,B|240:48,2,35,0|0|2
168,96,61107,1,0
168,168,61334,2,0,B|248:224,1,70,8|0
224,280,61788,1,2
224,280,61902,1,0
296,280,62129,1,8
296,352,62357,1,2
296,352,62470,1,8
392,352,62698,5,2
392,352,62811,1,0
464,352,63039,2,0,B|496:296|456:240,1,105,8|0
392,248,63606,1,2
392,248,63720,1,0
392,176,63948,1,8
464,176,64175,5,0
464,176,64289,1,8
464,104,64516,1,2
312,16,64857,1,8
312,192,65198,1,0
392,104,65426,1,6
88,24,65880,6,0,B|32:24,2,35,0|8|0
88,80,66334,1,2
88,320,66789,6,0,B|88:168,1,140,2|0
184,160,67470,2,0,B|264:112,2,70,0|2|0
184,256,68152,2,0,B|184:368,1,105,0|2
288,256,68834,2,0,B|328:200|280:152,1,105,0|8
287,159,69289,2,0,B|336:88,1,70,0|8
400,160,69743,6,0,B|336:160,2,35,0|0|2
400,232,70198,1,0
328,232,70425,2,0,B|360:312,2,70,8|0|2
328,232,70993,2,0,B|256:232,1,70,0|8
256,80,71561,5,0
256,176,71789,1,2
256,176,71902,1,0
160,176,72130,1,8
48,272,72470,1,0
48,176,72698,2,0,B|-8:176,2,35,2|8|0
48,80,73152,1,12
176,32,73380,5,0
176,32,73493,1,0
176,32,73607,1,2
176,104,73835,1,0
248,104,74062,2,0,B|264:144|240:192,1,70,8|0
176,176,74516,1,2
176,176,74630,1,0
176,104,74857,1,8
320,104,75198,5,0
320,104,75311,1,0
320,104,75425,1,2
392,104,75653,1,0
392,176,75880,2,0,B|432:192|480:168,1,70,8|0
464,104,76334,1,2
464,104,76448,1,0
392,104,76675,1,8
392,176,76902,1,2
392,176,77016,1,8
392,272,77243,5,2
392,272,77357,1,0
488,272,77584,2,0,B|488:160,1,105,8|0
488,72,78152,1,2
488,72,78266,1,0
488,168,78493,1,8
392,168,78720,5,0
392,168,78834,1,8
392,72,79061,1,2
392,248,79402,1,8
216,248,79743,1,0
216,128,79970,1,6
88,248,80311,6,0,B|56:288,2,35,2|0|8
88,248,80652,2,0,B|88:160,1,70,0|2
280,32,81334,6,0,B|240:112|296:192,1,140,2|0
352,168,82016,1,0
352,240,82243,1,2
352,312,82470,1,0
280,312,82698,1,0
424,312,83039,2,0,B|472:256|400:192,1,105,2|4
272,216,83720,1,8
272,216,83834,1,0
272,144,84061,1,8
256,24,84289,5,0
216,64,84516,2,0,B|136:144,1,105,2|0
256,224,85198,1,0
296,184,85425,2,0,B|376:104,1,105,2|0
384,208,85993,5,0
384,208,86107,1,0
344,248,86334,1,2
200,280,86675,2,0,B|104:184,1,105,0|0
56,80,87243,1,2
256,16,87584,1,0
456,80,87925,1,6
