osu file format v5

[General]
AudioFilename: Rina Satou - Kokoro no Tsubasa.mp3
AudioLeadIn: 2000
PreviewTime: 36789
Countdown: 0
SampleSet: Soft
StackLeniency: 0.7
Mode: 0
LetterboxInBreaks: 1
EditorBookmarks: 8152,15425,29970,44516,59061,73607

[Metadata]
Title:Kokoro no Tsubasa (TV Size)
Artist:Rina Satou
Creator:Dangaard
Version:Easy
Source:Minami-ke Okawari
Tags:Minami ke Okawari Anime OP opening

[Difficulty]
HPDrainRate:2
CircleSize:3
OverallDifficulty:3
SliderMultiplier:1.2
SliderTickRate:1

[Events]
//Background and Video events
0,0,"Okawari.jpg"
1,0,"Minami-ke Okawari.AVI"
//Break Periods
//Storyboard Layer 0 (Background)
//Storyboard Layer 1 (Failing)
//Storyboard Layer 2 (Passing)
//Storyboard Layer 3 (Foreground)
//Storyboard Sound Samples
//Background Colour Transformations
3,100,0,0,0

[TimingPoints]
880,454.545454545455,4,2,0,100,1
4175,-100,4,2,0,0,0
6447,-100,4,1,1,100,0
28152,-100,4,2,0,100,0
29174,-100,4,1,1,100,0
52016,-100,4,2,0,100,0
58720,-100,4,1,1,100,0
66561,-100,4,2,0,100,0
73266,-100,4,1,1,100,0
81107,-100,4,2,0,100,0
84175,-100,4,1,1,100,0

[Colours]
Combo1 : 60,30,0
Combo2 : 255,128,0
Combo3 : 255,0,0

[HitObjects]
64,160,652,1,0
112,192,880,2,2,B|328:344,1,240,2|2
448,224,2470,1,0
400,192,2698,2,2,B|184:40,1,240,2|2
256,192,4289,12,0,6334
72,72,8152,6,2,B|256:72,1,180,2|4
240,312,9743,5,0
296,312,9970,2,2,B|392:304|416:248,1,120,2|8
440,224,10652,1,0
416,104,11107,2,0,B|496:104,2,60,2|8|4
352,208,12016,5,2
352,208,12243,1,8
288,104,12698,2,2,B|96:104,1,180,2|0
56,216,13834,5,0
80,304,14175,1,0
168,280,14516,1,4
328,352,15198,5,0
368,312,15425,2,0,B|448:208|368:96,1,210,2|0
336,40,16561,1,2
336,40,16789,1,0
304,152,17243,2,2,B|80:152,1,210,2|0
168,344,18834,5,0
224,344,19061,2,2,B|432:344,1,180,2|0
456,344,19970,1,0
432,224,20425,1,0
456,104,20880,2,2,B|296:136|232:16,1,240,2|4
144,184,22470,5,0
192,216,22698,2,2,B|288:272|424:224,1,210,2|0
480,256,23834,2,0,B|472:304|416:320,1,60,2|0
336,352,24516,2,2,B|216:360|136:304,1,180,2|0
112,296,25425,1,2
48,120,26107,5,0
104,120,26334,2,2,B|360:120,1,240,2|0
424,32,27698,1,0
440,88,27925,2,0,B|480:224|344:296,1,240,2|4
256,352,29289,5,8
256,296,29516,1,8
136,272,29970,2,0,B|32:184|128:80,1,210,2|0
256,24,31334,1,8
312,32,31561,2,0,B|368:48|392:128,1,120,2|4
480,336,32925,5,0
440,296,33152,1,8
328,344,33607,2,2,B|72:344,1,240,2|2
40,232,34970,1,8
80,192,35198,2,2,B|208:96|392:152,1,300,2|4
424,312,37016,5,0
424,312,37243,2,2,B|160:312,1,240,2|2
32,216,38834,1,0
32,216,39061,2,2,B|304:216,1,240,2|2
376,280,40425,5,0
408,160,40880,2,2,B|344:40|200:80,1,240,2|2
104,288,42698,5,0
104,168,43152,2,0,B|144:176|192:272|240:272,1,150,8|8
304,264,44061,1,12
376,168,44516,6,0,B|376:32,2,120,2|8|2
288,168,45766,1,8
136,168,46334,2,0,B|136:40,2,120,2|8|2
224,168,47584,1,8
360,112,48152,5,2
392,192,48493,2,0,B|440:272|352:336,1,150,8|2
280,336,49402,2,0,B|224:256|320:192,1,150,8|2
344,128,50311,2,0,B|280:72|200:120,1,150,8|6
48,248,52243,5,2
48,128,52698,2,0,B|120:64|232:168|296:128,1,240,0|0
280,48,53948,1,2
368,48,54289,2,0,B|408:112|352:176|408:232,1,180,0|8
400,344,55425,6,2,B|144:344,1,240,2|2
312,264,57016,1,0
256,264,57243,2,2,B|288:144|224:144|256:16,1,240,2|6
136,232,59061,6,0,C|120:176|136:104,2,120,2|8|2
224,232,60311,1,8
376,232,60880,2,0,C|392:176|376:104,2,120,2|8|2
288,232,62130,1,8
144,192,62698,5,2
144,104,63039,2,0,C|224:72|304:72,1,150,8|2
376,72,63948,2,0,B|376:240,1,150,8|2
464,224,64857,2,0,B|400:312,1,90,8|0
376,344,65425,1,6
440,72,66789,5,2
320,72,67243,2,0,B|184:120,1,120,0|2
88,112,68152,2,0,B|56:24,2,90,0|2|0
152,344,69743,5,0
208,344,69970,2,0,B|352:344,2,120,2|8|2
208,256,71220,1,8
360,256,71789,5,2
360,168,72130,2,0,B|256:144,1,90
272,147,72698,1,6
144,272,73380,5,0
112,224,73607,2,0,C|104:144|112:88,2,120,2|8|2
200,224,74857,2,0,B|312:224,1,90,8|0
344,224,75425,2,0,C|352:144|344:88,2,120,2|8|2
344,312,76675,1,8
200,352,77243,5,2
120,312,77584,2,0,B|192:176,1,150,8|2
248,248,78493,2,0,B|320:112,1,150,8|2
376,176,79402,2,0,B|376:80,1,90,8|0
376,32,79970,1,6
56,184,81334,5,0
176,184,81789,2,2,B|176:312,1,120,2|0
296,304,82698,2,0,B|296:192,2,90,2|0|6
64,248,84289,5,0
120,248,84516,2,2,L|232:360|336:360,1,240,2|2
496,360,86107,1,0
496,304,86334,2,2,L|440:272|256:272,1,240,2|2
264,184,87584,2,0,B|264:80,1,90,0|6
