osu file format v5

[General]
AudioFilename: Rina Satou - Keikenchi Soku Joujou.mp3
AudioLeadIn: 2000
PreviewTime: 9522
Countdown: 0
SampleSet: Normal
StackLeniency: 0.2
Mode: 0
LetterboxInBreaks: 1
EditorBookmarks: 1143,12306,16318,29399,48585,56957,73352

[Metadata]
Title:Keikenchi Soku Joujou (TV Size)
Artist:Rina Satou
Creator:Dangaard
Version:Normal
Source:Minami-ke Okaeri
Tags:Minami ke Okaeri Anime OP opening

[Difficulty]
HPDrainRate:3
CircleSize:4
OverallDifficulty:5
SliderMultiplier:1.2
SliderTickRate:1

[Events]
//Background and Video events
0,0,"Minami-ke.jpg"
1,0,"Minami-ke Okaeri.avi"
//Break Periods
//Storyboard Layer 0 (Background)
//Storyboard Layer 1 (Failing)
//Storyboard Layer 2 (Passing)
//Storyboard Layer 3 (Foreground)
//Storyboard Sound Samples
//Background Colour Transformations
3,100,0,0,0

[TimingPoints]
1318,348.837209302326,4,1,0,100,1
9515,-100,4,1,1,0,0
10911,-100,4,1,0,100,0

[Colours]
Combo1 : 255,149,43
Combo2 : 149,43,255
Combo3 : 255,43,43
Combo4 : 43,43,255
Combo5 : 255,128,255

[HitObjects]
112,352,1145,1,4
32,264,1492,2,0,B|64:224|112:248,1,60,0|8
184,304,2017,1,2
224,344,2191,1,0
280,344,2365,1,8
232,232,2713,6,0,B|200:200|152:232,2,60,2|0|8
264,280,3238,1,10
488,352,3935,5,4
392,272,4284,1,0
408,216,4457,2,0,B|424:144|344:88,1,120,8|2
320,80,4982,1,0
272,112,5155,2,0,B|208:160|144:120,1,120,8|2
104,144,5679,5,0
120,200,5854,1,8
64,216,6028,1,10
280,352,6724,6,2,B|384:352|424:240,1,180,2|8
488,352,7598,1,4
440,176,8120,6,2,B|360:168|336:248,1,120,2|0
304,272,8643,2,2,B|256:320|184:288,1,120,10|4
64,88,9690,5,0
168,152,10040,1,0
64,216,10389,1,0
168,280,10738,1,0
256,200,11086,5,4
256,256,11261,1,0
256,312,11435,1,8
256,368,11610,1,2
368,336,11957,2,0,B|384:296|408:288,1,60,2|12
456,272,12307,5,2
464,136,12655,2,0,B|464:96|408:80,1,60,0|8
392,200,13178,2,0,B|424:152|384:128,1,60,2|2
368,96,13527,1,8
312,72,13703,5,2
224,136,14050,2,0,B|264:128|288:176,1,60,0|8
176,224,14573,2,0,B|200:184|256:208,2,60,2|2|8
136,272,15098,5,2
224,360,15447,1,0
280,360,15621,1,8
336,360,15796,1,0
392,360,15970,1,2
432,248,16318,6,0,B|448:208|496:192,2,60,8|0|2
464,128,17017,1,8
464,128,17191,1,6
408,24,17538,6,0,B|368:16|336:40,1,60,0|8
304,64,17889,1,4
64,336,18934,6,0,B|96:304|80:264,2,60,0|8|4
432,352,20329,6,2,B|464:320|448:280,1,60,2|8
400,192,20852,2,0,B|336:216|328:288,1,120,6|8
328,336,21377,1,6
48,120,22424,5,2
48,120,22598,1,8
160,144,22945,2,0,B|192:112|184:72,2,60,0|2|8
120,184,23470,5,4
232,328,23993,1,2
304,232,24342,1,4
408,296,24691,1,0
480,200,25040,5,2
480,144,25214,1,0
480,88,25389,1,8
480,32,25563,1,2
360,64,25912,1,4
376,240,26435,5,0
208,168,26958,1,0
208,168,27133,1,2
88,304,27655,6,0,B|128:248|104:168,2,120,0|2|0
56,352,28528,1,6
336,248,29400,5,2
360,192,29573,2,0,B|432:192|472:256,2,120,0|2|8
296,200,30445,1,0
248,240,30620,2,2,B|288:312|208:360,1,120,2|0
184,384,31145,1,2
88,32,32191,5,2
88,32,32365,1,0
32,136,32713,2,0,B|48:96|88:96,2,60,2|0|8
72,176,33238,1,0
16,192,33411,2,2,B|0:256|64:296,1,120,2|0
112,320,33935,1,2
352,352,34631,6,0,B|432:312|400:240,1,120,4|0
352,280,35155,2,0,B|312:328|240:304,1,120,8|0
56,296,36028,5,4
40,176,36376,2,0,B|64:216|112:208,2,60,0|8|8
8,128,36900,1,0
176,40,37424,5,2
232,32,37597,2,0,B|304:24|336:80,1,120,2|0
272,184,38296,1,0
392,184,38645,1,0
448,192,38818,2,0,B|472:272|376:320,2,120,0|2|0
424,136,39691,1,6
144,248,40562,5,2
120,192,40735,2,0,B|48:192|8:256,2,120,8|2|8
184,200,41607,1,0
232,240,41782,2,2,B|192:312|272:360,1,120,2|8
296,384,42307,1,2
392,32,43353,5,2
392,32,43527,1,8
448,136,43875,2,0,B|432:96|392:96,2,60,2|0|8
408,176,44400,1,0
464,192,44573,2,2,B|480:256|416:296,1,120,2|8
368,320,45097,1,2
128,352,45796,5,4
32,200,46319,1,0
112,112,46666,2,0,B|96:192|160:224,1,120
176,168,47190,2,0,B|248:216|176:280,2,120,0|0|4
208,48,48586,5,2
264,72,48759,2,0,B|328:96|400:56,1,120,0|8
432,40,49283,2,0,B|496:80|472:176,1,120,2|2
432,176,49807,1,8
464,224,49982,1,2
328,352,50505,5,0
336,296,50678,2,0,B|352:216|280:176,1,120
200,256,51376,1,4
496,304,52248,6,0,B|536:384|456:384|392:264|312:264|376:392,2,240,0|0|4
320,136,54342,5,0
320,136,54517,1,0
320,136,54691,1,4
32,232,55563,5,0
128,304,55912,1,0
16,352,56261,1,0
16,352,56435,1,4
160,240,56957,5,2
152,120,57305,2,0,B|152:80|208:64,1,60,0|8
224,184,57828,2,0,B|192:136|232:112,1,60,2|2
248,80,58177,1,8
304,56,58353,5,2
392,120,58700,2,0,B|352:112|328:160,1,60,0|8
440,208,59223,2,0,B|416:168|360:192,2,60,2|2|8
472,256,59748,5,2
392,344,60097,1,0
336,344,60271,1,8
280,344,60446,1,0
224,344,60620,1,2
184,232,60968,6,0,B|168:192|120:176,2,60,8|0|2
152,112,61667,1,8
152,112,61841,1,6
336,272,62538,6,2,B|408:264|448:320,1,120,2|0
496,328,63062,2,0,B|528:264|472:200,1,120,0|6
408,120,63761,5,0
352,144,63934,1,0
320,96,64108,2,2,B|256:104|232:176,1,120,2|0
216,224,64631,1,6
440,304,65329,6,0,B|432:336|384:352,1,60,0|8
344,368,65679,1,0
240,304,66027,2,0,B|216:344|240:368,2,60,0|8|0
344,248,66724,6,2,B|296:184|208:232,1,120,2|2
184,240,67248,2,0,B|112:264|48:192,1,120,8|12
160,368,68121,5,2
256,296,68469,2,0,B|264:248|192:216,2,60,0|8|0
256,352,68993,1,2
168,192,69515,5,2
72,120,69863,2,0,B|64:72|136:40,2,60,0|8|0
72,176,70387,1,2
248,208,70911,5,2
264,328,71261,1,0
320,312,71435,1,8
360,352,71610,1,0
416,336,71783,2,2,B|480:288|456:208,1,120,2|8
360,168,72480,6,0,B|336:184|336:224,2,60,2|0|8
408,136,73005,1,6
472,24,73352,6,0,B|432:16|400:40,1,60,0|8
368,64,73703,1,4
40,224,74748,6,0,B|64:192|48:152,2,60,0|8|4
368,360,76143,6,0,B|400:328|384:288,1,60,2|8
336,200,76666,2,0,B|272:224|264:296,1,120,6|8
264,344,77191,1,6
128,24,78238,5,2
184,24,78411,2,0,B|248:72|184:144,1,120,8|0
152,80,78934,2,0,B|104:144|176:192,1,120,2|4
504,312,80329,6,0,B|488:360|424:360,2,60,0|8|4
192,128,81724,5,2
136,104,81899,2,0,B|80:144|96:224,2,120,8|6|8
184,72,82771,1,6
392,360,83819,5,2
432,320,83993,1,8
416,264,84166,2,0,B|392:200|448:152,1,120,0|2
488,120,84691,1,8
256,192,84865,12,4,86435
