osu file format v5

[General]
AudioFilename: Rina Satou - Keikenchi Soku Joujou.mp3
AudioLeadIn: 2000
PreviewTime: 9522
Countdown: 0
SampleSet: Normal
StackLeniency: 0.3
Mode: 0
LetterboxInBreaks: 1
EditorBookmarks: 1143,12306,29399,48585,56957,73352

[Metadata]
Title:Keikenchi Soku Joujou (TV Size)
Artist:Rina Satou
Creator:Dangaard
Version:Easy
Source:Minami-ke Okaeri
Tags:Minami ke Okaeri Anime OP opening

[Difficulty]
HPDrainRate:2
CircleSize:3
OverallDifficulty:3
SliderMultiplier:1
SliderTickRate:1

[Events]
//Background and Video events
0,0,"Minami-ke.jpg"
1,0,"Minami-ke Okaeri.avi"
//Break Periods
2,12333,28200
//Storyboard Layer 0 (Background)
//Storyboard Layer 1 (Failing)
//Storyboard Layer 2 (Passing)
//Storyboard Layer 3 (Foreground)
//Storyboard Sound Samples
//Background Colour Transformations
3,100,0,0,0

[TimingPoints]
1318,348.837209302326,4,1,0,100,1
9515,-100,4,1,1,0,0
10911,-100,4,1,0,100,0

[Colours]
Combo1 : 255,149,43
Combo2 : 149,43,255
Combo3 : 255,43,43
Combo4 : 43,43,255
Combo5 : 255,128,255

[HitObjects]
232,24,1143,6,0,B|392:0|448:128,1,250,4|2
368,304,2713,2,0,B|424:272|400:200,1,100,2|8
384,168,3238,1,10
280,336,3934,6,0,B|120:360|64:232,1,250,4|2
144,56,5504,2,0,B|88:88|112:160,1,100,2|8
128,192,6029,1,2
240,32,6724,6,2,B|328:40|352:136,1,150,2|8
360,224,7598,1,4
264,112,8120,6,2,B|320:192|264:264,1,150,2|8
208,328,8992,1,4
392,248,9690,6,0,B|344:192|392:120,1,100,0|0
464,112,10387,2,0,B|408:192|464:224,1,100,0|0
448,304,11085,2,2,B|400:376|304:352,1,150,2|2
224,320,11957,6,0,B|200:328|184:368,1,50,2|12
152,224,29399,6,0,B|128:240|128:280,1,50,2|0
128,368,29924,1,2
40,312,30271,2,0,B|32:168|160:128,1,200,8|0
168,128,31145,1,2
360,272,32190,6,0,B|384:256|384:216,1,50,2|0
384,128,32715,1,2
472,184,33062,2,0,B|480:328|352:368,1,200,8|0
344,368,33936,1,2
152,304,34631,6,0,B|240:312|288:240,1,150,4|8
328,160,35505,1,0
192,216,36027,6,0,B|200:128|128:80,1,150,4|8
48,40,36901,1,0
248,40,37597,6,0,B|384:24|424:136,1,200,2|0
360,200,38645,1,0
360,200,38818,2,0,B|272:304|216:88|112:232,1,250,0|6
392,40,40736,6,0,B|464:40|480:96,2,100,8|2|8
288,40,41783,2,0,B|256:112|312:144,1,100,2|8
336,168,42307,1,2
120,344,43527,6,0,B|48:344|32:288,2,100,8|2|8
224,344,44574,2,0,B|256:272|200:240,1,100,2|8
176,216,45098,1,2
336,328,45794,6,0,B|464:288|432:104,1,250,4|0
368,48,47015,1,0
368,48,47190,2,0,B|304:-8|256:120|160:32,1,200,0|4
104,232,48586,5,2
104,232,48761,1,0
32,96,49283,2,0,B|48:40|120:40,2,100,2|2|2
256,192,50505,12,4,52947
408,256,54342,5,0
408,256,54691,1,4
160,264,55562,2,0,B|168:328|128:360,2,100
144,216,56435,1,4
168,64,56957,6,2,B|240:64|264:128,1,100,2|8
304,112,57480,2,2,B|336:160|288:224,1,100,2|0
448,200,58352,6,2,B|448:272|384:296,1,100,2|8
400,336,58875,2,2,B|352:368|288:320,1,100,2|0
192,232,59749,5,2
160,88,60271,2,0,B|136:32|56:40,2,100,8|2|8
72,128,61318,2,2,B|136:152|96:232,1,100,2|8
88,256,61842,1,6
176,72,62540,5,2
184,224,63062,2,0,B|192:296|288:296,1,100,0|6
328,232,63759,2,0,B|400:232|408:312,1,100,0|2
336,360,64457,2,0,B|312:320|344:280,1,50,0|6
80,336,65505,5,8
80,184,66028,1,0
80,184,66203,1,8
216,120,66724,2,2,B|248:96|288:144|328:104,1,100,2|2
360,96,67248,2,0,B|424:120|400:208,1,100,8|12
336,312,68120,6,2,B|264:312|240:248,1,100,2|8
200,264,68643,2,2,B|168:216|216:152,1,100,2|0
56,176,69515,6,2,B|56:104|120:80,1,100,2|8
104,40,70038,2,2,B|152:8|216:56,1,100,2|0
312,144,70912,5,2
344,288,71434,2,0,B|368:344|448:336,2,100,8|2|8
432,248,72481,2,0,B|368:224|408:144,1,100,2|8
416,120,73005,1,6
352,48,73352,6,0,B|312:16|248:48,1,100,0|4
40,248,74748,6,0,B|40:328|136:344,1,100,0|4
312,128,76143,6,0,B|328:216|240:264,1,150,2|6
112,312,77191,1,6
400,112,78412,5,8
440,200,78759,2,0,B|408:200|400:240,1,50,0|2
376,328,79284,1,4
136,152,80329,6,0,B|160:216|240:216,1,100,0|4
472,64,81724,6,0,B|400:112|400:192,1,150,2|6
408,336,82772,1,6
112,296,83818,6,0,B|96:320|120:352,2,50,2|8|0
256,192,84517,12,4,86434
