osu file format v5

[General]
AudioFilename: Colorful Days.mp3
AudioLeadIn: 2000
PreviewTime: -1
Countdown: 0
SampleSet: Normal
StackLeniency: 0.7
Mode: 0
LetterboxInBreaks: 1
EditorBookmarks: 46328,73649

[Metadata]
Title:Colorful Days (TV Size)
Artist:Rina Satou
Creator:Mafiamaster
Version:Hard
Source:Minami-ke
Tags:Minami ke Anime ED

[Difficulty]
HPDrainRate:7
CircleSize:5
OverallDifficulty:7
SliderMultiplier:1.4
SliderTickRate:1

[Events]
//Background and Video events
0,0,"minami-ke.png"
1,0,"Colorful Days_xvid.avi"
//Break Periods
//Storyboard Layer 0 (Background)
//Storyboard Layer 1 (Failing)
//Storyboard Layer 2 (Passing)
//Storyboard Layer 3 (Foreground)
//Storyboard Sound Samples
//Background Colour Transformations
3,100,0,0,0

[TimingPoints]
614,357.142857142857,4,1,0,70,1,0
11685,-100,4,2,0,70,0,0
14185,-100,4,2,0,50,0,0
37578,-200,4,2,0,70,0,0
60613,-100,4,1,0,70,0,1
71863,-100,4,1,0,70,0,0
72042,-100,4,1,0,70,0,1
83203,-100,4,1,0,70,0,0

[Colours]
Combo1 : 164,0,0
Combo2 : 255,155,205
Combo3 : 86,119,233

[HitObjects]
176,32,614,2,8,B|216:112|272:-8|304:88,1,140
368,32,1149,1,8
256,152,1506,1,8
336,152,1685,1,8
368,320,2042,2,8,B|328:400|272:280|240:376,1,140
168,320,2577,1,8
176,152,2935,1,8
256,152,3113,1,8
104,232,3471,2,8,B|144:312|200:192|232:288,1,140
296,232,4006,1,8
192,96,4363,5,8
256,152,4542,1,8
320,96,4721,1,8
176,184,5078,1,0
256,32,5435,1,8
336,184,5792,1,0
192,96,6149,5,8
256,152,6328,2,0,B|256:296|104:272,1,210,0|8
120,192,7043,2,0,B|120:48|272:72,1,210,8|0
256,152,7756,2,8,B|256:296|408:272,1,210,0|8
392,192,8471,2,0,B|392:48|240:72,1,210,8|0
256,152,9185,1,0
168,296,9542,1,0
344,296,9899,1,0
256,152,10256,1,8
256,64,10435,1,8
256,192,10613,12,4,12042
336,72,12578,6,8,B|368:112|323:153,1,70,2|2
176,72,13114,2,8,B|144:112|189:153,1,70,2|2
256,72,13649,1,2
256,240,14006,1,4
392,336,14363,5,8
456,280,14542,1,8
480,200,14721,1,0
456,120,14899,6,0,B|440:40|368:48|328:72,1,140,0|0
184,104,15613,2,0,B|192:184|272:176|312:136,1,140,0|0
368,128,16149,1,0
400,200,16328,2,0,B|414:218|422:290|342:306,1,140,0|0
328,224,16863,1,0
200,336,17221,5,8
128,296,17399,1,8
72,232,17578,1,0
40,152,17756,2,0,B|0:80|56:-8,2,140
216,152,18828,2,0,B|256:80|200:-8,2,140
128,144,19721,2,0,B|128:304,1,140,0|8
72,216,20256,1,8
56,136,20435,1,0
40,56,20613,5,0
184,144,20971,1,0
328,56,21328,1,0
472,144,21685,1,0
408,200,21863,1,0
344,256,22042,1,0
176,256,22399,1,0
88,136,22756,1,0
168,112,22935,1,8
248,88,23113,1,8
328,64,23291,1,0
400,40,23471,6,0,B|368:16|304:16|264:40,1,140
112,40,24185,2,0,B|144:16|208:16|248:40,1,140,0|0
256,184,24899,2,0,B|240:112|328:64|384:120|384:176,1,210
328,216,25613,2,0,B|384:248|432:240|464:176,2,140
176,152,26685,1,0
328,216,27042,2,0,B|360:272|352:320|288:352,1,140,0|8
224,344,27578,1,8
136,344,27756,2,0,B|104:288|112:240|176:208,1,140,0|0
224,176,28292,1,0
96,64,28649,5,0
96,64,28828,1,0
96,64,29006,1,0
96,64,29185,2,0,B|248:64,1,140
400,64,29899,1,0
400,232,30256,1,8
464,280,30435,1,8
400,328,30613,2,0,B|248:328,1,140
320,272,31149,2,0,B|168:272,1,140
96,272,31685,5,0
136,200,31863,1,0
180,272,32042,2,0,B|252:144,2,140
136,112,33113,1,8
208,80,33292,1,8
249,151,33471,1,0
320,120,33649,1,0
360,192,33828,2,0,B|288:320,2,140
456,328,34899,5,0
488,160,35256,1,0
336,240,35613,1,0
368,72,35970,1,8
368,72,36149,1,8
256,192,36506,5,0
256,272,36685,1,0
176,232,36863,1,0
176,312,37042,1,0
96,272,37221,1,0
96,192,37399,1,0
176,40,37756,6,4,B|136:56|136:112|176:128,1,105,4|0
208,136,38471,2,4,B|248:152|248:208|208:224,1,105,0|0
176,232,39185,2,4,B|136:248|136:304|176:320,1,105,4|0
208,328,39899,1,0
288,336,40256,1,0
336,264,40613,1,4
256,256,40971,1,0
216,176,41328,1,0
296,184,41685,1,0
376,192,42042,1,4
344,112,42399,5,2
304,104,42578,1,0
264,104,42756,2,4,B|200:104|192:160,1,70
232,208,43471,6,4,B|216:248|160:248|144:208,1,105,4|0
136,176,44186,2,4,B|120:136|64:136|48:176,1,105,0|0
24,200,44899,1,4
32,280,45256,2,0,B|64:312|104:288,2,70,0|0|0
96,224,46328,2,4,B|112:184|168:184|184:224,1,105,4|0
208,248,47042,1,0
248,264,47221,1,2
288,256,47399,1,2
312,224,47578,1,4
232,192,47935,5,4
264,168,48113,1,2
304,160,48292,1,2
344,168,48471,2,0,B|384:176|392:232,1,70,4|4
400,296,49185,2,0,B|384:352|304:344,1,105,4|0
280,320,49899,2,0,B|296:264|376:272,1,105
400,296,50613,1,4
440,216,50971,1,0
400,232,51149,1,0
360,216,51328,1,0
400,144,51685,5,0
344,80,52042,1,6
288,144,52399,1,0
232,80,52756,1,6
176,144,53113,1,0
120,80,53471,1,4
64,144,53828,1,0
32,168,54006,1,0
48,208,54185,1,0
80,288,54542,5,0
136,224,54899,1,6
192,288,55256,1,0
256,352,55613,1,2
320,288,55971,1,0
376,224,56328,1,4
432,288,56685,1,0
376,352,57042,1,2
320,288,57399,1,0
376,224,57756,2,0,B|424:256|440:208|432:176|368:176,1,105,4|0
360,184,58471,2,0,B|312:216|296:168|304:136|368:136,1,105,0|2
256,192,59363,12,0,60435
40,192,60613,5,0
112,232,60792,1,0
184,192,60971,1,8
256,152,61149,1,8
328,192,61328,1,0
400,152,61506,1,8
256,240,61863,6,0,B|120:312,1,140,0|0
208,344,62399,1,8
280,304,62578,1,8
352,264,62756,1,0
352,344,62935,2,0,B|488:272,2,140,8|0|0
280,304,63828,5,8
208,344,64006,1,8
136,304,64185,1,0
64,344,64363,1,8
64,256,64542,1,0
136,216,64721,1,0
208,256,64899,1,0
280,216,65078,1,0
352,256,65256,1,8
424,216,65435,1,8
352,176,65613,1,0
280,216,65792,1,8
352,256,65971,1,0
424,216,66149,1,0
208,344,66685,6,8,B|72:272,2,140,8|0|8
280,304,67578,1,0
352,344,67756,1,0
424,304,67935,1,0
352,256,68113,1,8
424,216,68292,1,8
176,168,68828,5,8
112,216,69006,1,0
112,128,69185,2,0,B|224:40,1,140,0|8
248,120,69721,1,8
312,72,69899,1,0
320,152,70078,1,0
384,104,70256,1,8
256,336,70613,5,4
48,192,70971,1,4
256,48,71328,1,4
464,192,71685,1,4
312,280,72042,5,0
256,216,72221,1,0
200,280,72399,1,8
144,216,72578,1,8
200,152,72756,1,0
256,88,72935,1,8
368,216,73292,1,4
200,280,73649,5,0
256,216,73828,1,8
312,280,74006,1,8
368,216,74185,1,0
312,152,74363,1,8
144,216,74721,1,4
256,88,75078,5,0
200,152,75256,1,8
144,216,75435,1,8
200,280,75613,1,0
256,216,75792,1,8
312,280,75971,1,0
368,216,76149,1,0
312,152,76328,1,0
256,88,76506,2,8,B|256:160,1,70,8|0
256,157,76863,2,8,B|256:229,1,70,8|0
256,226,77221,2,8,B|256:298,2,70
72,56,78113,5,8
72,136,78292,1,8
144,96,78471,1,0
144,176,78649,1,0
72,224,78828,1,8
72,304,79006,2,0,B|224:304,1,140,0|0
296,304,79542,1,8
256,232,79721,1,8
304,88,80078,5,0
232,128,80256,1,8
304,168,80435,1,0
232,208,80613,2,0,B|184:208|136:264|160:320|216:328|256:312,1,210
254,312,81328,2,0,B|292:328|348:320|372:264|324:208|276:208,1,210,0|0
256,128,82042,5,4
48,192,82399,1,4
256,336,82756,1,4
464,192,83113,1,4
344,304,83471,6,8,B|440:272,1,70,8|0
344,232,83828,2,8,B|416:176,1,70,0|0
312,168,84185,2,8,B|352:80,1,70,8|8
256,120,84542,2,8,B|256:32,1,70,8|0
200,168,84899,2,8,B|160:80,1,70,8|0
168,232,85256,2,8,B|104:184,1,70,0|0
168,304,85613,2,8,B|80:272,1,70,8|8
56,352,85970,1,8
24,272,86149,1,0
32,192,86328,5,4
256,32,86863,5,4
480,192,87399,5,4
