osu file format v14

[General]
AudioFilename: Detective Conan Opening 27 - Magic.mp3
AudioLeadIn: 0
PreviewTime: 56132
Countdown: 0
SampleSet: Soft
StackLeniency: 0.7
Mode: 0
LetterboxInBreaks: 0
WidescreenStoryboard: 1

[Editor]
DistanceSpacing: 1.3
BeatDivisor: 4
GridSize: 4
TimelineZoom: 1

[Metadata]
Title:MAGIC
TitleUnicode:MAGIC
Artist:Rina Aiuchi
ArtistUnicode:愛内 里菜
Creator:Kuey
Version:Normal
Source:Detective Conan
Tags:Meitantei Conan CaseClosed
BeatmapID:709102
BeatmapSetID:318443

[Difficulty]
HPDrainRate:2
CircleSize:3
OverallDifficulty:2
ApproachRate:3
SliderMultiplier:1.3
SliderTickRate:1

[Events]
//Background and Video events
0,0,"case_closed__soccer__by_esgros-d59mpb4444.jpg",0,0
//Break Periods
//Storyboard Layer 0 (Background)
//Storyboard Layer 1 (Fail)
//Storyboard Layer 2 (Pass)
//Storyboard Layer 3 (Foreground)
//Storyboard Sound Samples

[TimingPoints]
6361.7453006306,618.556701030928,4,2,1,70,1,0
55823,-100,4,2,1,70,0,1
74379,-100,4,2,1,70,0,0
85514,-100,4,2,1,70,0,1
100359,-100,4,2,1,70,0,0

[HitObjects]
112,224,6338,6,0,P|176:236|248:216,1,130,4|0,0:0|0:0,0:0:0:0:
308,280,7598,2,0,P|328:216|292:148,1,130
232,96,8835,6,0,P|280:68|368:92,2,130
156,132,10382,1,0,0:0:0:0:
152,216,10691,1,0,0:0:0:0:
212,272,11000,1,0,0:0:0:0:
296,284,11310,6,0,L|392:276,2,65
244,352,12238,1,0,0:0:0:0:
168,320,12547,2,0,P|96:348|20:324,1,130
36,164,13784,6,0,P|64:188|82:236,1,65
160,232,14402,2,0,P|192:236|236:224,1,65
296,184,15021,1,0,0:0:0:0:
180,67,16258,6,0,L|194:221,1,130
276,216,17186,1,0,0:0:0:0:
220,280,17495,2,0,L|204:360,2,65
376,344,18732,6,0,L|392:264,1,65
448,228,19351,2,0,P|440:160|456:88,1,130
384,48,20279,2,0,P|348:36|300:36,1,65
232,180,21207,6,0,P|168:160|96:152,1,130
20,176,22134,1,0,0:0:0:0:
40,260,22444,2,0,P|36:289|40:344,1,65
120,304,23062,2,0,P|123:274|120:220,1,65
108,156,23681,6,0,P|136:108|228:108,1,130
272,148,24609,2,0,P|304:152|344:136,1,65
488,72,25537,2,0,L|484:152,1,65
464,220,26155,6,0,P|392:224|352:284,1,130
364,348,27083,1,0,0:0:0:0:
280,348,27392,2,0,P|212:332|132:336,1,130
60,192,28629,5,0,0:0:0:0:
120,132,28939,2,0,L|128:64,2,65,2|0|6,0:0|0:0|0:0,0:0:0:0:
204,124,29866,2,0,P|280:120|356:124,1,130
416,148,30794,1,0,0:0:0:0:
456,224,31104,6,0,L|444:376,1,130
364,336,32031,1,0,0:0:0:0:
280,356,32341,2,0,L|188:352,1,65
216,268,32959,2,0,L|148:268,1,65
84,320,33578,6,0,P|72:236|104:200,1,130
160,148,34506,2,0,P|140:112|120:68,1,65
296,120,35433,1,0,0:0:0:0:
464,112,36052,6,4,P|476:168|404:200,1,130,4|0,0:0|0:0,0:0:0:0:
348,244,36980,1,0,0:0:0:0:
304,316,37289,2,0,P|268:316|224:328,1,65
168,276,37908,1,0,0:0:0:0:
100,220,38526,6,4,L|104:140,2,65,4|4|0,0:0|0:0|0:0,0:0:0:0:
48,288,39454,2,4,P|132:299|176:257,1,130,4|0,0:0|0:0,0:0:0:0:
187,192,40382,1,0,0:0:0:0:
323,291,41000,6,4,P|368:287|393:272,1,65,4|0,0:0|0:0,0:0:0:0:
469,271,41619,2,0,L|463:355,2,65
421,200,42547,2,0,L|415:116,2,65
384,278,43475,6,4,P|355:291|323:291,1,65,4|0,0:0|0:0,0:0:0:0:
245,256,44093,1,0,0:0:0:0:
215,335,44402,2,0,P|136:336|64:314,1,130,4|0,0:0|0:0,0:0:0:0:
24,268,45330,1,0,0:0:0:0:
168,184,45949,6,0,L|164:88,1,65,4|0,0:0|0:0,0:0:0:0:
92,76,46567,1,4,0:0:0:0:
260,44,47186,2,0,P|316:76|400:48,1,130
470,203,48423,6,0,L|475:287,2,65,4|0|0,0:0|0:0|0:0,0:0:0:0:
388,224,49351,2,0,P|348:232|232:209,1,130,4|0,0:0|0:0,0:0:0:0:
186,179,50279,2,0,P|174:214|189:266,1,65
236,300,50897,5,4,0:0:0:0:
388,224,51516,2,0,P|390:161|404:92,2,130,4|0|4,0:0|0:0|0:0,0:0:0:0:
428,298,53062,1,0,0:0:0:0:
353,339,53372,6,0,P|284:336|204:340,1,130,4|0,0:0|0:0,0:0:0:0:
140,352,54299,1,0,0:0:0:0:
98,278,54609,1,4,0:0:0:0:
317,20,55846,6,0,L|324:109,1,65,4|0,0:0|0:0,0:0:0:0:
330,168,56464,1,0,0:0:0:0:
278,329,57083,2,0,P|248:304|232:264,1,65
152,292,57701,2,0,L|150:212,1,65
108,152,58320,5,4,0:0:0:0:
253,74,58939,2,0,P|284:64|335:66,1,65
388,113,59557,2,0,P|376:176|385:270,1,130
430,310,60485,1,0,0:0:0:0:
352,344,60794,6,0,P|280:348|211:320,1,130,4|0,0:0|0:0,0:0:0:0:
152,284,61722,1,0,0:0:0:0:
84,232,62031,2,0,P|76:160|92:100,1,130
164,56,62959,1,0,0:0:0:0:
248,76,63268,6,0,P|308:88|384:80,1,130,4|0,0:0|0:0,0:0:0:0:
512,184,64506,2,0,P|504:224|472:260,1,65
408,256,65124,2,0,L|336:264,1,65
256,268,65743,6,0,L|256:132,1,130
176,108,66671,1,0,0:0:0:0:
92,100,66980,2,0,P|40:144|48:216,1,130
80,276,67908,1,0,0:0:0:0:
156,312,68217,6,0,P|192:332|244:336,1,65
264,268,68835,2,0,P|280:232|320:208,1,65
344,288,69454,2,0,P|376:308|404:352,2,65,0|0|4,0:0|0:0|0:0,0:0:0:0:
376,208,70382,1,0,0:0:0:0:
452,172,70691,1,4,0:0:0:0:
344,84,71310,2,0,L|204:84,1,130,0|4,0:0|0:0,0:0:0:0:
80,188,72547,1,0,0:0:0:0:
160,216,72856,1,0,0:0:0:0:
112,288,73165,5,0,0:0:0:0:
200,320,73475,1,0,0:0:0:0:
200,320,73784,2,0,P|268:336|340:316,1,130
264,168,75021,1,0,0:0:0:0:
144,52,75640,6,0,P|84:80|64:148,1,130,4|0,0:0|0:0,0:0:0:0:
148,140,76567,1,0,0:0:0:0:
148,140,76877,2,0,B|172:184|172:184|104:212|120:264,1,130
140,320,77805,1,0,0:0:0:0:
224,320,78114,6,0,P|252:332|312:328,2,65
272,252,79042,1,0,0:0:0:0:
308,176,79351,2,0,P|248:172|196:216,1,130
28,240,80588,6,0,P|88:260|160:240,1,130,4|0,0:0|0:0,0:0:0:0:
152,160,81516,1,0,0:0:0:0:
152,160,81825,2,0,P|184:104|248:88,1,130
320,124,82753,1,0,0:0:0:0:
296,204,83062,6,0,P|264:192|236:168,2,65,4|0|0,0:0|0:0|0:0,0:0:0:0:
304,288,83990,1,0,0:0:0:0:
388,300,84299,2,0,P|384:336|396:376,2,65
436,232,85227,1,0,0:0:0:0:
468,152,85537,6,0,P|420:144|356:196,1,130,4|0,0:0|0:0,0:0:0:0:
276,172,86464,1,0,0:0:0:0:
276,172,86774,2,0,L|156:132,1,97.5
56,132,87701,5,0,0:0:0:0:
56,132,88011,2,0,P|32:200|80:256,1,130
144,244,88939,1,0,0:0:0:0:
220,284,89248,2,0,P|164:328|100:316,2,130,0|0|4,0:0|0:0|0:0,0:0:0:0:
288,232,90794,5,0,0:0:0:0:
288,232,91104,2,0,P|288:160|352:140,1,130
412,104,92031,1,0,0:0:0:0:
412,104,92341,2,0,P|420:76|412:20,1,65
336,60,92959,2,4,P|284:84|264:136,2,97.5
348,144,94196,2,0,P|360:192|348:244,2,97.5
280,192,95433,6,0,P|212:200|140:180,1,130,4|0,0:0|0:0,0:0:0:0:
72,164,96361,1,0,0:0:0:0:
72,164,96671,2,0,L|36:300,1,130
120,316,97598,1,0,0:0:0:0:
196,276,97908,6,0,P|164:204|140:140,1,130
100,84,98835,1,0,0:0:0:0:
184,64,99145,2,0,L|332:60,2,130,0|4|4,0:0|0:0|0:0,0:0:0:0:
336,140,101000,6,0,P|352:176|368:208,2,65,0|0|4,0:0|0:0|0:0,0:0:0:0:
364,308,102238,6,0,L|324:308|280:308,2,65,0|4|4,0:0|0:0|0:0,0:0:0:0:
448,312,103165,1,0,0:0:0:0:
468,228,103475,2,0,L|456:96,1,130
376,128,104402,1,0,0:0:0:0:
292,148,104712,1,0,0:0:0:0:
208,164,105021,1,0,0:0:0:0:
256,192,105330,12,0,107805,0:0:0:0:
