osu file format v14

[General]
AudioFilename: Detective Conan Opening 27 - Magic.mp3
AudioLeadIn: 0
PreviewTime: 56132
Countdown: 0
SampleSet: Soft
StackLeniency: 0.7
Mode: 0
LetterboxInBreaks: 0
WidescreenStoryboard: 1

[Editor]
Bookmarks: 29843,45307,50565,50874,51184,51493,52421,52730,53039,54431,59843,60153,62936,66184,68503,68812,70359,70668,74998,97575
DistanceSpacing: 1
BeatDivisor: 4
GridSize: 4
TimelineZoom: 2

[Metadata]
Title:MAGIC
TitleUnicode:MAGIC
Artist:Rina Aiuchi
ArtistUnicode:愛内 里菜
Creator:Kuey
Version:Insane
Source:Detective Conan
Tags:Meitantei Conan CaseClosed
BeatmapID:709103
BeatmapSetID:318443

[Difficulty]
HPDrainRate:6
CircleSize:4
OverallDifficulty:5
ApproachRate:7
SliderMultiplier:1.9
SliderTickRate:1

[Events]
//Background and Video events
0,0,"case_closed__soccer__by_esgros-d59mpb4444.jpg",0,0
//Break Periods
//Storyboard Layer 0 (Background)
//Storyboard Layer 1 (Fail)
//Storyboard Layer 2 (Pass)
//Storyboard Layer 3 (Foreground)
//Storyboard Sound Samples

[TimingPoints]
6362,618.556701030928,4,2,1,70,1,0
55823,-100,4,2,1,70,0,1
74379,-100,4,2,1,70,0,0
85514,-100,4,2,1,70,0,1
100359,-100,4,2,1,70,0,0

[HitObjects]
88,84,6362,6,0,L|128:88|196:92,1,95,4|0,0:0|0:0,0:0:0:0:
200,184,6980,1,0,0:0:0:0:
220,92,7289,1,0,0:0:0:0:
308,56,7599,2,0,P|312:112|296:148,1,95
356,220,8217,1,0,0:0:0:0:
308,300,8526,1,0,0:0:0:0:
212,300,8836,5,4,0:0:0:0:
168,216,9145,1,0,0:0:0:0:
72,204,9454,2,0,P|40:164|32:112,1,95,4|0,0:0|0:0,0:0:0:0:
128,120,10073,2,0,L|232:76,1,95
280,12,10691,2,0,P|304:44|308:104,1,95
404,84,11310,6,0,P|408:136|360:172,1,95
309,97,11929,1,0,0:0:0:0:
380,165,12238,1,0,0:0:0:0:
288,192,12547,2,0,L|288:292,1,95
200,328,13166,1,0,0:0:0:0:
112,296,13475,1,0,0:0:0:0:
116,200,13784,5,0,0:0:0:0:
208,172,14093,1,0,0:0:0:0:
260,252,14403,1,0,0:0:0:0:
200,328,14712,1,0,0:0:0:0:
180,248,15021,1,0,0:0:0:0:
336,260,16258,6,0,L|432:208,1,95
472,136,16877,1,0,0:0:0:0:
492,228,17186,1,0,0:0:0:0:
412,280,17496,2,0,P|368:248|360:196,1,95
268,240,18114,1,0,0:0:0:0:
292,148,18423,1,0,0:0:0:0:
292,148,18578,1,0,0:0:0:0:
336,80,18733,6,0,P|292:64|240:80,1,95
246,75,19197,1,0,0:0:0:0:
172,96,19351,2,0,P|128:116|104:164,1,95
188,184,19815,1,0,0:0:0:0:
188,184,19970,1,0,0:0:0:0:
188,184,20279,1,0,0:0:0:0:
236,268,20588,2,0,B|312:288|312:288|304:268,1,95
136,288,21207,5,0,0:0:0:0:
120,132,21516,1,0,0:0:0:0:
0,224,21825,1,0,0:0:0:0:
88,224,22135,1,0,0:0:0:0:
232,208,22444,1,0,0:0:0:0:
176,336,22753,1,0,0:0:0:0:
272,336,23063,2,0,P|316:344|376:332,1,95
365,336,23526,1,0,0:0:0:0:
365,336,23681,5,0,0:0:0:0:
452,296,23990,1,0,0:0:0:0:
452,200,24300,2,0,L|452:152|452:92,1,95
512,28,24918,1,0,0:0:0:0:
436,88,25227,1,0,0:0:0:0:
312,88,25537,2,0,P|260:72|208:96,1,95
268,168,26155,6,0,L|268:216|268:264,1,95
192,320,26774,2,0,L|192:268|192:204,1,95
112,176,27392,1,0,0:0:0:0:
192,225,27702,1,0,0:0:0:0:
128,152,28011,2,0,P|128:96|104:56,1,95
36,124,28630,5,0,0:0:0:0:
12,216,28939,1,2,0:0:0:0:
12,216,29093,1,0,0:0:0:0:
12,216,29248,2,0,P|24:260|76:300,1,95,0|6,0:0|0:0,0:0:0:0:
152,296,29867,1,0,0:0:0:0:
288,264,30176,1,0,0:0:0:0:
348,188,30485,2,0,B|376:220|376:220|376:276|376:276,1,95
384,176,31104,5,0,0:0:0:0:
460,236,31413,1,0,0:0:0:0:
416,152,31722,2,0,P|488:148|528:160,1,95
424,116,32341,2,0,L|408:72|364:40,1,95
248,64,32959,1,0,0:0:0:0:
268,156,33269,1,0,0:0:0:0:
256,168,33423,1,0,0:0:0:0:
180,120,33578,6,0,P|164:168|192:232,1,95
174,209,34042,1,0,0:0:0:0:
216,280,34197,2,0,P|168:292|128:268,1,95
52,324,34815,1,0,0:0:0:0:
112,252,35124,1,0,0:0:0:0:
48,148,35434,1,0,0:0:0:0:
84,60,35743,1,0,0:0:0:0:
84,60,36052,6,0,B|128:60|128:60|192:60,1,95,4|0,0:0|0:0,0:0:0:0:
228,60,36516,1,0,0:0:0:0:
276,60,36671,2,0,L|332:60|372:60,1,95
420,60,37135,1,0,0:0:0:0:
452,140,37289,2,0,P|452:184|388:216,1,95,0|0,0:0|0:0,0:0:0:0:
415,215,37753,1,0,0:0:0:0:
380,184,37908,2,0,P|328:188|284:228,1,95
294,212,38372,5,0,0:0:0:0:
276,256,38526,2,0,L|224:336,2,95,4|4|0,0:0|0:0|0:0,0:0:0:0:
192,212,39454,1,4,0:0:0:0:
152,128,39764,2,0,L|40:152,1,95
59,147,40227,1,0,0:0:0:0:
36,240,40382,2,0,L|140:216,1,95
196,300,41001,6,0,L|88:328,1,95,4|0,0:0|0:0,0:0:0:0:
104,323,41465,1,0,0:0:0:0:
276,292,41619,2,0,B|340:292|340:292|376:292,1,95
371,292,42083,1,0,0:0:0:0:
444,248,42238,2,0,B|512:196|512:196|492:188,1,95
503,192,42702,1,0,0:0:0:0:
448,120,42856,2,0,B|400:52|400:52|392:64,1,95
393,61,43320,1,0,0:0:0:0:
340,128,43475,6,0,B|308:160|308:160|240:136,2,95,4|0|0,0:0|0:0|0:0,0:0:0:0:
284,52,44403,1,4,0:0:0:0:
212,116,44712,1,0,0:0:0:0:
208,212,45021,1,0,0:0:0:0:
208,212,45331,1,0,0:0:0:0:
40,128,45949,6,0,P|76:160|120:140,1,95,4|0,0:0|0:0,0:0:0:0:
115,145,46413,1,0,0:0:0:0:
115,145,46568,1,4,0:0:0:0:
172,280,46877,1,0,0:0:0:0:
264,304,47186,2,0,L|256:256,2,47.5
360,312,47805,2,0,L|336:188,1,95
341,218,48269,1,0,0:0:0:0:
356,208,48423,5,4,0:0:0:0:
392,120,48733,2,0,P|408:104|404:80,1,47.5
320,40,49197,1,0,0:0:0:0:
312,60,49351,2,0,L|80:60,1,190,4|0,0:0|0:0,0:0:0:0:
122,60,50124,1,0,0:0:0:0:
116,80,50279,1,0,0:0:0:0:
200,184,50588,1,0,0:0:0:0:
452,184,50898,5,4,0:0:0:0:
336,304,51207,1,0,0:0:0:0:
336,92,51516,1,4,0:0:0:0:
236,272,51825,1,0,0:0:0:0:
440,272,52135,5,0,0:0:0:0:
296,176,52444,1,0,0:0:0:0:
452,100,52753,1,4,0:0:0:0:
336,304,53063,1,0,0:0:0:0:
240,300,53372,6,0,P|132:296|28:280,1,190,4|0,0:0|0:0,0:0:0:0:
0,224,54300,1,0,0:0:0:0:
256,160,54609,1,4,0:0:0:0:
292,180,55846,6,0,P|328:144|388:128,1,95,4|0,0:0|0:0,0:0:0:0:
452,168,56465,2,0,P|464:216|452:264,1,95
454,259,56929,1,0,0:0:0:0:
388,308,57083,2,0,P|336:292|284:248,1,95
216,236,57702,2,0,P|168:224|104:244,1,95
124,232,58166,1,0,0:0:0:0:
40,200,58320,6,0,B|32:120|32:120|48:124,1,95,4|0,0:0|0:0,0:0:0:0:
46,123,58784,1,0,0:0:0:0:
132,120,58939,2,0,P|176:112|236:132,2,95
176,204,59867,1,0,0:0:0:0:
132,288,60176,2,0,P|204:292|252:272,1,95
320,284,60794,6,0,P|366:291|416:284,1,95,4|0,0:0|0:0,0:0:0:0:
413,284,61258,1,0,0:0:0:0:
480,212,61413,2,0,L|488:196|384:184,1,95
411,187,61877,1,0,0:0:0:0:
348,140,62032,2,0,P|304:148|232:140,1,95
152,56,62650,1,0,0:0:0:0:
44,112,62959,1,0,0:0:0:0:
92,196,63269,6,0,P|128:232|188:252,1,95,4|0,0:0|0:0,0:0:0:0:
72,284,63887,2,4,P|116:312|176:324,1,95,0|0,0:0|0:0,0:0:0:0:
252,328,64506,2,0,P|304:312|372:316,1,95
344,311,64970,1,0,0:0:0:0:
436,296,65279,2,0,L|468:260,1,47.5
412,76,65743,5,0,0:0:0:0:
324,44,66052,1,0,0:0:0:0:
300,64,66207,1,0,0:0:0:0:
276,88,66362,2,0,L|276:184,1,95
276,183,66825,1,0,0:0:0:0:
276,232,66980,2,0,B|276:272|276:272|276:336,1,95
196,300,67599,2,0,L|196:220,2,47.5,0|0|0,0:0|0:0|0:0,0:0:0:0:
120,240,68217,5,0,0:0:0:0:
16,108,68526,1,0,0:0:0:0:
168,160,68836,2,0,P|152:112|172:52,1,95
240,16,69300,1,0,0:0:0:0:
240,16,69454,2,0,P|296:20|356:72,1,95
376,76,69918,1,0,0:0:0:0:
376,76,70073,1,4,0:0:0:0:
376,200,70382,1,0,0:0:0:0:
444,132,70691,5,4,0:0:0:0:
140,184,71310,2,0,P|140:224|175:299,2,95
272,320,72547,2,0,P|264:256|216:208,1,95
176,168,73166,5,0,0:0:0:0:
212,80,73475,1,0,0:0:0:0:
212,80,73630,1,0,0:0:0:0:
212,80,73784,2,0,P|256:72|320:88,1,95
400,92,74403,2,0,P|380:136|332:168,1,95
312,280,75021,1,0,0:0:0:0:
232,232,75331,1,0,0:0:0:0:
152,284,75640,5,4,0:0:0:0:
120,252,75794,1,0,0:0:0:0:
88,216,75949,1,0,0:0:0:0:
56,180,76104,1,0,0:0:0:0:
32,140,76258,2,0,P|72:104|104:76,1,95
102,76,76722,1,0,0:0:0:0:
180,76,76877,2,0,B|232:84|232:84|296:92,1,95
274,89,77341,1,0,0:0:0:0:
268,176,77496,2,0,L|404:188,1,95
362,184,77959,1,0,0:0:0:0:
464,148,78114,6,0,P|472:200|436:260,1,95
456,238,78578,1,0,0:0:0:0:
432,312,78733,2,0,P|384:324|328:304,1,95
340,312,79197,1,0,0:0:0:0:
260,312,79351,2,0,P|216:300|136:312,1,95
167,302,79815,1,0,0:0:0:0:
167,302,79970,1,0,0:0:0:0:
156,208,80279,1,0,0:0:0:0:
252,200,80588,5,4,0:0:0:0:
252,200,80743,1,0,0:0:0:0:
252,200,80898,1,0,0:0:0:0:
252,200,81052,1,0,0:0:0:0:
252,200,81207,2,4,P|300:184|360:180,1,95,0|0,0:0|0:0,0:0:0:0:
420,144,81671,1,0,0:0:0:0:
420,144,81825,2,0,B|428:204|428:204|436:256,1,95
400,316,82289,1,0,0:0:0:0:
400,316,82444,2,0,L|344:316|272:316,1,95
304,220,83063,5,4,0:0:0:0:
280,180,83217,1,0,0:0:0:0:
240,152,83372,1,0,0:0:0:0:
196,140,83526,1,0,0:0:0:0:
148,152,83681,1,0,0:0:0:0:
56,124,83990,1,0,0:0:0:0:
56,124,84145,1,0,0:0:0:0:
56,124,84300,2,0,P|88:80|132:68,1,95
232,64,84764,1,0,0:0:0:0:
232,64,84918,2,0,P|276:64|328:112,1,95
272,284,85537,6,0,L|168:284,1,95,4|0,0:0|0:0,0:0:0:0:
177,284,86001,1,0,0:0:0:0:
80,284,86155,2,0,B|64:248|64:248|44:184,1,95,0|0,0:0|0:0,0:0:0:0:
47,194,86619,1,0,0:0:0:0:
52,112,86774,2,0,L|148:96,1,95
145,96,87238,1,0,0:0:0:0:
145,96,87392,1,0,0:0:0:0:
240,100,87702,1,0,0:0:0:0:
244,196,88011,6,0,L|288:196|344:196,1,95
339,196,88475,1,0,0:0:0:0:
288,280,88630,2,0,L|412:280,1,95
383,280,89093,1,0,0:0:0:0:
396,120,89248,2,0,L|284:120,1,95
301,120,89712,1,0,0:0:0:0:
301,120,89867,1,0,0:0:0:0:
164,140,90176,1,0,0:0:0:0:
80,188,90485,6,0,B|84:232|84:232|108:284,1,95,4|0,0:0|0:0,0:0:0:0:
105,278,90949,1,0,0:0:0:0:
172,224,91104,2,0,B|188:264|188:264|192:320,1,95
191,315,91568,1,0,0:0:0:0:
191,315,91722,1,0,0:0:0:0:
332,292,92032,1,0,0:0:0:0:
424,264,92341,2,0,P|436:216|424:148,1,95
431,171,92805,1,0,0:0:0:0:
352,144,92959,6,0,P|300:148|228:128,1,95,4|0,0:0|0:0,0:0:0:0:
212,124,93423,2,0,P|172:80|168:112,1,95,4|0,0:0|0:0,0:0:0:0:
177,74,93887,1,4,0:0:0:0:
84,72,94197,2,0,P|88:124|144:164,1,95
128,200,94660,2,0,P|116:252|64:272,1,95
82,271,95124,2,0,L|66:319,1,47.5
152,320,95434,6,0,L|264:320,1,95,4|0,0:0|0:0,0:0:0:0:
247,320,95898,1,0,0:0:0:0:
320,280,96052,2,0,P|372:272|412:288,1,95
410,286,96516,1,0,0:0:0:0:
484,252,96671,2,0,L|484:132,1,95
368,104,97289,1,0,0:0:0:0:
216,92,97599,1,0,0:0:0:0:
172,176,97908,6,0,P|124:120|136:64,1,95
126,104,98372,1,0,0:0:0:0:
88,32,98526,2,0,P|48:56|52:120,1,95
16,140,98990,1,0,0:0:0:0:
28,184,99145,2,0,P|56:216|36:280,1,95
136,320,99609,1,0,0:0:0:0:
136,320,99764,1,4,0:0:0:0:
268,300,100073,1,0,0:0:0:0:
292,112,100382,5,4,0:0:0:0:
188,88,101001,2,0,P|136:104|100:152,2,95,0|0|4,0:0|0:0|0:0,0:0:0:0:
240,272,102238,2,0,B|208:192|208:192|196:196,1,95,0|4,0:0|0:0,0:0:0:0:
199,194,102702,1,0,0:0:0:0:
128,148,102856,6,0,P|76:160|16:144,1,95,4|0,0:0|0:0,0:0:0:0:
80,68,103475,1,0,0:0:0:0:
104,52,103784,1,0,0:0:0:0:
216,96,104093,2,0,B|272:84|320:136|320:136|380:96|380:96|380:72,2,190
