osu file format v14

[General]
AudioFilename: Detective Conan Opening 27 - Magic.mp3
AudioLeadIn: 0
PreviewTime: 56132
Countdown: 0
SampleSet: Soft
StackLeniency: 0.7
Mode: 0
LetterboxInBreaks: 0
WidescreenStoryboard: 1

[Editor]
DistanceSpacing: 1.3
BeatDivisor: 4
GridSize: 4
TimelineZoom: 1

[Metadata]
Title:MAGIC
TitleUnicode:MAGIC
Artist:Rina Aiuchi
ArtistUnicode:愛内 里菜
Creator:Kuey
Version:Hard
Source:Detective Conan
Tags:Meitantei Conan CaseClosed
BeatmapID:709104
BeatmapSetID:318443

[Difficulty]
HPDrainRate:3
CircleSize:3
OverallDifficulty:4
ApproachRate:5
SliderMultiplier:1.5
SliderTickRate:1

[Events]
//Background and Video events
0,0,"case_closed__soccer__by_esgros-d59mpb4444.jpg",0,0
//Break Periods
//Storyboard Layer 0 (Background)
//Storyboard Layer 1 (Fail)
//Storyboard Layer 2 (Pass)
//Storyboard Layer 3 (Foreground)
//Storyboard Sound Samples

[TimingPoints]
6362,618.556701030928,4,2,1,70,1,0
55823,-100,4,2,1,70,0,1
74379,-100,4,2,1,70,0,0
85514,-100,4,2,1,70,0,1
100359,-100,4,2,1,70,0,0

[HitObjects]
72,180,6362,6,0,P|84:144|116:108,1,75,4|0,0:0|0:0,0:0:0:0:
204,100,6980,1,0,0:0:0:0:
300,100,7289,1,0,0:0:0:0:
384,144,7599,2,0,P|356:180|348:224,1,75
408,284,8217,1,0,0:0:0:0:
316,320,8526,1,0,0:0:0:0:
220,312,8836,6,0,L|120:312,2,75,4|0|4,0:0|0:0|0:0,0:0:0:0:
284,236,9764,1,0,0:0:0:0:
224,156,10073,2,0,P|180:128|152:88,1,75,0|0,0:0|0:0,0:0:0:0:
92,48,10691,2,0,P|48:32|0:52,1,75,0|0,0:0|0:0,0:0:0:0:
40,132,11310,6,0,L|20:216,2,75,0|0|0,0:0|0:0|0:0,0:0:0:0:
136,160,12238,1,0,0:0:0:0:
192,240,12547,2,0,P|172:280|148:320,1,75,0|0,0:0|0:0,0:0:0:0:
60,304,13166,2,0,P|44:272|24:236,1,75,0|0,0:0|0:0,0:0:0:0:
8,140,13784,5,0,0:0:0:0:
88,88,14093,1,0,0:0:0:0:
124,180,14403,2,0,P|164:188|220:176,1,75,0|0,0:0|0:0,0:0:0:0:
272,120,15021,1,0,0:0:0:0:
464,164,16258,6,0,B|464:272|464:272|416:304,1,150,0|0,0:0|0:0,0:0:0:0:
332,296,17186,1,0,0:0:0:0:
236,296,17496,2,0,B|200:272|200:272|200:164,1,150,0|0,0:0|0:0,0:0:0:0:
236,72,18423,5,0,0:0:0:0:
144,44,18733,2,0,L|60:44,2,75,0|0|0,0:0|0:0|0:0,0:0:0:0:
92,128,19660,1,0,0:0:0:0:
24,196,19970,2,0,P|88:228|156:200,1,150,0|0,0:0|0:0,0:0:0:0:
344,168,21207,6,0,L|388:240,1,75,0|0,0:0|0:0,0:0:0:0:
296,276,21825,1,0,0:0:0:0:
212,324,22135,1,0,0:0:0:0:
116,308,22444,2,0,P|84:244|88:220,2,75,0|0|0,0:0|0:0|0:0,0:0:0:0:
180,236,23372,1,0,0:0:0:0:
252,172,23681,2,0,P|212:144|160:144,1,75,0|0,0:0|0:0,0:0:0:0:
148,52,24300,1,0,0:0:0:0:
52,56,24609,1,0,0:0:0:0:
24,148,24918,1,0,0:0:0:0:
216,120,25537,6,0,L|300:120,1,75,0|0,0:0|0:0,0:0:0:0:
376,72,26155,1,0,0:0:0:0:
456,128,26465,1,0,0:0:0:0:
456,224,26774,2,0,P|440:272|408:304,1,75,0|0,0:0|0:0,0:0:0:0:
328,304,27392,1,0,0:0:0:0:
272,224,27702,1,0,0:0:0:0:
200,160,28011,6,0,L|112:132,2,75,0|0|0,0:0|0:0|0:0,0:0:0:0:
128,224,28939,1,2,0:0:0:0:
56,288,29248,2,0,B|92:324|124:328|164:324|196:292,1,150,0|0,0:0|0:0,0:0:0:0:
224,104,30485,2,0,L|308:84,1,75,0|0,0:0|0:0,0:0:0:0:
392,112,31104,5,0,0:0:0:0:
484,76,31413,1,0,0:0:0:0:
500,172,31722,2,0,P|504:204|488:256,2,75,0|0|0,0:0|0:0|0:0,0:0:0:0:
408,208,32650,1,0,0:0:0:0:
392,304,32959,2,0,P|348:284|324:248,1,75,0|0,0:0|0:0,0:0:0:0:
248,212,33578,2,0,P|208:196|156:192,2,75,0|0|0,0:0|0:0|0:0,0:0:0:0:
184,284,34506,1,0,0:0:0:0:
88,284,34815,2,0,P|48:264|32:220,1,75,0|0,0:0|0:0,0:0:0:0:
44,140,35434,2,0,L|44:64,1,75,0|0,0:0|0:0,0:0:0:0:
140,60,36052,6,0,P|176:88|216:92,1,75,4|0,0:0|0:0,0:0:0:0:
288,44,36671,1,0,0:0:0:0:
372,92,36980,2,0,P|424:64|460:64,1,75,0|0,0:0|0:0,0:0:0:0:
504,136,37599,1,0,0:0:0:0:
416,180,37908,1,0,0:0:0:0:
480,256,38217,1,0,0:0:0:0:
408,324,38526,2,0,P|340:308|320:312,2,75,4|4|0,0:0|0:0|0:0,0:0:0:0:
416,228,39454,2,0,B|376:184|376:184|324:212|324:212|268:160,1,150,4|0,0:0|0:0,0:0:0:0:
212,228,40382,1,0,0:0:0:0:
160,52,41001,6,0,L|88:92,1,75,4|0,0:0|0:0,0:0:0:0:
192,72,41619,2,0,L|204:148,1,75,0|0,0:0|0:0,0:0:0:0:
220,48,42238,2,0,L|300:60,1,75,0|0,0:0|0:0,0:0:0:0:
384,100,42856,1,0,0:0:0:0:
320,172,43166,1,0,0:0:0:0:
360,260,43475,6,0,P|324:280|280:268,1,75,4|0,0:0|0:0,0:0:0:0:
200,244,44093,1,0,0:0:0:0:
132,172,44403,2,0,L|72:220,1,75,4|0,0:0|0:0,0:0:0:0:
124,304,45021,1,0,0:0:0:0:
32,332,45331,2,0,P|8:288|12:236,1,75,0|0,0:0|0:0,0:0:0:0:
20,168,45949,6,0,L|20:88,2,75,4|0|4,0:0|0:0|0:0,0:0:0:0:
116,176,46877,1,0,0:0:0:0:
212,172,47186,2,0,P|256:172|292:188,1,75,0|0,0:0|0:0,0:0:0:0:
316,92,47805,1,0,0:0:0:0:
400,40,48114,1,0,0:0:0:0:
480,96,48423,6,0,L|440:168,1,75,4|0,0:0|0:0,0:0:0:0:
456,260,49042,1,0,0:0:0:0:
364,228,49351,1,4,0:0:0:0:
292,292,49660,1,0,0:0:0:0:
224,224,49970,1,0,0:0:0:0:
156,156,50279,2,0,L|72:156,1,75,0|0,0:0|0:0,0:0:0:0:
48,64,50898,5,4,0:0:0:0:
244,60,51516,1,4,0:0:0:0:
440,56,52135,1,0,0:0:0:0:
388,244,52753,2,0,B|416:216|456:216|508:224|524:288,1,150,4|4,0:0|0:0,0:0:0:0:
444,304,53681,1,0,0:0:0:0:
348,328,53990,2,0,L|244:344,1,75,0|0,0:0|0:0,0:0:0:0:
184,296,54609,1,4,0:0:0:0:
180,328,55846,6,0,L|128:260,1,75,4|0,0:0|0:0,0:0:0:0:
64,200,56465,1,0,0:0:0:0:
160,180,56774,1,0,0:0:0:0:
252,152,57083,2,0,L|308:244,1,75,0|0,0:0|0:0,0:0:0:0:
384,248,57702,6,0,P|440:240|444:204,2,75,0|0|4,0:0|0:0|0:0,0:0:0:0:
340,160,58630,1,0,0:0:0:0:
432,128,58939,2,0,L|416:48,1,75,0|0,0:0|0:0,0:0:0:0:
320,60,59557,1,0,0:0:0:0:
224,80,59867,1,0,0:0:0:0:
128,100,60176,2,0,P|84:120|44:148,1,75,0|0,0:0|0:0,0:0:0:0:
44,232,60794,6,0,L|56:312,1,75,4|0,0:0|0:0,0:0:0:0:
152,308,61413,1,0,0:0:0:0:
248,312,61722,1,0,0:0:0:0:
292,224,62032,2,0,P|244:168|256:80,1,150,0|0,0:0|0:0,0:0:0:0:
324,48,62959,1,0,0:0:0:0:
388,120,63269,6,0,P|424:168|432:256,1,150,4|0,0:0|0:0,0:0:0:0:
404,348,64197,1,0,0:0:0:0:
308,300,64506,2,0,P|248:264|212:256,1,75,0|0,0:0|0:0,0:0:0:0:
156,220,65124,2,0,L|72:220,1,75,0|0,0:0|0:0,0:0:0:0:
108,128,65743,6,0,P|124:72|160:48,1,75,0|0,0:0|0:0,0:0:0:0:
228,108,66362,1,0,0:0:0:0:
168,184,66671,1,0,0:0:0:0:
252,192,66980,2,0,P|264:248|228:272,1,75,0|0,0:0|0:0,0:0:0:0:
352,268,67599,2,0,L|420:192,2,75,0|0|0,0:0|0:0|0:0,0:0:0:0:
436,320,68526,5,0,0:0:0:0:
500,244,68836,2,0,L|500:144,1,75,0|0,0:0|0:0,0:0:0:0:
480,72,69454,1,0,0:0:0:0:
388,36,69764,1,0,0:0:0:0:
376,132,70073,2,0,P|308:128|240:80,1,150,4|4,0:0|0:0,0:0:0:0:
116,232,71310,6,0,P|76:184|72:160,2,75,0|0|4,0:0|0:0|0:0,0:0:0:0:
224,72,72547,6,0,P|272:60|320:76,2,75,0|0|0,0:0|0:0|0:0,0:0:0:0:
264,160,73475,1,0,0:0:0:0:
340,220,73784,2,0,B|328:248|276:268|236:268|184:220,1,150,0|0,0:0|0:0,0:0:0:0:
444,44,75640,5,4,0:0:0:0:
348,64,75949,1,0,0:0:0:0:
416,132,76258,1,0,0:0:0:0:
320,148,76568,1,0,0:0:0:0:
232,188,76877,2,0,L|200:84,1,75,0|0,0:0|0:0,0:0:0:0:
124,68,77496,5,0,0:0:0:0:
40,120,77805,1,0,0:0:0:0:
124,168,78114,1,0,0:0:0:0:
204,116,78423,1,0,0:0:0:0:
276,48,78733,2,0,P|316:80|368:80,1,75,0|0,0:0|0:0,0:0:0:0:
432,112,79351,1,0,0:0:0:0:
488,192,79660,1,0,0:0:0:0:
392,216,79970,6,0,P|328:188|300:192,2,75,0|0|4,0:0|0:0|0:0,0:0:0:0:
432,304,80898,1,0,0:0:0:0:
340,332,81207,1,0,0:0:0:0:
244,308,81516,1,0,0:0:0:0:
156,268,81825,2,0,P|104:276|72:252,1,75,0|0,0:0|0:0,0:0:0:0:
40,180,82444,2,0,L|24:96,2,75,0|0|4,0:0|0:0|0:0,0:0:0:0:
124,132,83372,5,0,0:0:0:0:
192,64,83681,2,0,P|248:48|276:68,1,75,0|0,0:0|0:0,0:0:0:0:
252,152,84300,2,0,L|252:232,1,75,0|0,0:0|0:0,0:0:0:0:
268,324,84918,2,0,P|336:316|352:296,1,75,0|0,0:0|0:0,0:0:0:0:
388,232,85537,6,0,P|348:200|320:200,1,75,4|0,0:0|0:0,0:0:0:0:
228,196,86155,1,0,0:0:0:0:
156,128,86465,1,0,0:0:0:0:
80,64,86774,2,0,P|48:104|48:136,1,75,0|0,0:0|0:0,0:0:0:0:
48,224,87392,1,0,0:0:0:0:
12,316,87702,1,0,0:0:0:0:
108,324,88011,6,0,L|216:324,1,75,0|0,0:0|0:0,0:0:0:0:
280,324,88630,2,0,P|308:292|320:256,1,75,0|0,0:0|0:0,0:0:0:0:
320,164,89248,2,0,L|392:96,2,75,0|0|0,0:0|0:0|0:0,0:0:0:0:
280,76,90176,1,0,0:0:0:0:
184,68,90485,6,0,L|136:132,1,75,4|0,0:0|0:0,0:0:0:0:
44,100,91104,1,0,0:0:0:0:
96,184,91413,1,0,0:0:0:0:
144,268,91722,2,0,L|68:296,1,75,0|0,0:0|0:0,0:0:0:0:
144,360,92341,1,0,0:0:0:0:
240,352,92650,1,0,0:0:0:0:
260,256,92959,6,0,L|376:284,2,112.5,4|4|4,0:0|0:0|0:0,0:0:0:0:
252,160,94197,2,0,L|240:44,2,112.5,0|0|0,0:0|0:0|0:0,0:0:0:0:
156,152,95434,6,0,L|84:112,1,75,4|0,0:0|0:0,0:0:0:0:
168,56,96052,1,0,0:0:0:0:
264,32,96362,1,0,0:0:0:0:
352,72,96671,2,0,P|404:104|428:108,1,75,0|0,0:0|0:0,0:0:0:0:
480,180,97289,2,0,L|480:256,2,75,0|0|0,0:0|0:0|0:0,0:0:0:0:
396,240,98217,5,0,0:0:0:0:
304,204,98526,2,0,P|264:160|228:164,1,75,0|0,0:0|0:0,0:0:0:0:
156,124,99145,1,0,0:0:0:0:
64,148,99454,1,0,0:0:0:0:
16,232,99764,2,0,P|48:324|96:364,1,150,4|4,0:0|0:0,0:0:0:0:
268,288,101001,6,4,L|268:180,2,75,0|0|4,0:0|0:0|0:0,0:0:0:0:
444,204,102238,6,0,P|456:136|448:128,2,75,0|4|4,0:0|0:0|0:0,0:0:0:0:
468,300,103166,1,0,0:0:0:0:
372,320,103475,2,0,P|324:296|312:272,1,75,0|0,0:0|0:0,0:0:0:0:
284,188,104093,2,0,P|224:172|128:168,1,150,0|0,0:0|0:0,0:0:0:0:
256,192,105021,12,0,107959,0:0:0:0:
