osu file format v5

[General]
AudioFilename: 02 - Rockman X7 [Opening] - Rina Aiuchi - CODE CRUSH.mp3
AudioLeadIn: 0
PreviewTime: -1
Countdown: 1
SampleSet: Soft
EditorBookmarks: -19,26939,30515,32117,35834

[Metadata]
Title:CODE CRUSH
Artist:Rina Aiuchi
Creator:eirrol
Version:Crashing!!

[Difficulty]
HPDrainRate:7
CircleSize:6
OverallDifficulty:5
SliderMultiplier:1.7
SliderTickRate:2

[Events]
//Background and Video events
//Break Periods
//Storyboard Layer 0 (Background)
//Storyboard Layer 1 (Failing)
//Storyboard Layer 2 (Passing)
//Storyboard Layer 3 (Foreground)
//Storyboard Sound Samples
//Background Colour Transformations
3,100,163,162,255

[TimingPoints]
994,810.810810810811,4,2,0,100
27024,750,4,1,0,100
29933,582.52427184466,4,1,0,100
32284,521.739130434783,4,1,0,100
34346,458.015267175572,4,1,0,100
36075,451.127819548872,4,1,0,100
52399,451.127819548872,4,1,0,100
66891,454.545454545455,4,1,0,100
81431,454.545454545455,4,1,0,100
126880,476.190476190476,4,2,0,100
128420,526.315789473684,4,2,0,100
130130,631.578947368421,4,2,0,100
130130,582.52427184466,4,2,0,100
132190,750,4,2,0,100
133870,810.810810810811,4,2,0,100
134646,810.810810810811,4,2,0,100

[HitObjects]
464,336,994,1,0
328,240,1804,1,0
176,304,2615,1,0
80,168,3426,1,0
64,336,4237,1,0
224,280,5048,1,0
112,160,5858,1,0
280,152,6669,1,0
200,296,7480,5,0
136,136,8291,1,0
296,184,9102,1,0
392,48,9912,1,0
288,112,10521,5,0
248,112,10723,1,0
160,120,11129,1,0
88,168,11534,1,0
88,248,11939,1,0
168,240,12345,6,0,B|201:202|272:224,1,85
328,216,13156,2,0,B|373:216|416:272,1,85
336,304,13966,5,2
168,296,14777,1,2
256,152,15588,1,2
88,184,16399,1,2
208,64,17210,5,2
376,88,18021,1,2
256,208,18831,1,2
384,312,19642,1,2
224,264,20453,5,0
64,328,21264,1,0
80,160,22075,2,0,B|152:112|264:160,1,170
312,96,23291,1,0
320,176,23696,5,0
280,248,24102,1,0
200,216,24507,2,4,B|104:176,3,85
192,136,26129,1,0
272,136,26534,1,2
296,216,26939,6,0,B|232:288|120:256,1,170
64,208,28149,1,0
144,208,28524,1,0
224,208,28899,1,0
296,160,29274,1,0
312,80,29649,1,0
232,56,29933,6,0,B|128:88|128:176,1,170
128,256,30833,1,0
192,304,31133,1,0
272,288,31433,1,0
320,104,32033,1,0
248,72,32284,6,0,B|56:152,1,170
88,208,33066,1,0
144,264,33327,1,0
224,264,33588,2,0,B|408:168,1,170
208,216,34575,1,0
224,136,34804,1,0
136,128,35033,1,0
64,96,35262,1,0
128,48,35491,1,0
288,40,35949,6,0,B|424:160,1,170
344,208,36638,1,0
128,304,37090,5,0
152,240,37316,1,0
200,80,37766,2,0,B|480:80,1,255
392,328,39120,5,0
320,176,39571,2,0,B|56:176,1,255
280,48,40924,1,0
256,208,41375,5,0
40,336,42052,1,0
152,240,42616,1,0
208,240,42842,1,0
264,240,43067,1,0
312,136,43293,6,0,B|128:136,2,170
240,40,44646,1,0
120,48,45097,2,0,B|120:232,2,170
200,128,46450,1,0
336,256,46902,5,0
128,344,47578,1,0
96,112,48255,1,0
216,184,48593,5,0
240,216,48706,1,0
312,216,48932,1,0
384,216,49157,1,0
440,176,49383,1,0
440,136,49496,1,0
368,56,49834,1,0
296,56,50059,1,0
256,192,50285,12,4,51864
104,88,52316,1,0
104,88,52399,1,0
144,144,52680,1,0
184,200,52962,1,0
184,200,53075,1,0
304,152,53526,5,0
360,152,53752,1,0
416,152,53977,1,0
408,200,54203,5,0
408,200,54316,1,0
384,248,54541,1,0
360,296,54767,1,0
360,296,54880,1,0
240,296,55331,6,0,B|64:296,1,170
96,240,56008,1,0
96,240,56120,1,0
136,200,56346,1,0
184,152,56628,1,0
184,152,56741,1,0
288,128,57135,5,0
344,128,57361,1,0
400,128,57586,1,0
400,72,57812,2,0,B|216:72,2,170
448,72,58940,1,0
448,128,59165,1,0
448,184,59391,1,0
448,240,59617,5,0
448,240,59700,1,0
376,232,59981,1,0
328,176,60263,1,0
328,176,60376,1,0
224,232,60744,5,0
168,232,60970,1,0
112,232,61195,1,0
104,176,61421,5,0
104,176,61534,1,0
128,120,61759,1,0
152,64,61985,1,0
152,64,62098,1,0
264,88,62549,6,0,B|440:88,1,170
416,144,63226,1,0
416,144,63338,1,0
376,184,63564,1,0
320,232,63846,1,0
320,232,63959,1,0
224,256,64353,5,0
168,256,64579,1,0
112,256,64804,1,0
112,312,65030,2,0,B|296:312,2,170
64,312,66158,1,0
64,256,66383,1,0
64,200,66609,1,0
64,144,66835,6,0,B|128:144,1,42.5
184,144,67231,1,0
240,144,67459,2,0,B|288:144,1,42.5
400,144,68027,6,0,B|442:177|432:240,2,85
352,176,68709,2,0,B|304:224,1,42.5
280,240,69050,1,0
240,280,69277,2,0,B|200:320,1,42.5
192,192,69845,6,0,B|16:192,1,170
24,136,70527,2,0,B|120:136,1,85
144,136,70868,1,0
200,136,71096,1,0
200,136,71209,1,0
304,88,71663,6,0,B|232:184|360:226|272:328,1,255
176,296,72800,2,0,B|124:311|72:256,1,85
88,192,73481,1,0
88,192,73594,1,0
88,192,73708,1,0
88,136,73936,5,0
88,80,74163,1,4
184,144,74618,1,0
240,144,74846,2,0,B|288:144,1,42.5
400,144,75295,6,0,B|442:177|432:240,2,85
352,176,75977,2,0,B|304:224,1,42.5
280,240,76318,1,0
240,280,76545,2,0,B|200:320,1,42.5
192,192,77113,6,0,B|16:192,1,170
24,136,77795,2,0,B|120:136,1,85
144,136,78136,1,0
200,136,78364,1,0
200,136,78477,1,0
304,88,78931,6,0,B|232:184|360:226|272:328,1,255
176,296,80068,2,0,B|124:311|72:256,1,85
88,192,80749,1,0
88,192,80862,1,0
88,192,80976,1,4
88,136,81204,5,0
88,80,81431,1,4
184,136,81885,1,0
288,192,82340,1,0
384,256,82794,1,0
392,312,83021,1,0
336,312,83249,6,0,B|152:312,2,170
336,256,84385,1,0
336,208,84612,1,0
336,152,84840,2,0,B|152:152,2,170
336,88,85976,6,0,B|280:56|224:104,1,85
224,120,86431,2,0,B|184:176|144:168,1,85
120,208,86885,2,0,B|96:288|176:328|248:312,1,170
264,288,87567,1,0
368,232,88021,1,0
392,176,88249,1,4
408,120,88476,1,0
384,64,88703,5,4
288,136,89158,1,0
200,208,89613,1,0
96,264,90067,1,0
120,312,90294,1,0
176,312,90522,6,0,B|360:312,2,170
176,256,91658,1,0
176,208,91885,1,0
176,152,92113,2,0,B|360:152,2,170
176,88,93249,6,0,B|232:56|288:104,1,85
288,120,93704,2,0,B|328:176|368:168,1,85
392,208,94158,2,4,B|384:326|280:336,1,170
240,336,94840,1,0
184,336,95067,1,4
144,232,95521,5,0
144,232,95635,1,0
144,232,95749,1,0
144,232,95862,1,0
240,192,96203,5,0
280,232,96431,2,0,B|320:208|336:152,1,85
312,112,96885,2,0,B|232:64|144:120,1,170
72,200,97794,1,0
112,232,98021,1,0
160,256,98249,6,0,B|249:210|352:272,1,170
368,288,98931,1,0
408,224,99612,6,0,B|448:176|432:128,1,85
400,128,99953,1,0
312,120,100294,1,0
264,152,100521,1,0
224,112,100749,1,0
88,224,101431,6,0,B|148:273|184:200|264:240,1,170
208,128,102340,2,0,B|259:164|324:101|392:152,1,170
424,168,103021,1,0
424,224,103249,6,0,B|368:224,1,42.5
320,224,103590,1,0
232,224,103931,1,0
176,232,104158,1,0
136,272,104385,1,0
120,168,104840,1,0
168,152,105067,5,0
168,152,105181,1,0
240,104,105521,2,0,B|285:85|344:112,1,85
352,152,105976,2,0,B|397:189|456:144,1,85
392,112,106431,1,0
464,200,106885,6,0,B|368:341|247:321|286:197|127:149|16:272,1,510
72,296,108476,1,0
128,304,108703,1,0
224,256,109158,1,0
328,208,109612,1,0
384,208,109840,1,0
440,208,110067,1,0
440,152,110294,1,0
384,152,110521,6,0,B|24:152,1,340
48,96,111658,1,0
48,272,112340,6,0,B|400:272,1,340
384,216,113476,1,0
224,192,114158,5,0
224,192,114271,1,0
280,192,114499,1,0
344,136,114840,1,0
392,136,115067,1,0
432,96,115294,1,0
384,56,115521,1,0
328,48,115749,1,0
280,80,115976,1,0
160,88,116431,1,0
160,200,116885,5,0
136,248,117112,1,0
192,248,117340,1,0
248,248,117567,1,0
304,248,117794,6,0,B|304:144,2,85
304,304,118476,1,0
304,360,118703,2,0,B|432:360,1,85
416,192,119612,6,0,B|344:136|248:200,1,170
208,224,120294,1,0
160,256,120521,1,0
112,224,120749,1,0
72,64,121431,6,0,B|184:64,2,85
88,120,122112,1,0
136,144,122340,1,0
184,120,122567,1,0
296,120,123021,1,0
296,120,123135,1,0
296,120,123249,1,4
416,120,123703,1,4
256,192,123931,12,4,125067
72,80,125520,1,0
104,192,125974,1,0
224,152,126429,1,0
336,112,126883,1,0
424,184,127338,1,0
360,296,127792,1,0
232,272,128308,1,0
144,168,128946,5,0
248,104,129472,1,0
360,168,130130,1,0
312,256,130761,1,0
200,224,131393,5,0
80,160,132182,1,0
200,120,132940,1,0
312,160,133690,1,0
376,272,134680,5,0
264,272,135456,1,0
144,264,136267,2,0,B|144:64,2,170
256,264,138700,1,0
376,264,139510,2,0,B|376:64,2,170
272,312,141943,5,0
168,272,142754,1,0
232,224,143362,1,0
232,224,143463,1,0
232,224,143564,1,0
184,192,143970,5,0
216,152,144375,1,0
264,168,144781,1,0
296,136,145186,1,0
344,152,145591,1,0
384,112,145997,5,2
360,64,146402,1,2
304,40,146808,1,2
248,56,147213,1,2
192,56,147618,1,4
