osu file format v6

[General]
AudioFilename: Rin Kagamine - Meltdown.mp3
AudioLeadIn: 0
PreviewTime: 68653
Countdown: 0
SampleSet: Soft
StackLeniency: 0.3
Mode: 0
LetterboxInBreaks: 1

[Editor]
DistanceSpacing: 0.800000011920929
BeatDivisor: 8
GridSize: 8

[Metadata]
Title:Meltdown
Artist:Rin Kagamine
Creator:xxheroxx
Version:Hard
Source:
Tags:

[Difficulty]
HPDrainRate:6
CircleSize:5
OverallDifficulty:5
SliderMultiplier:1.9
SliderTickRate:2

[Events]
//Background and Video events
Video,0,"video.AVI"
0,0,"meltdown.jpg"
//Break Periods
2,92126,100908
2,164126,185271
2,233944,257999
//Storyboard Layer 0 (Background)
//Storyboard Layer 1 (Fail)
//Storyboard Layer 2 (Pass)
//Storyboard Layer 3 (Foreground)
//Storyboard Sound Samples
//Background Colour Transformations
3,100,255,255,255

[TimingPoints]
8290,727.272727272727,4,2,0,100,1,0
67767,-100,4,1,0,100,0,0
68585,-100,4,2,0,100,0,1
91858,-100,4,2,0,100,0,0
91949,-100,4,2,0,100,0,1
92040,-100,4,1,0,100,0,0
103312,-100,4,2,0,100,0,0
139858,-100,4,1,0,100,0,0
140585,-100,4,2,0,100,0,1
163858,-100,4,2,0,100,0,0
163949,-100,4,2,0,100,0,1
164040,-100,4,2,0,100,0,0
185767,-200,4,2,1,100,0,0
258858,-100,4,1,0,100,0,0
259858,-100,4,2,0,100,0,0
272767,-100,4,2,0,0,0,0
272949,-100,4,2,0,100,0,0
273676,-100,4,2,0,100,0,1
296949,-100,4,2,0,100,0,0
297040,-100,4,2,0,100,0,1
308585,-100,4,2,0,100,0,0
308676,-100,4,2,0,100,0,1
320222,-100,4,2,0,100,0,0
320312,-100,4,2,0,100,0,1

[Colours]
Combo1 : 227,200,2
Combo2 : 255,0,0
Combo3 : 67,188,254
Combo4 : 131,242,49

[HitObjects]
40,336,31380,1,0
40,336,31562,1,2
112,336,31926,1,0
152,336,32108,1,0
192,336,32290,1,2
264,336,32653,1,0
304,336,32835,5,0
304,336,33017,1,2
344,336,33199,1,0
344,336,33380,1,0
384,336,33562,1,0
384,336,33744,2,0,B|488:336,1,95,2|0
480,296,34290,5,0
480,256,34471,2,0,B|480:136,1,95,2|0
440,160,35017,1,0
400,160,35199,2,0,B|280:160,1,95,2|0
264,160,35744,2,0,B|192:160|192:240,1,95,0|2
184,248,36290,1,0
168,280,36471,2,0,B|136:328|56:320|56:248,1,142.5,2|4
40,232,37199,5,0
32,192,37380,2,0,B|8:136|64:96,1,95,2|0
88,88,37926,1,0
120,72,38108,1,2
160,72,38289,2,0,B|264:72,1,95,0|0
296,72,38835,5,2
296,72,39017,1,0
336,72,39199,1,0
336,72,39380,1,0
376,72,39562,1,2
376,72,39744,1,0
416,72,39926,1,0
448,96,40108,5,0
464,128,40289,2,0,B|480:200|440:264,1,95,2|0
440,248,40835,1,0
408,264,41017,2,0,B|344:304|272:264,1,95,2|2
280,272,41562,2,0,B|208:248|200:176,1,95,2|2
192,176,42108,2,0,B|168:120|104:128,1,95,2|4
80,128,42653,5,0
40,136,42835,1,0
16,168,43017,1,0
8,208,43199,2,0,B|0:256|40:312,1,95,2|0
56,320,43744,1,0
88,336,43926,1,2
128,344,44108,1,0
168,336,44289,1,2
200,320,44471,2,0,B|272:248|320:304|352:352|440:328|480:288|432:240,1,285,2|0
448,232,45744,5,0
448,192,45926,1,0
448,152,46108,2,0,B|448:56,1,95,2|0
368,56,46835,2,0,B|368:160,1,95,2|0
368,184,47380,2,0,B|368:296,1,95,2|0
360,312,47926,1,0
328,336,48108,2,0,B|272:376|232:328,1,95,2|0
208,312,48653,5,0
176,288,48835,1,0
152,256,49017,2,0,B|112:200|160:152,1,95,2|0
176,144,49562,1,0
192,112,49744,1,2
168,80,49926,1,0
128,72,50108,1,2
88,80,50289,2,0,B|16:120|-24:272|136:304,1,285,2|0
152,304,51562,5,0
192,312,51744,1,0
232,312,51926,1,2
304,288,52289,1,0
368,248,52653,1,2
416,192,53017,1,0
416,192,53199,2,0,B|472:144|432:80,1,95,2|0
424,72,53744,1,0
392,48,53926,1,2
352,56,54108,5,4
320,80,54289,5,0
288,96,54471,1,0
248,104,54653,1,0
208,104,54835,2,0,B|112:104,1,95,2|0
80,120,55380,1,0
64,152,55562,1,2
64,192,55744,1,0
72,232,55926,1,0
96,264,56108,1,0
128,280,56289,1,2
160,296,56471,1,0
200,304,56653,1,2
240,304,56835,1,2
312,296,57199,5,0
344,288,57380,1,0
376,272,57562,1,0
400,248,57744,2,2,B|456:208|408:136,1,95
392,96,58471,1,0
360,72,58653,1,0
328,56,58835,1,0
288,48,59017,2,2,B|184:48,1,95
152,56,59562,1,0
128,88,59744,1,0
120,128,59926,1,2
144,160,60108,1,0
176,176,60289,1,2
208,160,60471,1,0
232,136,60653,6,0,B|256:88|336:104,1,95,2|0
352,112,61199,1,0
384,136,61380,1,2
400,168,61562,1,0
392,208,61744,1,0
368,240,61926,1,0
336,256,62108,1,2
296,264,62289,1,0
256,264,62471,2,2,B|208:272|184:240,1,47.5
136,232,63017,5,0
96,216,63199,1,0
56,224,63380,1,0
32,248,63562,2,0,B|0:304|56:344,1,95,2|0
80,352,64108,1,0
120,360,64289,1,2
160,352,64471,1,0
192,336,64653,1,0
216,312,64835,2,2,B|256:264|232:192,1,95
224,192,65380,1,0
256,192,65562,12,0,67926
256,320,68108,5,0
256,280,68289,1,0
256,256,68380,1,0
256,232,68471,1,0
256,192,68653,5,2
200,136,69017,1,0
256,80,69380,1,2
312,136,69744,1,0
280,208,70108,2,0,B|280:312,1,95,2|0
240,304,70653,2,0,B|240:192,1,95,2|0
176,256,71380,5,0
176,256,71562,2,0,B|48:256|48:144|128:104,1,237.5,4|0
160,88,72653,1,0
200,80,72835,1,0
240,88,73017,2,0,B|296:96|312:144,1,95,4|0
320,176,73562,2,0,B|328:240|400:248,1,95,4|0
416,256,74108,1,0
448,264,74289,2,0,B|496:288|496:344|448:368|400:360|368:296|336:264|264:312,1,285,4|0
248,320,75562,5,0
216,344,75744,1,0
176,344,75926,2,2,B|16:344,2,142.5
112,304,77380,6,0,B|112:168,1,95
112,168,77926,1,2
120,128,78108,1,0
144,96,78289,2,2,B|168:56|208:56,1,47.5
216,56,78653,1,0
256,56,78835,1,2
288,64,79017,1,0
312,88,79199,1,2
320,120,79380,1,0
328,160,79562,1,2
344,192,79744,1,0
376,216,79926,1,2
448,240,80289,6,0,B|504:272|472:320,1,95,2|0
400,296,81017,2,0,B|368:352|320:320,1,95,2|0
264,272,81744,2,0,B|208:232|160:288,1,95,2|0
152,296,82289,2,0,B|96:336|48:280,1,95,2|0
88,224,83017,5,0
88,224,83199,2,0,B|40:184|32:136|72:80|136:64|176:104,1,237.5,4|0
200,120,84289,1,0
216,152,84471,1,0
240,184,84653,2,0,B|272:240|360:216,1,95,4|0
360,224,85199,2,0,B|424:216|440:152,1,95,4|0
480,112,85926,2,0,B|520:80|520:24|472:0|424:16|424:80|360:104|288:56,1,285,4|0
272,48,87199,5,0
240,24,87380,1,0
200,24,87562,2,2,B|40:24,2,142.5
128,56,89017,6,0,B|128:192,1,95
128,192,89562,1,2
128,232,89744,1,0
128,272,89926,1,2
128,312,90108,1,2
128,352,90289,1,0
256,192,90471,12,4,91926
192,80,102108,5,0
232,80,102289,1,0
272,80,102471,1,0
312,80,102653,1,0
256,136,103017,1,0
256,136,103108,1,0
256,136,103199,1,0
256,176,103380,5,0
256,216,103562,1,2
216,280,103926,1,0
256,280,104108,1,0
296,280,104289,1,2
256,344,104653,1,0
216,344,104835,6,0,B|128:344,1,47.5,2|0
128,344,105199,2,0,B|64:296,1,47.5,2|0
56,288,105562,2,0,B|56:208,1,47.5,2|0
56,200,105926,2,0,B|128:160,1,47.5,2|0
128,160,106289,5,0
160,144,106471,1,2
224,104,106835,1,0
256,80,107017,1,0
280,104,107199,1,2
344,144,107562,1,0
368,168,107744,2,0,B|424:200|392:280,1,95,2|0
384,280,108289,1,2
360,312,108471,2,0,B|272:392|184:320,1,190,2|0
160,304,109380,5,2
104,248,109744,1,0
64,248,109926,1,0
24,248,110108,1,2
64,184,110471,5,0
64,144,110653,1,2
64,144,110835,1,0
64,144,111017,1,2
64,104,111199,1,0
64,64,111380,1,2
64,64,111562,1,2
64,64,111744,1,0
64,24,111926,1,2
104,24,112108,5,0
144,24,112289,2,0,B|272:24,1,95,2|0
280,24,112835,1,0
320,24,113017,2,0,B|448:24,1,95,2|0
416,64,113562,2,0,B|312:64,1,95,2|0
320,104,114108,2,0,B|488:104,1,142.5,2|0
464,144,114835,5,0
464,184,115017,1,0
464,224,115199,2,0,B|464:280|408:304,1,95,4|0
376,312,115744,1,0
336,312,115926,1,2
296,312,116108,1,0
256,296,116289,1,2
232,264,116471,2,0,B|168:192|184:112|240:64|320:56,1,285,2|0
352,48,117744,5,0
392,48,117926,1,0
432,48,118108,1,2
392,112,118471,2,2,B|392:224,1,95
352,208,119017,1,0
328,176,119199,1,0
304,144,119380,2,2,B|232:208,1,95
208,176,119926,1,0
184,144,120108,2,2,B|112:208,1,95
80,232,120653,5,0
72,272,120835,1,0
80,312,121017,2,0,B|80:360|136:368|184:360,1,95,2|0
185,365,121562,1,0
222,362,121744,1,2
259,354,121926,1,0
293,338,122108,1,2
328,320,122289,2,0,B|392:248|376:168|320:120|240:112,1,285,2|0
208,104,123562,5,0
168,96,123744,1,0
128,104,123926,1,2
64,144,124289,2,2,B|152:184,1,95
176,208,124835,1,0
176,248,125017,1,2
144,272,125199,1,0
104,272,125380,1,2
80,304,125562,1,0
96,336,125744,1,2
128,352,125926,1,0
168,352,126108,5,4
208,352,126289,5,0
248,352,126471,1,0
288,352,126653,1,0
328,352,126835,2,0,B|456:352,1,95,6|0
456,352,127380,1,0
456,312,127562,1,2
424,288,127744,1,0
424,248,127926,1,0
392,224,128108,1,0
392,184,128289,1,2
352,184,128471,1,0
312,184,128653,1,2
312,224,128835,1,2
232,224,129199,5,0
232,184,129380,1,0
192,184,129562,1,0
152,184,129744,2,0,B|24:184,2,95,2|0|2
152,144,130653,1,0
152,104,130835,1,0
184,80,131017,2,2,B|256:40|304:112,1,95
304,104,131562,1,0
312,136,131744,1,2
344,152,131926,1,0
384,144,132108,1,2
400,112,132289,1,0
392,72,132471,1,2
416,40,132653,6,0,B|464:16|504:56|488:96,1,95,2|0
496,104,133199,1,0
488,144,133380,1,2
464,168,133562,1,0
432,192,133744,1,0
400,208,133926,2,2,B|352:248|288:200,1,95
272,200,134471,1,0
240,176,134653,1,2
192,120,135017,5,0
168,88,135199,1,0
128,72,135380,1,0
88,88,135562,2,0,B|16:120|72:184,1,95,2|0
120,208,136289,1,2
144,232,136471,1,0
144,272,136653,1,0
112,296,136835,1,4
72,288,137017,1,2
56,248,137199,1,0
256,192,137380,12,0,139926
256,64,140108,5,0
256,104,140289,1,0
256,128,140380,1,0
256,152,140471,1,0
256,192,140653,5,2
312,248,141017,1,0
256,304,141380,1,2
200,248,141744,1,0
232,176,142108,2,0,B|232:72,1,95,2|0
272,80,142653,2,0,B|272:192,1,95,2|0
336,128,143380,5,0
336,128,143562,2,0,B|464:128|464:240|384:280,1,237.5,4|0
352,296,144653,1,0
312,304,144835,1,0
272,296,145017,2,0,B|216:288|200:240,1,95,4|0
192,208,145562,2,0,B|184:144|112:136,1,95,4|0
96,128,146108,1,0
64,120,146289,2,0,B|16:96|16:40|64:16|112:24|144:88|176:120|248:72,1,285,4|0
264,64,147562,5,0
296,40,147744,1,0
336,40,147926,2,2,B|496:40,2,142.5
400,80,149380,6,0,B|400:216,1,95
400,216,149926,1,2
392,256,150108,1,0
368,288,150289,2,2,B|344:328|304:328,1,47.5
296,328,150653,1,0
256,328,150835,1,2
224,320,151017,1,0
200,296,151199,1,2
192,264,151380,1,0
184,224,151562,1,2
168,192,151744,1,0
136,168,151926,1,2
64,144,152289,6,0,B|8:112|40:64,1,95,2|0
112,88,153017,2,0,B|144:32|192:64,1,95,2|0
248,112,153744,2,0,B|304:152|352:96,1,95,2|0
360,88,154289,2,0,B|416:48|464:104,1,95,2|0
424,160,155017,5,0
424,160,155199,2,0,B|472:200|480:248|440:304|376:320|336:280,1,237.5,4|0
312,264,156289,1,0
296,232,156471,1,0
272,200,156653,2,0,B|240:144|152:168,1,95,4|0
152,160,157199,2,0,B|88:168|72:232,1,95,4|0
32,272,157926,2,0,B|-8:304|-8:360|40:384|88:368|88:304|152:280|224:328,1,285,4|0
240,336,159199,5,0
272,360,159380,1,0
312,360,159562,2,2,B|472:360,2,142.5
384,328,161017,6,0,B|384:192,1,95
384,192,161562,1,2
384,152,161744,1,0
384,112,161926,1,2
384,72,162108,1,2
384,32,162289,1,0
256,192,162471,12,4,163926
256,192,186471,5,0
392,256,187199,2,0,B|96:256,1,285,2|2
48,208,189744,1,0
104,160,190108,1,2
216,56,190835,1,2
368,56,191562,5,2
368,208,192289,1,2
424,256,192653,1,0
368,304,193017,1,2
224,256,193744,2,0,B|24:256,2,190,2|2|2
376,256,197380,1,2
376,256,198108,1,2
480,144,198835,6,0,B|256:8|16:152,1,475,2|2
168,208,203199,1,2
256,80,203926,1,2
336,208,204653,1,2
168,208,205380,2,0,B|264:288|344:200,1,190,2|2
256,80,207562,1,2
256,80,208289,1,2
256,80,209017,1,2
256,80,209744,1,2
256,232,210471,5,2
256,304,210835,1,0
256,304,211017,1,0
256,304,211199,1,2
184,272,211562,2,0,B|80:272,1,95
32,216,212653,1,2
88,160,213017,2,0,B|288:160,1,190
312,160,214653,5,0
352,160,214835,1,2
392,160,215017,1,0
472,160,215380,5,0
472,232,215744,1,0
472,272,215926,1,0
448,304,216108,1,0
416,328,216289,2,0,B|360:368|272:360|240:288,2,190,2|2|2
440,304,219380,5,0
456,272,219562,1,0
480,200,219926,1,2
456,128,220289,5,0
456,128,220471,1,0
456,128,220653,1,2
456,128,220835,1,0
456,128,221017,1,0
400,80,221380,5,2
368,56,221562,1,0
328,40,221744,1,0
288,48,221926,1,0
256,64,222108,6,0,B|200:96|144:88,1,95,2|2
104,136,223199,2,0,B|160:168|216:160,1,95,2|2
272,168,224289,1,0
344,176,224653,2,0,B|440:200|448:280|368:296,1,190,2|2
336,304,226289,1,0
256,304,226653,1,0
176,304,227017,5,2
96,304,227380,1,2
96,304,227562,1,0
96,304,227744,1,0
96,304,227926,1,2
136,240,228289,2,0,B|216:152|56:128|176:24,1,237.5,2|0
256,192,230471,12,4,233744
256,192,259199,5,0
256,192,259289,1,0
256,192,259380,1,0
256,232,259562,1,0
256,272,259744,1,0
256,312,259926,1,2
192,272,260289,5,0
152,272,260471,1,0
112,264,260653,1,2
80,240,260835,1,0
56,208,261017,1,0
48,168,261199,1,0
64,136,261380,1,2
96,112,261562,1,0
136,104,261744,1,2
168,112,261926,1,2
224,160,262289,5,0
256,184,262471,1,0
296,192,262653,1,0
336,192,262835,1,2
408,192,263199,2,2,B|496:176|424:88,1,95
432,96,263744,1,0
400,72,263926,1,0
360,56,264108,2,2,B|312:24|240:64,1,95
240,72,264653,1,0
208,96,264835,1,0
168,112,265017,1,2
128,104,265199,1,2
96,80,265380,1,0
56,80,265562,1,0
32,112,265744,6,0,B|-8:160|56:224,1,95,0|2
80,256,266471,1,0
112,280,266653,1,0
144,296,266835,1,2
184,296,267017,1,2
256,296,267380,1,2
296,296,267562,1,0
336,296,267744,1,2
408,296,268108,5,0
448,296,268289,1,0
480,280,268471,1,0
488,240,268653,1,2
480,160,269017,1,2
424,104,269380,1,2
392,88,269562,1,0
352,80,269744,1,0
312,80,269926,1,2
280,104,270108,1,0
264,136,270289,1,2
264,176,270471,1,0
256,192,270653,12,0,272835
256,192,273017,12,2,273744
256,344,274108,5,0
216,280,274471,1,2
256,216,274835,1,0
304,160,275199,2,0,B|344:88|256:56,1,95,2|0
256,56,275744,1,2
176,48,276108,1,0
112,96,276471,5,0
112,96,276653,2,0,B|32:152|56:232|104:264,1,190,4|0
112,288,277562,1,0
144,304,277744,1,2
176,280,277926,1,0
208,256,278108,2,0,B|256:208|312:256,1,95,4|0
320,264,278653,2,0,B|368:304|440:272,2,95,4|2|4
376,216,279744,5,2
400,184,279926,1,0
408,144,280108,1,0
392,104,280289,1,2
360,80,280471,5,0
328,64,280653,1,0
288,64,280835,1,2
256,88,281017,2,0,B|200:104|264:184|152:192,1,142.5,2|0
96,200,281926,5,0
56,216,282108,1,0
24,240,282289,1,0
16,280,282471,2,0,B|8:336|72:352,1,95,2|0
104,352,283017,1,0
144,352,283199,1,2
184,352,283380,1,0
224,352,283562,1,0
264,352,283744,5,0
304,352,283926,2,0,B|384:352,1,47.5,2|0
352,312,284289,2,0,B|424:312,1,47.5
400,272,284653,2,0,B|464:272,1,47.5,2|0
448,232,285017,1,2
448,152,285380,6,0,B|448:48,1,95,2|0
384,96,286108,2,0,B|280:96,1,95,2|0
256,24,286835,2,0,B|200:32|192:88|192:168|280:160,2,190,2|2|2
288,96,288653,5,0
328,96,288835,1,0
368,96,289017,1,2
408,104,289199,5,0
440,128,289380,1,0
456,160,289562,1,2
464,200,289744,2,0,B|472:272|400:288,1,95,4|0
392,304,290290,2,0,B|344:344|280:296,1,95,4|4
240,264,291017,1,0
240,264,291199,2,0,B|208:328|96:328|72:264,1,190,4|0
48,248,292108,5,0
32,208,292290,1,2
48,176,292471,1,0
80,152,292653,2,0,B|120:112|200:136,1,95,2|0
208,136,293199,1,2
280,160,293562,5,0
312,176,293744,1,0
352,184,293926,1,0
392,184,294108,2,0,B|472:184|448:88,1,95,2|0
448,88,294653,1,0
416,64,294835,1,2
376,56,295017,1,0
344,72,295199,1,2
320,104,295380,1,2
288,120,295562,1,0
248,128,295744,1,2
208,128,295926,1,0
176,112,296108,1,2
144,88,296290,1,2
72,72,296653,1,2
48,144,297017,6,0,B|8:208|16:272|64:312|128:296,1,190,4|0
128,304,297926,1,0
168,296,298108,1,0
200,272,298290,1,0
256,192,298471,12,4,301380
256,192,301744,5,2
256,192,302108,1,2
256,192,302471,1,2
256,192,302835,12,4,307199
256,192,307926,5,2
256,192,308017,1,0
256,192,308108,1,2
256,192,308199,1,0
256,192,308290,1,2
256,192,308380,1,0
256,192,308471,1,2
256,192,308562,1,0
256,192,308653,5,4
304,224,308835,1,0
327,240,308926,1,2
352,256,309017,1,0
400,288,309199,1,0
448,256,309380,1,2
464,224,309471,1,0
472,200,309562,1,2
464,168,309653,1,0
448,144,309744,1,2
416,96,309926,1,0
368,64,310108,5,4
312,40,310290,1,0
256,56,310471,1,4
216,96,310653,1,0
168,128,310835,1,4
112,112,311017,1,0
56,128,311199,1,4
104,232,311562,5,4
128,280,311744,1,0
144,296,311835,1,2
168,312,311926,1,0
216,336,312108,1,0
272,336,312290,1,2
296,336,312380,1,0
320,328,312471,1,2
344,312,312562,1,0
360,288,312653,1,2
384,232,312835,1,0
416,184,313017,5,4
416,128,313199,1,0
376,88,313380,1,4
320,96,313562,1,0
280,56,313744,1,4
224,48,313926,1,0
192,96,314108,1,4
136,112,314290,1,0
256,192,314471,12,4,320290
