osu file format v5

[General]
AudioFilename: Rin Kagamine & Len Kagamine - Cantarella.mp3
AudioLeadIn: 0
PreviewTime: -1
Countdown: 1
SampleSet: Normal
StackLeniency: 0.7
Mode: 0
LetterboxInBreaks: 1

[Editor]
DistanceSpacing: 0.800000011920929
BeatDivisor: 4
GridSize: 8

[Metadata]
Title:Cantarella
Artist:Rin Kagamine & Len Kagamine
Creator:xxheroxx
Version:Normal
Source:
Tags:

[Difficulty]
HPDrainRate:3
CircleSize:4
OverallDifficulty:4
SliderMultiplier:1
SliderTickRate:1

[Events]
//Background and Video events
0,0,"kagamine_twins-oshiete_yo_ikitsugi_no_shikata_koyubi.png"
Video,448,"Cantarella with English Sub - Kagamine Rin Len.mp4.AVI.AVI"
//Break Periods
2,54045,65859
2,130712,132525
//Storyboard Layer 0 (Background)
//Storyboard Layer 1 (Fail)
//Storyboard Layer 2 (Pass)
//Storyboard Layer 3 (Foreground)
//Storyboard Sound Samples
//Background Colour Transformations
3,100,255,255,255

[TimingPoints]
446,416.666666666667,4,1,0,100,1,0
15824,-100,4,1,1,100,0,0
16032,-100,4,1,0,100,0,0
17907,-100,4,1,1,100,0,0
21241,-100,4,1,0,100,0,0
21449,-100,4,1,1,100,0,0
22074,-100,4,1,2,100,0,0
22282,-100,4,1,1,100,0,0
22907,-100,4,1,0,100,0,0
23741,-100,4,1,0,100,0,0
25407,-100,4,1,1,100,0,0
27074,-100,4,1,0,100,0,0
35407,-100,4,1,2,100,0,0
40407,-100,4,1,2,100,0,1
53949,-100,4,1,0,100,0,0
74991,-100,4,1,1,100,0,0
80407,-100,4,1,0,100,0,0
93741,-100,4,1,2,100,0,1
107282,-100,4,1,0,100,0,0
118897,-100,4,1,1,100,0,0
119887,-100,4,1,0,100,0,0
133741,-100,4,2,0,100,0,0
140407,-100,4,1,0,100,0,0
147074,-100,4,1,1,100,0,1
152907,-100,4,1,2,100,0,1

[Colours]
Combo1 : 245,146,160
Combo2 : 192,192,192

[HitObjects]
256,360,13779,2,0,B|256:256,1,100,2|8
256,176,14612,2,0,B|256:112,2,50,2|0|8
208,112,15445,2,0,B|208:48|264:-24|304:56|304:128,1,200,2|2
320,184,16695,5,8
328,224,16904,1,0
336,264,17112,1,8
256,288,17529,2,8,B|232:176,2,100
184,256,18779,6,0,B|128:272,3,50,4|0|0|0
128,232,19612,2,0,B|184:216,3,50,4|0|0|0
216,208,20446,6,0,B|288:184|328:144|328:96|352:64|232:72|224:96|240:136|272:168|352:200|352:200|400:216|448:192|400:120|352:96|336:176|320:216|304:216|320:272|360:280,1,600,4|0
400,312,23362,5,0
400,312,23571,1,0
400,312,23779,1,0
320,312,24196,2,4,B|280:312|256:280|256:280|240:312|168:312,2,150
256,264,25862,2,8,B|256:56,1,200
336,40,27112,6,0,B|440:40,2,100
336,80,28154,1,2
336,120,28362,1,4
336,200,28779,2,0,B|456:200,2,100
336,240,29821,1,2
336,280,30029,1,4
256,280,30446,6,0,B|152:280,2,100
256,240,31487,1,2
256,200,31696,1,4
256,120,32112,2,0,B|136:120,2,100
256,80,33154,1,2
256,40,33362,1,4
176,40,33779,6,4,B|72:40|72:40|72:160,1,200
144,112,35029,2,0,B|144:216|144:216|40:216,1,200
48,296,36279,2,0,B|160:296,1,100,4|0
256,192,37112,12,0,40029
440,192,40445,6,0,B|416:144|392:144|368:208,1,100,8|0
336,264,41279,2,0,B|312:312|288:312|264:248,1,100,8|0
232,192,42112,2,0,B|208:144|184:144|160:208,1,100,8|0
136,264,42945,2,0,B|112:312|88:312|64:248,2,100,8|0|8
136,184,44195,6,0,B|136:120,2,50,0|0|8
216,184,45029,1,0
256,184,45237,1,0
296,184,45445,1,8
376,184,45862,2,0,B|376:240,4,50,0|0|4|0|4
376,104,47112,6,0,B|448:104,2,50,0|0|8
376,104,47945,2,0,B|304:104,2,50,0|0|8
376,184,48779,2,0,B|264:184,1,100,0|8
272,264,49612,2,0,B|160:264,1,100,0|8
256,192,50445,12,4,53779
448,56,67112,6,0,B|368:136,1,100,2|8
376,128,67945,2,0,B|456:208,1,100,2|8
448,200,68779,2,0,B|368:280,1,100,2|8
376,272,69612,2,0,B|296:192,1,100,2|8
376,160,70445,5,8
296,160,70862,1,8
256,160,71070,1,0
216,160,71279,1,8
136,160,71695,1,8
56,160,72112,1,4
56,200,72320,6,0,B|56:264,3,50,0|0|0|4
88,280,73154,2,0,B|88:216,3,50,0|0|0|4
120,304,74195,5,8
200,304,74612,2,0,B|272:304|336:264|352:176,1,200,0|4
376,120,75862,2,0,B|392:56,2,50,8|0|0
296,120,76695,6,0,B|240:120|240:120|264:176|200:184|200:184|240:240|160:240|160:240|168:272|176:312,1,300
96,288,78362,1,0
256,192,78779,12,0,80029
168,48,80446,6,0,B|256:136|352:40,1,200,0|2
408,88,81696,1,8
368,152,82112,6,0,B|280:240|376:336,1,200,0|2
288,352,83362,1,8
208,336,83779,6,0,B|296:248|200:152,1,200,0|2
152,104,85029,1,8
96,160,85446,6,0,B|8:248|104:344,1,200,0|2
152,280,86696,1,8
208,224,87112,6,0,B|288:152,3,100,4|0|4|0
360,160,88779,2,0,B|432:240,3,100,4|0|4|0
256,192,90446,12,0,93362
72,192,93779,6,0,B|96:240|120:240|144:176,1,100,8|0
176,120,94612,2,0,B|200:72|224:72|248:136,1,100,8|0
280,192,95446,2,0,B|304:240|328:240|352:176,1,100,8|0
376,120,96279,2,0,B|400:72|424:72|448:136,2,100,8|0|8
376,200,97529,6,0,B|376:264,2,50,0|0|8
296,200,98362,1,0
256,200,98571,1,0
216,200,98779,1,8
136,200,99196,2,0,B|136:144,4,50,0|0|4|0|4
136,280,100446,6,0,B|64:280,2,50,0|0|8
136,280,101279,2,0,B|208:280,2,50,0|0|8
136,200,102112,2,0,B|248:200,1,100,0|8
240,120,102946,2,0,B|352:120,1,100,0|8
256,192,103779,12,4,107112
48,64,107529,6,0,B|160:64,1,100,0|4
224,64,108362,1,0
304,64,108779,1,0
384,64,109196,1,0
464,64,109612,1,0
344,320,110446,6,0,B|160:320,1,175,4|4
88,192,112112,6,0,B|96:128|136:112|192:88|264:112|320:112|296:112|344:112|392:104|400:160|416:200,1,400,0|8
424,264,114196,6,0,B|312:264,1,100,0|8
312,344,115029,2,0,B|232:272,1,100,0|8
320,264,115862,2,8,B|320:152,1,100
320,80,116696,5,4
320,80,117112,5,4
240,80,117529,6,8,B|184:80|104:88|88:184,1,200
80,256,118779,2,0,B|112:328|160:344|192:344|256:328,1,200,0|8
320,304,120029,5,4
320,304,120446,1,4
256,48,122112,5,4
152,296,123779,5,4
360,296,124612,5,4
256,152,125446,5,4
217,221,125862,5,8
296,217,126279,5,4
256,152,126696,5,8
256,192,127112,12,4,130446
256,32,133779,5,2
256,192,134612,1,4
256,352,135446,1,2
256,272,135862,1,8
256,192,136279,1,2
256,112,136696,1,8
256,32,137112,5,4
120,112,137946,1,4
256,192,138779,1,4
312,248,139196,1,0
256,304,139612,1,4
200,248,140029,1,4
256,192,140446,6,0,B|304:160|256:136|256:136|208:112|256:88|256:88|288:56|240:24,2,200,4|4|4
200,248,142529,1,0
144,192,142946,2,4,B|104:136|48:128|16:176|72:264,1,200
256,192,143883,12,0,146696
256,48,147112,6,0,B|152:48,1,100,0|8
72,48,147946,2,0,B|72:152,1,100,0|8
72,224,148779,2,0,B|72:336,1,100,0|8
152,328,149612,2,0,B|368:328,1,200
432,328,150862,6,0,B|432:224,1,100,8|0
432,144,151696,2,0,B|432:40,1,100,8|0
352,40,152529,2,0,B|128:40,1,200,8|4
152,120,153779,5,0
152,200,154196,1,8
152,280,154612,2,0,B|152:344,2,50,0|0|8
232,280,155446,1,0
232,200,155862,1,8
232,120,156279,2,0,B|232:48,2,50,0|0|8
256,192,157112,12,4,160445
