osu file format v5

[General]
AudioFilename: Rin Kagamine & Len Kagamine - Cantarella.mp3
AudioLeadIn: 0
PreviewTime: -1
Countdown: 1
SampleSet: Normal
StackLeniency: 0.7
Mode: 0
LetterboxInBreaks: 1

[Editor]
DistanceSpacing: 0.800000011920929
BeatDivisor: 8
GridSize: 8

[Metadata]
Title:Cantarella
Artist:Rin Kagamine & Len Kagamine
Creator:xxheroxx
Version:Hard
Source:
Tags:

[Difficulty]
HPDrainRate:6
CircleSize:5
OverallDifficulty:6
SliderMultiplier:1.3
SliderTickRate:2

[Events]
//Background and Video events
0,0,"kagamine_twins-oshiete_yo_ikitsugi_no_shikata_koyubi.png"
Video,448,"Cantarella with English Sub - Kagamine Rin Len.mp4.AVI.AVI"
//Break Periods
2,54045,66128
2,130712,132795
//Storyboard Layer 0 (Background)
//Storyboard Layer 1 (Fail)
//Storyboard Layer 2 (Pass)
//Storyboard Layer 3 (Foreground)
//Storyboard Sound Samples
//Background Colour Transformations
3,100,255,255,255

[TimingPoints]
446,416.666666666667,4,1,0,100,1,0
34157,-100,4,1,1,100,0,0
34782,-100,4,1,0,100,0,0
34991,-100,4,1,1,100,0,0
36241,-100,4,1,0,100,0,0
36657,-100,4,1,1,100,0,0
40407,-100,4,1,0,100,0,0
53949,-100,4,1,0,100,0,0
81449,-100,4,1,1,100,0,0
86449,-100,4,1,0,100,0,0
86657,-100,4,1,1,100,0,0
87074,-100,4,1,0,100,0,0
93741,-100,4,1,0,100,0,0
107178,-100,4,1,0,100,0,0
133637,-100,4,2,0,100,0,0
140407,-100,4,1,0,100,0,0
144157,-100,4,1,1,100,0,0
144366,-100,4,1,0,100,0,0
144991,-100,4,1,1,100,0,0
145199,-100,4,1,0,100,0,0
147074,-100,4,1,1,100,0,1
148532,-100,4,1,0,100,0,1
150407,-100,4,1,1,100,0,1
155199,-100,4,1,0,100,0,1

[Colours]
Combo1 : 255,168,170
Combo2 : 192,192,192

[HitObjects]
456,48,13779,1,4
448,96,13987,1,0
408,128,14195,1,0
352,128,14404,1,0
312,96,14612,2,8,B|288:64|240:40|200:56|192:144|232:136|288:128|304:152|296:192|232:232,1,260,4|8
216,248,15654,1,0
168,272,15862,1,0
112,272,16070,1,0
64,248,16279,1,8
136,176,16695,6,2,B|136:256,1,65,2|2
136,288,17112,2,6,B|136:328|136:368|192:368|248:368|248:320|256:272,1,195,6|2
264,248,17945,2,2,B|280:176,1,65,2|0
288,136,18362,1,2
336,136,18570,1,0
352,184,18779,6,0,B|368:256,1,65,2|0
384,296,19196,1,8
416,328,19404,1,0
464,328,19612,1,8
480,280,19821,1,0
440,248,20029,1,8
416,200,20237,1,0
440,152,20446,5,4
472,112,20654,1,0
456,64,20862,1,0
408,40,21071,1,0
360,64,21279,2,0,B|328:80|296:88|280:112|296:144|312:192|336:120|360:144|368:184|360:200|360:232|344:232|280:232,1,260,4|8
248,232,22321,2,0,B|160:232,1,65
128,232,22737,2,0,B|33:232,1,65,0|8
157,189,23362,6,2,B|157:117,1,65
160,72,23779,2,2,B|160:32|192:16|232:16|256:56|248:88|248:136,1,195,6|2
248,184,24612,2,0,B|248:280,2,65,2|0|2
248,184,25237,1,0
248,184,25446,1,2
256,192,25550,12,0,27112
456,344,27321,5,0
400,344,27529,2,0,B|328:344,1,65
56,344,28154,5,4
56,344,28362,1,4
56,288,28571,5,0
104,288,28779,1,0
152,288,28987,2,0,B|232:288,2,65
456,288,29821,5,4
456,288,29925,1,0
456,288,30029,1,4
456,232,30237,1,4
456,232,30341,1,0
456,232,30446,5,4
400,232,30654,1,0
344,232,30862,2,0,B|248:232,1,65
56,232,31487,5,4
56,232,31696,1,4
56,176,31904,5,0
104,176,32112,2,0,B|192:176,1,65
224,176,32529,2,0,B|304:176,1,65
344,176,32946,5,4
448,176,33362,1,4
392,88,33779,6,0,B|112:88,2,260
352,120,35654,1,0
312,160,35862,1,8
272,192,36071,1,8
232,224,36279,2,0,B|192:256|160:280|128:296|64:288|56:232|96:200|152:176,1,260
256,192,37216,12,0,40029
256,352,40445,6,0,B|256:200,1,130,8|8
256,168,41070,1,4
256,64,41487,1,4
344,112,41904,1,8
344,112,42112,2,8,B|424:112|424:200,1,130
423,247,42737,2,8,B|424:329|344:329,1,130
288,328,43362,5,0
232,328,43570,1,8
260,284,43779,1,4
168,328,44195,5,0
143,282,44404,1,0
194,282,44612,1,4
104,328,45029,5,0
77,283,45237,1,0
48,328,45445,1,4
80,224,45862,6,0,B|64:168|128:168,1,65
144,144,46279,2,4,B|160:88|96:88,1,65
72,80,46695,1,4
168,56,47112,6,8,B|320:56,1,130
352,56,47737,1,4
456,56,48154,2,0,B|456:192,1,130,4|8
400,184,48779,2,8,B|400:40,1,130
344,56,49404,2,8,B|344:192,1,130
344,240,50029,1,0
392,240,50237,1,8
440,240,50445,1,4
256,192,50550,12,0,53779
184,336,67112,5,4
184,280,67320,1,0
232,280,67529,1,0
232,224,67737,1,0
280,224,67945,1,4
280,280,68154,1,0
336,280,68362,1,0
336,336,68570,1,0
384,336,68779,2,0,B|464:336|464:336|464:280|464:280|384:280|384:280|384:224,1,260,8|8
384,128,70029,6,2,B|384:200,2,65,2|2|6
336,32,70862,1,0
312,80,71070,1,2
288,128,71279,1,2
264,80,71487,1,0
240,32,71695,1,2
216,80,71904,1,0
192,128,72112,1,2
240,152,72320,6,0,B|240:232,1,65,0|8
240,216,72737,2,0,B|192:264,1,65,0|8
192,264,73154,2,0,B|112:264,1,65,0|8
128,264,73570,2,0,B|80:216,1,65,0|4
56,176,73987,5,0
48,120,74195,1,0
72,72,74404,1,0
120,56,74612,2,0,B|176:48|200:112|184:168|280:168,1,195,4|0
312,168,75445,2,0,B|456:168,2,130,8|0|8
208,168,76695,5,2
152,176,76904,1,2
136,224,77112,2,6,B|120:288|152:320|208:320,1,130,6|2
240,328,77737,2,0,B|280:336|304:296,1,65,2|0
288,256,78154,2,0,B|328:248|352:288,1,65,2|0
336,328,78571,2,0,B|376:336|400:296,1,65,2|0
256,192,78883,12,0,80029
432,48,80446,5,0
384,72,80654,1,0
432,96,80862,1,0
384,120,81071,1,0
352,160,81279,2,0,B|256:288,1,130,0|4
240,304,81904,5,0
256,352,82112,1,0
200,344,82321,1,0
184,296,82529,1,0
216,256,82737,1,0
264,256,82946,2,0,B|416:256,1,130,0|4
120,256,83779,5,0
64,256,83987,1,0
93,213,84196,1,0
94,161,84404,1,0
94,105,84612,2,0,B|94:9|198:41,1,130,0|4
224,56,85237,1,0
264,88,85446,1,0
224,56,85654,1,0
272,40,85862,1,0
320,32,86071,2,0,B|416:24|464:40|496:80|496:120|456:168,1,260
424,200,87112,6,0,B|376:256|280:216,1,130,8|8
304,224,87737,1,0
304,224,87946,2,0,B|256:280|160:240,1,130,8|8
136,224,88571,1,0
168,184,88779,2,0,B|216:128|312:168,1,130,8|8
287,159,89404,1,0
288,160,89612,2,0,B|336:104|432:144,1,130,8|8
448,168,90237,1,0
256,192,90446,12,0,93362
256,32,93779,6,0,B|256:184,1,130,8|8
256,216,94404,1,4
256,320,94821,1,4
168,272,95237,1,8
168,272,95446,2,8,B|88:272|88:184,1,130
89,137,96071,2,8,B|88:55|168:55,1,130
224,56,96696,5,0
280,56,96904,1,8
252,100,97112,1,4
344,56,97529,5,0
369,102,97737,1,0
318,102,97946,1,4
408,56,98362,5,0
435,101,98571,1,0
464,56,98779,1,4
432,160,99196,6,0,B|448:216|384:216,1,65
368,240,99612,2,4,B|352:296|416:296,1,65
440,304,100029,1,4
344,328,100446,6,8,B|192:328,1,130
160,328,101071,1,4
56,328,101487,2,0,B|56:192,1,130,4|8
112,200,102112,2,8,B|112:344,1,130
168,328,102737,2,8,B|168:192,1,130
168,144,103362,1,0
120,144,103571,1,8
72,144,103779,1,4
256,192,103883,12,0,107112
176,192,107529,5,4
336,192,107841,1,4
256,192,108050,5,8
256,168,108154,1,0
256,144,108258,1,8
272,120,108362,1,0
296,104,108466,1,0
320,104,108571,1,8
368,104,108779,5,4
392,112,108883,1,0
408,136,108987,1,0
440,208,109300,1,0
424,256,109508,1,0
376,280,109716,1,4
248,280,110237,5,8
224,280,110341,1,0
200,280,110446,1,8
176,280,110550,1,0
120,280,110758,1,0
120,176,111175,1,4
144,176,111279,5,8
168,160,111383,1,0
184,136,111487,1,8
200,120,111591,1,0
232,80,111800,5,8
248,64,111904,1,0
272,56,112008,1,0
296,64,112112,1,0
336,96,112321,2,4,B|392:152|368:200|312:208|296:144|288:136|248:160|232:200|240:216|296:240,1,260
328,256,113362,5,0
352,304,113571,5,0
400,280,113779,5,4
64,48,114196,5,4
256,192,114612,5,0
64,192,115029,5,4
256,192,115446,5,0
64,336,115862,5,4
256,192,116279,5,0
448,192,116696,5,8
352,192,116904,1,8
256,192,117112,1,4
352,96,117529,5,8
352,192,117737,1,8
352,288,117946,1,4
256,192,118362,6,0,B|144:96,1,130,0|4
256,192,119196,2,0,B|144:288,1,130,0|4
96,192,120029,5,8
96,192,120133,1,0
96,192,120341,1,8
96,192,120446,1,0
416,192,120862,5,0
416,192,120966,1,0
416,192,121071,2,0,B|400:176|400:176|384:192|384:192|368:208|368:208|352:192|352:192|336:176|336:176|320:192|320:192|304:208|304:208|288:192|288:192|272:176|272:176|256:192|256:192|216:192,1,260,4|0
120,192,122321,5,0
96,192,122425,1,8
72,192,122529,1,0
72,128,122737,5,8
96,128,122841,1,0
120,128,122946,1,8
160,80,123154,5,8
160,80,123258,1,0
224,80,123466,5,8
224,80,123571,1,0
264,128,123779,5,0
288,128,123883,1,8
312,128,123987,1,0
376,128,124196,5,0
376,128,124300,1,8
376,192,124508,5,8
376,192,124612,1,0
376,256,124821,5,0
376,256,124925,1,8
376,256,125029,1,0
318,226,125237,5,8
252,227,125446,5,8
252,227,125550,1,0
184,228,125758,5,8
136,184,125966,5,0
136,184,126071,1,8
184,136,126279,5,8
184,136,126383,1,0
136,88,126591,5,8
136,88,126696,1,8
136,88,126904,5,8
256,192,127112,12,4,130446
416,336,133779,5,2
416,336,133987,1,0
416,336,134196,1,2
256,336,134612,5,2
256,336,134821,1,0
256,336,135029,1,2
96,336,135446,5,2
96,336,135654,1,0
96,336,135862,1,2
256,192,136279,6,2,B|256:40,2,130
256,296,137529,5,2
256,296,137633,1,0
256,296,137737,1,2
256,296,137841,1,0
256,296,137946,1,2
256,192,138362,5,2
256,192,138466,1,0
256,192,138571,1,2
256,192,138675,1,0
256,192,138779,1,2
184,112,139196,5,2
208,64,139404,1,0
256,56,139612,1,6
304,64,139821,1,0
328,112,140029,1,6
368,208,140446,6,4,B|408:288|320:312|320:312|296:208|208:264,1,260
184,272,141487,1,4
96,216,141904,1,0
96,216,142112,2,4,B|96:128|96:128|176:160|176:160|176:48,1,260
176,72,143362,1,0
176,72,143779,2,4,B|336:72|408:96|488:296|168:280,1,520,4|0
256,192,145550,12,0,146696
48,48,147112,5,2
72,48,147216,1,2
96,48,147321,1,2
144,48,147529,1,4
192,48,147737,1,4
240,48,147946,1,2
264,48,148050,1,2
288,48,148154,1,2
336,48,148362,5,4
384,48,148571,2,4,B|464:48|472:88|464:128|440:144|376:136,1,195,4|0
360,184,149404,2,4,B|280:184|272:144|280:104|304:88|368:96,1,195,4|0
392,136,150237,5,0
440,136,150446,2,0,B|440:344,1,195
384,336,151279,2,0,B|168:336,1,195
136,336,152112,6,0,B|40:336,1,65
72,280,152529,2,4,B|152:280,1,65
136,224,152946,2,0,B|64:224,1,65
72,168,153362,2,4,B|160:168,1,65
192,168,153779,5,2
216,168,153883,1,2
240,184,153987,1,2
272,224,154196,1,4
296,264,154404,1,4
328,304,154612,1,2
352,320,154716,1,2
376,320,154821,1,2
424,312,155029,5,4
456,272,155237,2,4,B|480:224|440:168|360:152|416:232|312:192,1,195,4|0
280,176,156071,2,0,B|248:160|224:120|232:88|264:56|296:56|336:64|352:88|376:136|280:120,1,260,4|0
256,192,157112,12,0,160445
