osu file format v9

[General]
AudioFilename: Eientewi set 17 .mp3
AudioLeadIn: 1004
PreviewTime: 71756
Countdown: 0
SampleSet: Normal
StackLeniency: 0.7
Mode: 0
LetterboxInBreaks: 0

[Editor]
Bookmarks: 155234
DistanceSpacing: 1.2
BeatDivisor: 4
GridSize: 8

[Metadata]
Title:Touhou Youkai Komachi
Artist:Rin
Creator:Crazy Jay
Version:Easy
Source:Touhou
Tags:Onozuka Higan Retour ~ Riverside View Phantasmagoria of Flower View th08

[Difficulty]
HPDrainRate:6
CircleSize:3
OverallDifficulty:5
ApproachRate:4
SliderMultiplier:1
SliderTickRate:2

[Events]
//Background and Video events
0,0,"BG.jpg"
//Break Periods
2,26311,26966
2,70225,70444
2,85877,91313
2,113703,124357
//Storyboard Layer 0 (Background)
Sprite,Background,Centre,"SB\bg SP4.png",320,240 L,0,65 F,0,14147,14365,0,1 F,0,14365,15886,1,0
Sprite,Background,Centre,"SB\bg SP2.png",320,240 S,0,41321,,1 F,0,41321,42191,0,1 F,0,42191,70886,1 M,0,66257,,320,240 F,0,70886,71756,1,0
Sprite,Background,Centre,"SB\red!!.png",320,240 F,0,98712,99582,0,1 M,0,99582,,320,240 S,0,99582,,1 F,0,99582,126538,1,0.9896552 F,0,126538,127408,0.9896552,0
Sprite,Background,Centre,"SB\red!!.png",320,240 L,0,16 F,0,99582,100017,1,0 S,0,99582,100017,1,1.2 F,0,100017,101320,0 S,0,100017,101321,1.2,1 F,0,101320,101321,0,1
//Storyboard Layer 1 (Fail)
//Storyboard Layer 2 (Pass)
//Storyboard Layer 3 (Foreground)
Sprite,Foreground,Centre,"SB\flows.png",320,240 S,0,28278,,1 F,0,28278,31756,0,1 M,0,28278,42191,320,-164,320,682 F,0,31756,35125,1,0 F,0,35125,37408,0,1 F,0,37408,40234,1,0.2115199 F,0,40234,42191,0.2115199,0
Sprite,Foreground,Centre,"SB\flows3.png",320,240 F,0,30017,33518,0,0.5596801 M,0,30017,42191,364,71,354,526 F,0,33518,39582,0.5596801,1 F,0,39582,42191,1,0
Sprite,Foreground,Centre,"SB\flows-small.png",320,240 S,0,33495,,0.71328 F,0,33495,33930,0,1 M,0,33495,35234,71,105,58,283 F,0,33930,34799,1 F,0,34799,35234,1,0
Sprite,Foreground,Centre,"SB\flows-small.png",320,240 F,0,35234,36104,0,1 M,0,35234,39147,144,88,68,368 F,0,36104,38712,1 F,0,38712,39147,1,0
Sprite,Foreground,Centre,"SB\light.png",320,240 F,0,52625,,1 M,0,52625,52843,599,97,540,250 M,0,52843,52951,540,250,466,266 M,0,52951,53060,466,266,423,238 M,0,53060,53278,423,238,340,108 M,0,53278,53386,340,108,359,101 M,0,53386,53821,359,101,199,88 M,0,53821,54038,199,88,172,128 M,0,54038,54365,172,128,96,222 M,0,54365,54799,96,222,110,267 M,0,54799,55234,110,267,226,317 M,0,55234,55343,226,317,235,290 M,0,55343,55451,235,290,205,296 M,0,55451,55778,205,296,186,349 M,0,55778,56104,186,349,320,333 M,0,56104,56756,320,333,460,293 M,0,56756,57299,460,293,484,205 M,0,57299,57843,484,205,399,95 M,0,57843,58278,399,95,254,90 M,0,58278,58712,254,90,170,91 M,0,58712,59147,170,91,5,59
Sprite,Foreground,Centre,"SB\light.png",320,240 S,0,52625,,0.5084799 M,0,52625,52734,541,71,565,140 M,0,52734,52951,565,140,466,162 M,0,52951,53169,466,162,356,144 M,0,53169,53386,356,144,377,74 M,0,53386,53495,377,74,404,99 M,0,53495,53712,404,99,231,115 M,0,53712,53930,231,115,199,77 M,0,53930,54038,199,77,197,105 M,0,54038,54147,197,105,199,155 M,0,54147,54256,199,155,118,159 M,0,54256,54582,118,159,95,280 M,0,54582,54908,95,280,232,242 M,0,54908,55017,232,242,239,268 M,0,55017,55125,239,268,225,283 M,0,55125,55234,225,283,222,321 M,0,55234,55343,222,321,253,340 M,0,55343,55451,253,340,269,298 M,0,55451,55560,269,298,317,288 M,0,55560,55778,317,288,392,301 M,0,55778,55995,392,301,464,256 M,0,55995,56212,464,256,401,262 M,0,56212,56321,401,262,296,253 M,0,56321,56538,296,253,235,257 M,0,56538,56756,235,257,171,334 M,0,56756,57082,171,334,135,400 M,0,57082,57299,135,400,45,361 M,0,57299,57517,45,361,30,261 M,0,57517,57734,30,261,70,162 M,0,57734,57951,70,162,213,160 M,0,57951,58169,213,160,179,152 M,0,58169,58386,179,152,238,119 M,0,58386,58604,238,119,227,66 M,0,58604,58712,227,66,201,70 M,0,58712,58930,201,70,248,16
Sprite,Foreground,Centre,"SB\flows2.png",320,240 F,0,127408,129582,0,1 M,0,127408,141321,318,-165,320,654 F,0,129582,132625,1,0.488 F,0,132625,136104,0.488,1 F,0,136104,139582,1,0.7952 F,0,139582,141321,0.7952,0
Sprite,Foreground,Centre,"SB\flows3.png",320,240 F,0,130886,132625,0,1 M,0,130886,137843,260,132,376,457 F,0,132625,134365,1 F,0,134365,136104,1 F,0,136104,,1 F,0,136104,137734,1,0 F,0,137734,137843,0
Sprite,Foreground,Centre,"SB\flows.png",320,240 S,0,134365,,0.6928 F,0,134365,135234,0,0.95392 M,0,134365,141321,198,82,176,354 F,0,135234,139582,0.95392 F,0,139582,141321,0.95392,0
Sprite,Foreground,Centre,"SB\flows.png",320,240 S,0,137843,,0.6006401 F,0,137843,138712,0,1 M,0,137843,141321,457,-4,464,311 F,0,138712,140451,1 F,0,140451,141321,1,0
Sprite,Foreground,Centre,"SB\light.png",320,240 S,0,54582,,0.8873599 M,0,54582,54799,457,426,527,376 M,0,54799,55017,527,376,557,261 M,0,55017,55451,557,261,509,136 M,0,55451,55669,509,136,413,94 M,0,55669,56212,413,94,329,75 M,0,56212,56756,329,75,199,97 M,0,56756,57408,199,97,163,157 M,0,57408,57625,163,157,165,268 M,0,57625,57734,165,268,264,384 M,0,57734,58495,264,384,315,379 M,0,58495,59147,315,379,419,367 M,0,59147,59365,419,367,451,321 M,0,59365,59691,451,321,515,233 M,0,59691,59799,515,233,446,242 M,0,59799,60017,446,242,348,190 M,0,60017,60234,348,190,269,162 M,0,60234,60451,269,162,199,180 M,0,60451,60886,199,180,134,291 M,0,60886,61212,134,291,267,352 M,0,61212,61430,267,352,349,351 M,0,61430,61647,349,351,334,280 M,0,61647,61973,334,280,235,305 M,0,61973,62408,235,305,332,216 M,0,62408,62734,332,216,456,206 M,0,62734,63169,456,206,257,270 M,0,63169,63495,257,270,222,219 M,0,63495,63604,222,219,198,141 M,0,63604,63930,198,141,331,146 M,0,63930,64256,331,146,444,109 M,0,64256,64582,444,109,477,126 M,0,64582,64691,477,126,491,156 M,0,64691,64799,491,156,492,184 M,0,64799,64908,492,184,487,214 M,0,64908,65234,487,214,445,259 M,0,65234,65560,445,259,291,338 M,0,65560,65886,291,338,149,367 M,0,65886,66104,149,367,2,424
Sprite,Foreground,Centre,"SB\bg SP1.png",320,240 F,0,155242,156538,1,0 S,0,155242,156538,1,1.49152
Sprite,Foreground,Centre,"SB\bg SP3.png",320,240 F,0,69147,70017,1,0 S,0,69147,70017,1,1.2048
Sprite,Foreground,Centre,"SB\bg SP3.png",320,240 F,0,68278,68712,1,0.2115201 S,0,68278,68712,1,1.16384 S,0,68712,,1.16384
Sprite,Foreground,Centre,"SB\bg SP3.png",320,240 M,0,68712,,320,240 F,0,68712,69147,1,0 S,0,68712,69147,1,1.17408
Sprite,Foreground,Centre,"SB\bg SP3.png",320,240 F,0,63060,64365,1,0 S,0,63060,64365,1,1.31744 R,0,63278,,0
Sprite,Foreground,Centre,"SB\bg SP3.png",320,240 F,0,64799,66104,1,0 S,0,64799,66104,1,1.21504
Sprite,Foreground,Centre,"SB\bg SP3.png",320,240 F,0,49147,50017,1,0 S,0,49147,50017,1,1.28672
Sprite,Foreground,Centre,"SB\bg SP3.png",320,240 M,0,66538,,320,240 F,0,66538,68278,1,0 S,0,66538,68278,1,1.17408
Sprite,Foreground,Centre,"SB\bg SP3.png",320,240 F,0,59582,61321,1,0 S,0,59582,61321,1,1.23552 F,0,61321,62133,0
Sprite,Foreground,Centre,"SB\bg SP3.png",320,240 M,0,56104,,320,239 F,0,56104,57843,1,0 S,0,56104,57843,1,1.256
Sprite,Foreground,Centre,"SB\flows-small.png",320,240 S,0,29590,,0.62112 F,0,29590,30459,0,1 M,0,29590,35242,272,127,272,344 F,0,30459,34373,1 F,0,34373,35242,1,0
Sprite,Foreground,Centre,"SB\flows-small.png",320,240 S,0,36112,,1 F,0,36112,36981,0,1 M,0,36112,39590,239,17,256,336 F,0,36981,37851,1,0 F,0,37851,38720,0,1 F,0,38720,39590,1,0
Sprite,Foreground,Centre,"SB\flows-small.png",320,240 F,0,127416,129155,0,1 M,0,127416,130894,249,17,239,379 F,0,129155,130894,1,0
Sprite,Foreground,Centre,"SB\flows-small.png",320,240 F,0,127851,128720,0,1 M,0,127851,134373,509,102,540,364 F,0,128720,133503,1 F,0,133503,134373,1,0
Sprite,Foreground,Centre,"SB\flows-small.png",320,240 F,0,133068,133938,0,1 M,0,133068,138720,53,9,64,382 F,0,133938,137851,1 F,0,137851,138720,1,0
Sprite,Foreground,Centre,"SB\flows-small.png",320,240 F,0,134807,136329,0,1 M,0,134807,137851,455,1,453,260 F,0,136329,137851,1,0.3343999
Sprite,Foreground,Centre,"SB\flows.png",320,240 S,0,136546,,0.45728 F,0,136546,137416,0.1142401,1 M,0,136546,138297,352,100,353,221 F,0,137416,138286,1,0
//Storyboard Sound Samples
//Background Colour Transformations
3,100,163,162,255

[TimingPoints]
460,434.782608695652,4,1,0,80,1,0
28286,-117.647058823529,4,2,1,80,0,0

[Colours]
Combo1 : 88,162,222
Combo2 : 255,11,17

[HitObjects]
48,88,460,2,0,B|24:176|23:248|106:311|192:248,1,300
216,136,2199,2,0,B|297:76|380:139|379:211|355:299,1,300
240,344,3938,6,0,B|159:282|128:176,1,200
248,200,5242,1,0
248,200,5677,2,0,B|288:120|368:32,1,200
456,112,6981,1,0
456,112,7416,6,0,B|448:176|440:216,3,100
352,296,9155,2,0,B|336:232|328:184,3,100
256,192,10894,12,0,13938
80,64,14590,6,0,B|168:40|280:56|352:40,1,250,2|0
472,152,16329,6,0,B|384:128|272:144|200:128,1,250,2|0
80,240,18068,6,0,B|168:216|280:232|352:216,1,250,2|0
472,328,19807,6,0,B|384:304|272:320|200:304,1,250,2|0
40,288,21546,5,2
40,288,22199,2,0,B|40:232|48:168,1,100
168,56,23286,5,2
168,56,23939,2,0,B|177:111|180:175,1,100
248,256,24807,6,4,B|298:272|352:288,3,100,4|4|4|0
72,80,28286,6,0,B|40:184|112:212|192:216|212:136,1,254.999989360571,4|8
304,176,30025,2,0,B|321:103|401:106|473:135|441:239,1,254.999989360571,0|8
384,320,31764,6,0,B|296:352|224:344|224:344|192:240,1,254.999989360571,0|8
280,192,33503,2,0,B|252:103|252:103|180:95|92:127,1,254.999989360571,0|8
112,224,35242,6,0,B|112:280|104:320,2,84.9999964535238,4|8|0
208,264,36546,2,0,B|214:175|232:88,1,169.999992907048,8|8
328,112,37851,2,0,B|336:72|336:16,1,84.9999964535238,0|8
424,80,38720,6,0,B|463:132|468:196|456:256,1,169.999992907048
408,328,40025,1,8
338,257,40459,2,0,B|276:228|240:292|164:246,1,169.999992907048
104,328,41764,1,8
56,240,42199,6,0,B|48:192,2,42.4999982267619,4|0|8
152,56,43503,1,8
232,112,43938,6,0,B|280:96,2,42.4999982267619,2|0|8
440,120,45242,1,8
392,208,45677,6,0,B|408:264,2,42.4999982267619,2|0|8
240,344,46981,1,8
184,264,47416,6,0,B|168:208,2,42.4999982267619,2|0|8
56,104,48720,1,8
144,56,49155,6,0,B|272:64|288:160|232:240,1,254.999989360571,4|8
168,152,50894,2,0,B|117:224|133:320|261:328,1,254.999989360571,0|8
360,328,52633,6,0,B|376:288|384:232,1,84.9999964535238,0|8
480,232,53503,2,0,B|481:188|469:133,1,84.9999964535238,0|8
376,120,54373,2,0,B|312:112|240:96|192:80,1,169.999992907048
112,48,55677,1,8
56,136,56112,6,0,B|68:223|88:264,2,127.499994680286,4|0|8
160,144,57851,6,0,B|224:128|304:120,2,127.499994680286,0|0|8
224,224,59590,6,0,B|208:304|192:352,2,127.499994680286,0|0|8
312,272,61329,6,0,B|392:288|448:304,2,127.499994680286,0|0|8
256,192,63286,12,2,70025
96,80,71764,5,4
96,80,72416,2,0,B|160:96|224:112,1,127.499994680286,0|8
152,192,73503,1,0
152,192,73938,2,0,B|152:256|160:296,1,84.9999964535238,8|0
367,271,75242,5,8
367,271,75894,2,0,B|303:255|239:239,1,127.499994680286,0|8
311,159,76981,1,0
311,159,77416,2,0,B|311:95|303:55,2,84.9999964535238,8|0|8
216,120,78720,6,0,B|128:160|88:184,2,127.499994680286,2|0|8
296,184,80459,2,0,B|384:224|424:248,2,127.499994680286,2|0|8
256,192,82199,12,4,85677
96,72,92633,6,4,B|88:160|80:248,1,169.999992907048,4|0
217,316,94373,6,4,B|209:234|201:146,1,169.999992907048,4|0
336,56,96112,6,4,B|328:144|321:225,1,169.999992907048
453,293,97851,6,4,B|442:197,2,84.9999964535238
448,88,99590,5,4
448,88,100242,1,2
448,88,100894,1,8
448,88,101329,6,2,B|384:48|344:104|272:64,1,169.999992907048
104,176,103068,5,2
104,176,103720,1,2
104,176,104372,1,8
104,176,104807,6,2,B|168:136|208:192|280:152,1,169.999992907048
416,304,106546,6,2,B|328:320|272:320,1,127.499994680286
289,319,107851,1,8
192,288,108286,6,2,B|188:209|176:112,1,169.999992907048
176,118,109590,1,8
256,192,110025,12,4,113503
256,136,125677,6,8,B|256:88,2,42.4999982267619
256,136,126546,6,0,B|256:312,1,169.999992907048,0|4
152,304,127851,5,8
152,304,128286,2,0,B|91:305|48:312,2,84.9999964535238,0|8|0
120,208,129590,2,0,B|216:207|304:216,1,169.999992907048,8|8
376,160,130894,5,0
376,160,131329,2,0,B|368:112|360:64,2,84.9999964535238,8|0|8
272,152,132633,2,0,B|288:256|296:336,2,169.999992907048,0|0|4
176,128,134807,5,8
104,200,135242,2,0,B|96:256|88:296,1,84.9999964535238,0|8
176,344,136112,2,0,B|272:320|432:288,1,254.999989360571,0|8
376,200,137851,6,0,B|379:160|384:112,1,84.9999964535238,0|8
304,48,138720,1,0
304,48,139155,1,8
231,120,139590,2,0,B|153:132|47:144,2,169.999992907048,0|0|4
392,240,142199,6,8,B|392:336,1,84.9999964535238,0|8
120,240,143938,6,0,B|120:336,1,84.9999964535238,0|8
360,160,145677,6,0,B|357:198|360:212|360:256,1,84.9999964535238,0|8
152,160,147416,6,0,B|154:198|151:212|152:256,1,84.9999964535238,0|8
256,256,148286,5,4
256,256,148720,2,0,B|264:168|248:160|256:80,1,169.999992907048,8|8
352,64,150025,2,0,B|417:88|432:160|392:208,1,169.999992907048
352,296,151329,1,8
256,256,151764,5,0
256,256,152198,2,0,B|264:168|248:160|256:80,1,169.999992907048,8|8
160,64,153503,2,8,B|112:88,1,42.4999982267619
72,64,153938,2,0,B|72:160|72:248,1,169.999992907048,8|0
72,234,155242,5,2
