osu file format v12

[General]
AudioFilename: Spring of Dreams.mp3
AudioLeadIn: 1996
PreviewTime: 90170
Countdown: 0
SampleSet: Soft
StackLeniency: 0.3
Mode: 0
LetterboxInBreaks: 1
WidescreenStoryboard: 1

[Editor]
Bookmarks: 24427,39545
DistanceSpacing: 0.8
BeatDivisor: 4
GridSize: 4
TimelineZoom: 1.5

[Metadata]
Title:Spring of Dreams
TitleUnicode:春の湊に
Artist:Rin
ArtistUnicode:凛
Creator:jyc-Binggan
Version:Lunatic
Source:Touhou
Tags:zun lkx_shore fanzhen0019 Deye nazrin House set of "Undefined Fantastic Object" 〜 Myorenji set クロネコラウンジ 東方Project 東方星蓮船
BeatmapID:325938
BeatmapSetID:119739

[Difficulty]
HPDrainRate:6
CircleSize:5
OverallDifficulty:8
ApproachRate:8
SliderMultiplier:1.7
SliderTickRate:1

[Events]
//Background and Video events
0,0,"86c5be8a5e98182cc9fc7af8.jpg",0,0
//Break Periods
2,45370,59420
//Storyboard Layer 0 (Background)
//Storyboard Layer 1 (Fail)
//Storyboard Layer 2 (Pass)
//Storyboard Layer 3 (Foreground)
//Storyboard Sound Samples
//Background Colour Transformations
3,100,163,162,255

[TimingPoints]
170,468.75,4,2,1,70,1,0
170,-133.333333333333,4,2,1,70,0,0
287,-133.333333333333,4,2,1,90,0,0
521,-133.333333333333,4,1,1,50,0,0
755,-133.333333333333,4,2,1,90,0,0
990,-133.333333333333,4,1,1,20,0,0
1224,-133.333333333333,4,2,1,90,0,0
1517,-133.333333333333,4,2,1,50,0,0
1693,-133.333333333333,4,2,1,90,0,0
1927,-133.333333333333,4,1,1,20,0,0
2162,-133.333333333333,4,2,1,90,0,0
2396,-133.333333333333,4,2,1,50,0,0
2630,-133.333333333333,4,2,1,90,0,0
2865,-133.333333333333,4,1,1,20,0,0
3099,-133.333333333333,4,1,1,90,0,0
3334,-133.333333333333,4,2,1,90,0,0
3392,-133.333333333333,4,2,1,50,0,0
3568,-133.333333333333,4,2,1,90,0,0
3802,-133.333333333333,4,1,1,30,0,0
4037,-133.333333333333,4,2,1,90,0,0
4330,-133.333333333333,4,2,1,50,0,0
4505,-133.333333333333,4,2,1,90,0,0
4740,-133.333333333333,4,1,1,20,0,0
4974,-133.333333333333,4,2,1,90,0,0
5209,-133.333333333333,4,2,1,50,0,0
5443,-133.333333333333,4,2,1,90,0,0
5677,-133.333333333333,4,1,1,20,0,0
5912,-133.333333333333,4,2,1,90,0,0
6205,-133.333333333333,4,2,1,50,0,0
6380,-133.333333333333,4,2,1,90,0,0
6732,-133.333333333333,4,1,1,20,0,0
6849,-133.333333333333,4,2,1,90,0,0
7084,-133.333333333333,4,2,1,60,0,0
7377,-133.333333333333,4,1,1,50,0,0
7611,-133.333333333333,4,2,1,70,0,0
7787,-133.333333333333,4,2,1,90,0,0
8021,-133.333333333333,4,2,1,50,0,0
8255,-133.333333333333,4,2,1,90,0,0
8490,-133.333333333333,4,2,1,40,0,0
8607,-133.333333333333,4,2,1,20,0,0
8724,-133.333333333333,4,2,1,90,0,0
8959,-133.333333333333,4,2,1,50,0,0
9193,-133.333333333333,4,2,1,90,0,0
9427,-133.333333333333,4,1,1,20,0,0
9662,-133.333333333333,4,2,1,90,0,0
9896,-133.333333333333,4,2,1,50,0,0
10130,-133.333333333333,4,2,1,90,0,0
10365,-133.333333333333,4,2,1,50,0,0
10482,-133.333333333333,4,2,1,20,0,0
10599,-133.333333333333,4,2,1,90,0,0
10834,-133.333333333333,4,2,1,50,0,0
11068,-133.333333333333,4,2,1,35,0,0
11302,-133.333333333333,4,2,1,40,0,0
11654,-133.333333333333,4,2,1,90,0,0
11771,-133.333333333333,4,2,1,50,0,0
12005,-133.333333333333,4,2,1,90,0,0
12240,-133.333333333333,4,1,1,30,0,0
12474,-100,4,2,1,90,0,0
12709,-100,4,1,1,40,0,0
12826,-100,4,2,1,50,0,0
13412,-100,4,2,1,90,0,0
13646,-100,4,2,1,50,0,0
14584,-200,4,2,1,60,0,0
15170,-100,4,2,1,80,0,1
15287,-100,4,2,1,80,0,0
17513,-133.333333333333,4,2,1,60,0,0
17748,-100,4,2,1,80,0,0
17982,-100,4,2,1,60,0,0
18216,-100,4,2,1,80,0,0
18451,-100,4,2,1,60,0,0
18685,-100,4,2,1,80,0,0
21263,-133.333333333333,4,2,1,60,0,0
21498,-100,4,2,1,80,0,0
21732,-100,4,2,1,60,0,0
21966,-100,4,2,1,80,0,0
22201,-100,4,2,1,60,0,0
22435,-100,4,2,1,80,0,0
32513,-100,4,2,1,60,0,0
32748,-100,4,2,1,80,0,0
32982,-100,4,2,1,60,0,0
33216,-100,4,2,1,80,0,0
33451,-100,4,2,1,60,0,0
33685,-100,4,2,1,80,0,0
36263,-100,4,2,1,60,0,0
36498,-100,4,2,1,80,0,0
36732,-100,4,2,1,60,0,0
36966,-100,4,2,1,80,0,0
37201,-100,4,2,1,60,0,0
37318,-100,4,2,1,80,0,0
43295,-100,4,1,1,60,0,0
44232,-100,4,1,1,70,0,0
44701,-100,4,2,1,60,0,0
45170,-100,4,2,1,80,0,1
45404,-100,4,2,1,60,0,0
60170,-100,4,2,1,80,0,0
70365,-100,4,2,1,90,0,0
71302,-100,4,2,1,80,0,0
73295,-100,4,2,1,90,0,0
73412,-100,4,3,1,40,0,0
74115,-100,4,3,1,50,0,0
75170,-100,4,2,1,80,0,1
75287,-100,4,1,1,50,0,0
90170,-100,4,2,1,80,0,1
90404,-100,4,1,1,50,0,0
103295,-100,4,2,1,80,0,0
103529,-100,4,1,1,50,0,0
105170,-133.333333333333,4,1,1,50,0,1
105287,-100,4,2,1,80,0,0
105755,-133.333333333333,4,2,1,80,0,0
106693,-100,4,2,1,80,0,0
107865,-133.333333333333,4,2,1,80,0,0
108334,-100,4,2,1,80,0,0
110443,-133.333333333333,4,2,1,80,0,0
111146,-100,4,2,1,80,0,0
112552,-133.333333333333,4,2,1,80,0,0
114427,-100,4,2,1,80,0,0
116420,-100,4,2,1,50,0,0
116888,-100,4,2,1,40,0,0
117357,-100,4,2,1,30,0,0
117826,-100,4,2,1,20,0,0
119232,-166.666666666667,4,2,1,70,0,0
119584,-166.666666666667,4,2,1,40,0,0
119701,-166.666666666667,4,2,1,70,0,0
120052,-166.666666666667,4,2,1,40,0,0
120170,-100,4,2,1,80,0,1
120287,-100,4,1,1,60,0,0
133060,-133.333333333333,4,1,1,50,0,0
133295,-100,4,1,1,50,0,0
133412,-100,4,1,1,40,0,0
134232,-100,4,1,1,50,0,0
135170,-200,4,2,1,70,0,0
146420,-200,4,2,1,70,0,1
146888,-133.333333333333,4,2,1,70,0,0
147357,-133.333333333333,4,2,1,70,0,1
147826,-133.333333333333,4,2,1,70,0,0
148295,-100,4,2,1,70,0,1
148646,-100,4,2,1,70,0,0
148763,-80,4,2,1,70,0,1
149115,-80,4,2,1,70,0,0
149232,-74.0740740740741,4,2,1,70,0,1
149935,-100,4,1,1,50,0,0
163295,-100,4,2,1,80,0,0
163412,-100,4,3,1,50,0,0
163646,-100,4,2,1,80,0,0
163880,-100,4,3,1,50,0,0
164232,-100,4,2,1,80,0,0
164349,-100,4,3,1,50,0,0
165170,-83.3333333333333,4,2,1,60,0,1
165287,-83.3333333333333,4,1,1,60,0,1
178529,-100,4,3,1,50,0,1
180052,-100,4,3,1,50,0,0
180170,-100,4,3,1,60,0,1
180287,-100,4,3,1,60,0,0

[Colours]
Combo1 : 255,128,64
Combo2 : 255,128,128
Combo3 : 192,192,192

[HitObjects]
10,187,170,6,0,P|38:211|78:219,1,63.7500024318696,4|2,0:0|0:0,0:0:0:0:
186,163,638,2,0,P|154:175|124:205,1,63.7500024318696,8|2,2:0|0:0,0:0:0:0:
122,331,1107,2,0,P|126:299|119:268,1,63.7500024318696,0|2,0:0|0:0,0:0:0:0:
104,228,1459,1,0,0:0:0:0:
104,228,1576,1,8,0:0:0:0:
192,56,2045,5,0,0:0:0:0:
192,56,2162,1,2,0:0:0:0:
316,56,2396,1,2,0:0:0:0:
316,56,2513,1,8,2:0:0:0:
212,56,2748,1,2,0:0:0:0:
300,56,2982,1,0,0:0:0:0:
256,132,3216,1,2,2:0:0:0:
256,140,3334,1,0,0:0:0:0:
256,148,3451,1,8,0:0:0:0:
504,240,3920,6,0,P|476:216|436:208,1,63.7500024318696,4|2,0:2|0:0,0:0:0:0:
328,264,4388,2,0,P|360:252|390:222,1,63.7500024318696,8|2,2:0|0:0,0:0:0:0:
392,96,4857,2,0,P|388:128|395:159,1,63.7500024318696,0|2,0:0|0:0,0:0:0:0:
410,199,5209,1,0,0:0:0:0:
410,199,5326,1,8,0:0:0:0:
316,332,5795,5,0,0:0:0:0:
304,344,5912,1,2,0:0:0:0:
200,332,6146,1,2,0:0:0:0:
212,344,6263,1,8,0:0:0:0:
300,268,6498,1,2,0:0:0:0:
256,360,6732,1,0,0:0:0:0:
212,268,6966,1,2,0:0:0:0:
25,233,7201,5,8,0:0:0:0:
40,228,7318,1,2,0:0:0:0:
55,223,7435,1,0,1:0:0:0:
70,219,7552,1,0,1:0:0:0:
85,214,7670,5,4,2:0:0:0:
120,144,7904,1,2,0:0:0:0:
44,128,8138,1,8,0:0:0:0:
172,56,8373,5,2,0:0:0:0:
176,72,8490,1,0,0:0:0:0:
180,88,8607,1,0,1:0:0:0:
268,68,8841,1,2,0:0:0:0:
360,84,9076,1,8,0:0:0:0:
316,284,9545,5,0,0:0:0:0:
400,272,9779,1,2,0:0:0:0:
368,340,10013,1,8,0:2:0:0:
448,188,10248,5,2,0:0:0:0:
443,199,10365,1,0,0:0:0:0:
438,211,10482,1,0,1:0:0:0:
352,176,10716,1,2,0:0:0:0:
256,176,10951,1,8,0:0:0:0:
160,52,11185,5,0,1:0:0:0:
160,52,11420,5,0,1:0:0:0:
256,136,11654,1,2,0:0:0:0:
352,52,11888,1,8,0:0:0:0:
256,156,12123,1,2,0:0:0:0:
160,68,12357,1,0,0:0:0:0:
256,176,12591,1,2,0:0:0:0:
248,191,12709,1,0,1:0:0:0:
254,206,12826,1,8,0:0:0:0:
261,221,12943,1,8,0:0:0:0:
257,237,13060,1,0,1:0:0:0:
57,229,13295,6,0,P|105:209|149:217,1,85,0|2,1:0|0:0,0:0:0:0:
181,325,13763,2,8,L|189:277,1,42.5
256,204,13998,2,0,L|269:247,1,42.5,0|0,1:0|1:0,0:0:0:0:
292,316,14232,5,4,1:2:0:0:
416,188,14466,1,0,1:0:0:0:
216,144,14701,2,6,L|152:128,1,63.75,10|2,0:0|0:0,0:0:0:0:
88,104,15170,5,4,1:2:0:0:
108,252,15404,1,2,0:0:0:0:
16,132,15638,1,8,0:0:0:0:
152,188,15873,1,2,0:0:0:0:
276,100,16107,5,0,1:0:0:0:
280,72,16341,1,0,1:0:0:0:
288,216,16576,1,8,0:0:0:0:
276,240,16810,1,2,0:0:0:0:
408,223,17045,1,0,1:0:0:0:
430,232,17162,1,0,0:0:0:0:
449,241,17279,1,2,0:0:0:0:
382,345,17513,6,0,L|369:273,1,63.7500024318696,12|2,0:0|0:0,0:0:0:0:
408,223,17865,1,0,0:0:0:0:
408,223,17982,2,0,L|497:199,1,85,4|2,0:2|0:0,0:0:0:0:
371,283,18451,2,0,L|273:309,1,85,4|2,0:0|0:0,0:0:0:0:
432,152,18920,5,0,1:0:0:0:
334,34,19154,1,0,1:0:0:0:
424,71,19388,1,8,0:0:0:0:
352,211,19623,1,2,0:0:0:0:
224,264,19857,5,0,1:0:0:0:
232,292,20091,1,2,0:0:0:0:
271,151,20326,1,8,0:0:0:0:
280,119,20560,1,2,0:0:0:0:
151,170,20795,1,0,1:0:0:0:
127,178,20912,1,0,0:0:0:0:
103,186,21029,1,2,0:0:0:0:
123,318,21263,6,0,L|139:234,1,63.7500024318696,12|2,0:0|0:0,0:0:0:0:
103,186,21615,1,0,0:0:0:0:
103,186,21732,2,0,L|84:100,1,85,4|2,0:0|0:0,0:0:0:0:
135,254,22201,2,0,L|156:344,1,85,4|0,0:0|1:0,0:0:0:0:
104,376,22552,5,0,1:0:0:0:
104,376,22670,2,0,P|60:364|32:324,1,85,4|2,1:2|0:0,0:0:0:0:
134,254,23138,1,8,0:0:0:0:
24,256,23373,1,2,0:0:0:0:
111,162,23607,1,0,1:0:0:0:
115,183,23724,1,2,0:0:0:0:
182,138,23959,1,2,0:0:0:0:
190,118,24076,1,8,0:0:0:0:
111,71,24310,1,0,1:0:0:0:
250,201,24545,6,0,L|338:213,1,85,0|2,1:0|0:0,0:0:0:0:
373,272,24896,1,2,0:0:0:0:
373,272,25013,2,0,B|337:316|377:356|377:356,1,85,8|2,0:0|0:0,0:0:0:0:
492,204,25482,2,0,P|504:180|504:148,3,42.5,0|0|2|2,1:0|0:0|0:0|0:0,0:0:0:0:
445,262,25951,1,8,0:0:0:0:
418,191,26185,1,0,1:0:0:0:
291,52,26420,6,0,B|243:70|239:142|305:171,1,127.5,4|0,1:2|0:0,2:0:0:0:
347,190,26888,2,0,L|374:271,1,85,8|2,0:0|0:0,2:0:0:0:
403,118,27357,1,0,1:0:0:0:
292,248,27591,1,2,2:0:0:0:
299,268,27709,1,0,1:0:0:0:
306,287,27826,2,0,L|322:331,1,42.5,8|0,0:0|1:0,2:0:0:0:
347,190,28060,1,0,1:0:0:0:
130,354,28295,6,0,P|94:322|102:262,1,85,0|2,1:0|0:0,0:0:0:0:
195,267,28763,1,8,0:0:0:0:
212,248,28880,1,2,0:0:0:0:
228,228,28998,1,0,1:0:0:0:
214,206,29115,1,0,1:0:0:0:
196,187,29232,5,2,0:0:0:0:
64,68,29466,1,8,0:0:0:0:
260,30,29701,1,8,0:0:0:0:
195,187,29935,1,4,0:0:0:0:
64,68,30170,6,0,L|80:164,1,85,4|2,1:2|0:0,0:0:0:0:
185,248,30638,2,0,P|204:208|172:168,1,85,8|2,0:0|0:0,0:0:0:0:
123,320,31107,2,0,L|112:364,3,42.5,0|0|2|2,1:0|0:0|0:0|0:0,0:0:0:0:
68,260,31576,1,8,0:0:0:0:
168,232,31810,1,0,1:0:0:0:
123,320,32045,1,0,1:0:0:0:
24,192,32279,1,2,0:0:0:0:
24,192,32396,1,2,0:0:0:0:
24,192,32513,5,12,0:0:0:0:
215,156,32748,1,2,0:0:0:0:
215,156,32865,1,0,0:0:0:0:
215,156,32982,2,0,B|260:122|320:149,1,85,4|2,1:2|0:0,0:0:0:0:
163,68,33451,2,0,B|120:28|55:55,1,85,4|2,1:2|0:0,0:0:0:0:
215,156,33920,5,0,1:0:0:0:
299,140,34154,1,0,1:0:0:0:
390,162,34388,2,0,L|370:250,1,85,8|2,0:0|0:0,0:0:0:0:
308,176,34857,1,0,1:0:0:0:
332,95,35091,2,0,P|319:64|315:40,2,42.5,2|2|8,0:0|0:0|0:0,0:0:0:0:
390,162,35561,1,2,0:0:0:0:
403,176,35677,1,0,1:0:0:0:
419,192,35795,1,0,1:0:0:0:
307,176,36030,1,0,1:0:0:0:
424,40,36263,5,12,0:0:0:0:
420,192,36498,1,2,0:0:0:0:
420,192,36615,1,0,0:0:0:0:
420,192,36732,2,0,B|420:248|480:272,1,85,4|2,1:2|0:0,0:0:0:0:
328,296,37201,1,12,0:0:0:0:
300,292,37318,1,0,1:0:0:0:
272,300,37435,1,0,1:0:0:0:
252,324,37552,1,0,1:0:0:0:
248,352,37670,5,4,1:2:0:0:
156,304,37904,1,2,0:0:0:0:
200,212,38138,1,8,0:0:0:0:
156,304,38373,1,2,0:0:0:0:
56,224,38607,5,0,1:0:0:0:
200,212,38841,1,0,1:0:0:0:
128,216,39076,1,8,0:0:0:0:
272,204,39310,1,0,1:0:0:0:
165,28,39545,5,0,1:0:0:0:
208,108,39779,1,2,0:0:0:0:
128,148,40013,1,8,0:0:0:0:
208,108,40248,1,2,0:0:0:0:
299,206,40482,2,0,P|279:170|295:126,1,85,0|2,1:0|0:0,0:0:0:0:
351,102,40834,1,2,0:0:0:0:
351,102,40951,2,0,L|435:86,1,85,8|0,0:0|1:0,0:0:0:0:
442,336,41420,2,0,L|350:312,1,85,0|2,1:0|0:0,0:0:0:0:
212,266,41888,5,8,0:0:0:0:
60,182,42123,2,0,L|68:226,1,42.5,2|2,0:0|0:0,0:0:0:0:
82,288,42357,1,0,1:0:0:0:
168,186,42591,2,0,L|184:126,1,42.5,2|0,0:0|1:0,0:0:0:0:
200,82,42826,1,8,0:0:0:0:
168,186,43060,1,0,1:0:0:0:
391,44,43295,5,0,0:0:0:0:
353,50,43412,1,0,0:0:0:0:
315,58,43529,1,0,0:0:0:0:
277,66,43646,1,0,0:0:0:0:
307,103,43763,5,8,1:0:0:0:
344,96,43880,1,0,0:0:0:0:
381,88,43997,1,0,0:0:0:0:
418,81,44114,1,0,0:0:0:0:
454,128,44232,6,0,L|438:176,1,42.5,2|0,0:2|0:0,0:0:0:0:
378,214,44466,2,0,L|375:171,1,42.5,2|0,0:2|0:0,0:0:0:0:
308,228,44701,2,0,L|324:276,1,42.5,4|0,0:0|0:0,0:0:0:0:
280,334,44935,2,0,L|255:299,1,42.5,2|0,0:0|0:0,0:0:0:0:
120,272,45170,5,4,0:0:0:0:
127,92,60170,5,4,0:0:0:0:
47,121,60404,1,0,0:0:0:0:
75,200,60638,1,2,0:0:0:0:
156,175,60873,1,0,0:0:0:0:
150,190,60990,1,2,0:0:0:0:
153,311,61341,1,0,0:0:0:0:
167,301,61459,1,0,0:0:0:0:
181,291,61576,1,2,0:0:0:0:
183,274,61693,1,0,0:0:0:0:
171,261,61810,1,0,0:0:0:0:
158,249,61927,1,0,0:0:0:0:
134,230,62045,5,2,0:0:0:0:
36,172,62357,1,0,0:0:0:0:
36,172,62513,1,2,0:0:0:0:
40,284,62826,1,2,0:0:0:0:
40,284,62982,2,0,P|60:321|99:336,1,85,2|0,0:0|0:0,0:0:0:0:
332,304,63451,5,0,0:0:0:0:
329,287,63568,2,0,P|309:250|270:235,1,85
230,220,63920,1,2,0:0:0:0:
255,316,64154,1,0,0:0:0:0:
336,185,64388,2,0,L|340:132,1,42.5,0|2,0:0|0:0,0:0:0:0:
452,175,64857,1,2,0:0:0:0:
446,199,64974,1,0,0:0:0:0:
440,223,65091,1,0,0:0:0:0:
336,300,65326,6,0,B|316:271|316:271|328:217,1,85,0|2,0:0|0:0,0:0:0:0:
465,100,65795,2,0,B|480:127|480:127|464:192,1,85,2|0,0:0|0:0,0:0:0:0:
440,272,66263,1,2,0:0:0:0:
344,292,66498,1,0,0:0:0:0:
343,291,66615,1,2,0:0:0:0:
374,157,66849,1,2,0:0:0:0:
390,157,66966,1,0,0:0:0:0:
402,169,67083,1,0,0:0:0:0:
396,184,67200,1,2,0:0:0:0:
388,200,67318,1,0,0:0:0:0:
380,216,67435,1,0,0:0:0:0:
184,200,67670,6,0,B|132:200|96:224,2,85,4|0|2,0:0|0:0|0:0,0:0:0:0:
256,120,68373,1,0,0:0:0:0:
256,120,68490,1,2,0:0:0:0:
328,200,68724,1,2,0:0:0:0:
329,200,68841,2,0,B|381:200|417:224,2,85,0|2|0,0:0|0:0|0:0,0:0:0:0:
256,296,69545,5,0,0:0:0:0:
200,248,69779,1,0,0:0:0:0:
256,200,70013,1,2,0:0:0:0:
312,248,70248,1,2,0:0:0:0:
352,248,70482,5,0,0:0:0:0:
256,160,70716,1,0,0:0:0:0:
164,248,70950,1,2,0:0:0:0:
256,336,71185,1,2,0:0:0:0:
352,184,71420,6,0,P|370:149|383:92,2,85,0|0|2,0:0|0:0|0:0,0:0:0:0:
256,248,72123,1,0,0:0:0:0:
172,110,72357,2,0,P|150:67|140:20,2,85,0|2|2,0:0|0:0|0:0,0:0:0:0:
208,168,72943,1,0,0:0:0:0:
205,180,73060,1,4,0:0:0:0:
202,192,73177,1,0,0:0:0:0:
199,205,73295,5,4,0:0:0:0:
24,264,73529,1,8,0:0:0:0:
80,80,73763,1,8,0:0:0:0:
120,228,73998,1,8,0:0:0:0:
272,184,74232,1,8,0:0:0:0:
300,196,74349,1,12,0:0:0:0:
328,88,74584,1,8,0:0:0:0:
352,64,74701,1,4,0:0:0:0:
480,40,74935,1,4,0:0:0:0:
425,171,75170,6,0,L|446:272,1,85,4|0,0:0|0:0,0:0:0:0:
364,331,75638,1,2,0:0:0:0:
285,252,75873,1,0,0:0:0:0:
277,232,75990,1,2,0:0:0:0:
177,351,76341,1,0,0:0:0:0:
193,337,76459,1,0,0:0:0:0:
210,324,76576,1,2,0:0:0:0:
212,302,76693,1,0,0:0:0:0:
196,288,76810,1,0,0:0:0:0:
178,275,76927,1,2,0:0:0:0:
161,288,77045,5,0,0:0:0:0:
32,160,77279,1,2,2:0:0:0:
32,160,77357,2,0,L|40:231,1,56.6666666666667,2|0,0:0|0:0,0:0:0:0:
160,84,77748,1,2,2:0:0:0:
160,84,77826,2,0,L|169:28,1,56.6666666666667,2|0,0:0|0:0,0:0:0:0:
312,144,78216,1,2,0:0:0:0:
248,248,78451,2,0,P|224:224|224:184,1,56.6666666666667,2|0,0:0|0:0,0:0:0:0:
256,64,78841,5,2,0:0:0:0:
384,232,79154,2,0,L|329:247,1,56.6666666666667,2|0,0:0|0:0,0:0:0:0:
254,324,79388,2,0,L|308:310,1,56.6666666666667,2|0,0:0|0:0,0:0:0:0:
450,212,79857,1,2,0:0:0:0:
461,189,79974,1,0,0:0:0:0:
472,166,80091,1,0,0:0:0:0:
335,35,80326,6,0,P|324:76|352:124,1,85,2|0,0:0|0:0,0:0:0:0:
450,212,80795,2,0,L|359:231,2,85,2|0|2,0:0|0:0|0:0,0:0:0:0:
450,212,81380,1,0,0:0:0:0:
413,45,81615,1,2,0:0:0:0:
342,151,81849,1,2,0:0:0:0:
323,140,81966,1,0,0:0:0:0:
304,129,82084,1,0,0:0:0:0:
301,107,82201,1,2,0:0:0:0:
301,85,82318,1,0,0:0:0:0:
320,77,82435,1,0,0:0:0:0:
452,232,82670,5,0,0:0:0:0:
372,248,82904,1,0,0:0:0:0:
292,264,83138,1,2,0:0:0:0:
68,192,83490,1,0,0:0:0:0:
68,192,83607,2,0,L|127:205,1,42.5
160,256,83841,2,0,P|143:308|136:344,2,85,2|2|0,0:0|0:0|0:0,0:0:0:0:
256,88,84545,5,0,0:0:0:0:
320,128,84779,1,0,0:0:0:0:
256,168,85013,1,2,0:0:0:0:
192,128,85247,1,2,0:0:0:0:
120,128,85482,5,0,0:0:0:0:
256,240,85716,1,0,0:0:0:0:
392,128,85951,1,2,0:0:0:0:
256,20,86185,1,2,0:0:0:0:
184,216,86420,6,0,P|152:248|112:268,2,85,0|0|2,0:0|0:0|0:0,0:0:0:0:
256,116,87123,1,0,0:0:0:0:
332,296,87357,2,0,P|372:320|412:324,2,85,0|2|2,0:0|0:0|0:0,0:0:0:0:
332,296,87943,1,0,0:0:0:0:
332,296,88060,1,0,0:0:0:0:
82,139,88295,5,2,0:2:0:0:
88,149,88412,1,0,0:0:0:0:
94,159,88529,1,2,0:2:0:0:
100,169,88646,1,0,0:0:0:0:
157,210,88763,5,2,0:2:0:0:
150,219,88880,1,0,0:0:0:0:
143,228,88997,1,2,0:2:0:0:
135,239,89114,1,0,0:0:0:0:
77,267,89232,5,2,0:2:0:0:
54,241,89349,1,0,0:0:0:0:
44,208,89466,1,2,0:2:0:0:
52,175,89583,1,0,0:0:0:0:
75,150,89701,5,0,0:0:0:0:
209,188,89935,1,0,0:0:0:0:
302,71,90170,6,4,L|405:51,1,85,4|0,0:0|0:0,0:0:0:0:
446,151,90638,1,2,0:0:0:0:
360,221,90873,1,0,0:0:0:0:
357,242,90990,1,2,0:0:0:0:
485,329,91341,1,0,0:0:0:0:
472,311,91459,1,0,0:0:0:0:
458,294,91576,1,2,0:0:0:0:
437,289,91693,1,0,0:0:0:0:
415,286,91810,1,0,0:0:0:0:
406,305,91927,1,0,0:0:0:0:
398,325,92045,5,2,0:0:0:0:
301,183,92279,1,2,2:0:0:0:
301,183,92357,2,0,L|296:240,1,56.6666666666667,2|0,0:0|0:0,0:0:0:0:
184,328,92748,1,2,2:0:0:0:
184,328,92826,2,0,L|174:272,1,56.6666666666667,2|0,0:0|0:0,0:0:0:0:
112,122,93216,1,2,0:0:0:0:
12,203,93451,2,0,P|32:227|68:234,1,56.6666666666667,2|0,0:0|0:0,0:0:0:0:
186,163,93802,5,2,0:0:0:0:
197,145,93920,2,0,L|212:111|197:60,1,85,2|0,0:0|0:0,0:0:0:0:
97,49,94388,1,0,0:0:0:0:
76,60,94505,1,2,0:0:0:0:
97,191,94857,1,0,0:0:0:0:
116,208,94974,1,0,0:0:0:0:
140,200,95091,1,0,0:0:0:0:
194,110,95326,1,0,0:0:0:0:
316,145,95560,1,2,0:0:0:0:
441,46,95795,5,0,0:0:0:0:
125,119,96263,1,2,0:0:0:0:
339,182,96615,1,2,0:0:0:0:
218,286,96849,1,2,0:0:0:0:
238,281,96966,1,0,0:0:0:0:
259,277,97084,1,2,0:0:0:0:
273,292,97201,1,0,0:0:0:0:
267,312,97318,1,0,0:0:0:0:
259,331,97435,1,0,0:0:0:0:
120,304,97670,6,0,L|34:318,2,85,0|0|2,0:0|0:0|0:0,0:0:0:0:
292,76,98373,1,0,0:0:0:0:
292,76,98490,1,0,0:0:0:0:
378,89,98724,1,0,0:0:0:0:
378,89,98841,2,0,L|472:108,2,85,2|2|0,0:0|0:0|0:0,0:0:0:0:
308,168,99545,5,0,0:0:0:0:
396,200,99779,1,0,0:0:0:0:
328,260,100013,2,0,P|320:300|336:348,1,85,2|2,0:0|0:0,0:0:0:0:
202,236,100482,2,2,P|218:172|202:96,1,127.5,2|0,0:0|0:0,0:0:0:0:
208,112,100951,1,2,0:0:0:0:
136,168,101185,1,2,0:0:0:0:
327,18,101420,5,2,0:0:0:0:
183,18,101654,1,0,0:0:0:0:
209,112,101888,1,0,0:0:0:0:
300,112,102123,1,2,0:0:0:0:
256,192,102357,5,0,0:0:0:0:
148,152,102591,1,2,0:0:0:0:
168,260,102826,1,2,0:0:0:0:
183,280,102943,1,0,0:0:0:0:
189,304,103060,1,0,0:0:0:0:
183,328,103177,1,0,0:0:0:0:
166,348,103295,5,4,0:0:0:0:
64,300,103529,1,0,0:0:0:0:
72,184,103763,1,0,0:0:0:0:
63,160,103880,1,0,0:0:0:0:
54,135,103998,1,0,0:0:0:0:
191,12,104232,6,0,L|235:36,1,42.5,4|0,0:2|0:0,0:0:0:0:
189,117,104466,2,0,L|241:95,1,42.5,4|0,2:0|0:0,0:0:0:0:
296,52,104701,1,0,0:0:0:0:
311,59,104818,1,4,0:2:0:0:
327,55,104935,1,0,0:0:0:0:
343,50,105052,1,0,0:0:0:0:
358,57,105170,6,0,L|340:184,1,127.500004863739,0|8,0:0|0:0,0:0:0:0:
392,264,105873,2,0,B|432:304|488:296|488:296,2,95.6250036478044,2|2|8,0:0|0:0|0:0,0:0:0:0:
456,220,106810,1,2,0:0:0:0:
344,192,107045,6,0,P|280:176|216:204,1,127.5,0|2,0:0|0:0,0:0:0:0:
224,197,107513,2,0,L|212:284,1,85,8|2,0:0|0:0,0:0:0:0:
308,352,107982,2,0,L|292:268,1,63.7500024318696,2|0,0:0|0:0,0:0:0:0:
224,196,108451,5,8,0:0:0:0:
152,232,108685,1,0,0:0:0:0:
148,144,108920,2,0,P|132:96|156:48,1,85,2|0,0:0|0:0,0:0:0:0:
220,24,109271,1,0,0:0:0:0:
220,24,109388,2,0,L|212:116,1,85,8|2,0:0|0:0,0:0:0:0:
224,196,109857,1,2,0:0:0:0:
296,144,110091,1,0,0:0:0:0:
216,208,110326,5,8,0:0:0:0:
216,208,110443,2,0,B|128:192|60:244|60:244,1,159.375006079674,2|0,0:0|0:0,0:0:0:0:
124,140,111263,5,8,0:0:0:0:
224,196,111498,1,2,0:0:0:0:
152,276,111732,2,0,L|140:364,1,85,2|0,0:0|0:0,0:0:0:0:
292,340,112201,5,8,0:0:0:0:
280,256,112435,1,2,0:0:0:0:
360,244,112670,2,0,P|396:192|380:108,1,127.500004863739,2|8,0:0|0:0,0:0:0:0:
400,52,113373,2,0,L|508:20,2,95.6250036478044,2|2|8,0:0|0:0|0:0,0:0:0:0:
324,72,114310,1,2,0:0:0:0:
424,128,114545,6,0,L|408:272,1,127.5,2|0,0:0|0:0,0:0:0:0:
409,254,115013,2,0,P|364:260|312:284,1,85,8|2,0:0|0:0,0:0:0:0:
256,356,115482,2,0,P|244:312|252:264,1,85,2|0,0:0|0:0,0:0:0:0:
256,192,115951,1,8,0:0:0:0:
256,192,116185,1,2,0:0:0:0:
256,192,116420,12,0,118998,0:0:0:0:
128,184,119232,6,0,P|138:222|177:245,1,76.4999976654053,4|2,0:0|0:0,0:0:0:0:
252,188,119701,2,0,P|240:148|212:128,1,76.4999976654053,4|0,0:0|0:0,0:0:0:0:
144,104,120170,5,6,0:0:0:0:
24,160,120404,1,0,0:0:0:0:
64,244,120638,2,0,B|56:268|56:268|80:336,1,85,8|0,0:0|0:0,0:0:0:0:
184,188,121107,1,0,0:0:0:0:
152,304,121341,1,0,0:0:0:0:
152,304,121459,1,0,0:0:0:0:
152,304,121576,2,0,P|196:288|244:292,1,85,8|0,0:0|0:0,0:0:0:0:
408,346,122045,6,0,P|344:358|272:338,1,127.5,0|0,0:2|0:0,0:0:0:0:
233,289,122513,1,8,0:0:0:0:
368,128,122748,2,0,L|356:217,1,85
348,288,123216,1,8,0:0:0:0:
443,274,123451,2,0,L|484:304,2,42.5,0|0|0,0:0|0:0|0:0,0:0:0:0:
459,181,123920,5,0,0:0:0:0:
368,128,124154,1,0,0:0:0:0:
368,128,124271,2,0,P|324:120|268:136,1,85,8|0,0:0|0:0,0:0:0:0:
220,148,124623,1,0,0:0:0:0:
188,244,124857,2,0,P|232:248|285:230,1,85,0|8,0:0|0:0,0:0:0:0:
368,28,125326,1,8,0:0:0:0:
380,44,125443,2,0,L|366:134,1,85,0|0,0:0|0:0,0:0:0:0:
396,204,125795,6,0,L|492:228,2,85,0|0|8,0:0|0:0|0:0,0:0:0:0:
288,64,126498,1,0,0:0:0:0:
288,64,126615,1,0,0:0:0:0:
288,64,126732,2,0,L|192:76,1,85,0|0,0:0|0:0,0:0:0:0:
116,52,127201,5,8,0:0:0:0:
256,184,127435,1,0,0:0:0:0:
256,184,127552,1,0,0:0:0:0:
256,184,127670,2,0,P|247:227|212:255,1,85,0|0,0:0|0:0,0:0:0:0:
102,194,128138,2,0,P|110:150|145:122,1,85,8|0,0:0|0:0,0:0:0:0:
176,196,128607,2,0,L|184:296,1,85,0|8,0:0|0:0,0:0:0:0:
276,152,129076,5,8,0:0:0:0:
182,280,129310,1,0,0:0:0:0:
320,336,129545,2,0,P|337:272|312:196,1,127.5
275,152,130013,1,8,0:0:0:0:
180,280,130248,5,0,0:0:0:0:
28,132,130482,1,0,0:0:0:0:
108,276,130716,1,0,0:0:0:0:
109,277,130834,1,0,0:0:0:0:
109,277,130951,2,0,L|97:337,2,42.5,8|0|0,0:0|0:0|0:0,0:0:0:0:
44,220,131420,5,0,0:0:0:0:
140,175,131654,1,0,0:3:0:0:
148,160,131771,1,8,0:0:0:0:
55,101,132005,1,8,0:0:0:0:
49,85,132123,1,0,0:3:0:0:
140,175,132357,5,0,0:0:0:0:
224,167,132591,1,0,0:0:0:0:
308,154,132826,1,8,0:0:0:0:
392,144,133060,2,0,L|446:135,1,47.8125018239022,0|0,0:0|2:0,0:0:0:0:
431,164,133295,5,2,0:2:0:0:
426,180,133412,1,2,0:2:0:0:
421,196,133529,1,2,0:2:0:0:
415,212,133646,1,0,0:0:0:0:
464,260,133763,5,8,0:0:0:0:
450,269,133880,1,0,0:0:0:0:
435,277,133997,1,2,0:2:0:0:
420,286,134114,1,0,0:0:0:0:
444,352,134232,5,0,0:0:0:0:
417,324,134349,1,10,0:0:0:0:
384,304,134466,1,0,0:0:0:0:
345,300,134584,1,0,0:0:0:0:
308,309,134701,5,2,0:0:0:0:
308,309,134935,5,2,0:0:0:0:
159,185,135170,6,0,L|169:136|169:136,1,42.5,4|0,0:0|0:0,0:0:0:0:
209,263,135638,2,0,L|200:318|200:318,1,42.5,2|0,0:0|0:0,0:0:0:0:
105,115,136107,6,0,L|65:96|65:96,1,42.5
268,334,136576,2,0,L|320:356|320:356,1,42.5,2|0,0:0|0:0,0:0:0:0:
80,312,137045,6,0,B|59:294|65:257,1,42.5,0|0,0:0|0:0,0:0:0:0:
57,177,137513,5,2,0:0:0:0:
57,177,137982,1,2,0:0:0:0:
149,125,138216,1,0,0:0:0:0:
149,133,138295,1,0,0:0:0:0:
149,141,138373,1,0,0:0:0:0:
149,149,138451,1,2,0:0:0:0:
379,217,138920,6,0,L|323:232|323:232,1,42.5,4|0,0:0|0:0,0:0:0:0:
404,140,139388,2,0,L|451:123|451:123,1,42.5,2|0,0:0|0:0,0:0:0:0:
433,278,139857,6,0,L|418:319|418:319,1,42.5,0|0,0:0|0:0,0:0:0:0:
360,67,140326,2,0,L|376:16|376:16,1,42.5,2|0,0:0|0:0,0:0:0:0:
466,151,140795,6,0,P|464:172|448:200,1,42.5,0|0,0:0|0:0,0:0:0:0:
380,260,141263,5,0,0:0:0:0:
466,151,141498,1,2,0:0:0:0:
328,132,141732,1,0,0:0:0:0:
392,184,141967,1,0,0:0:0:0:
392,184,142084,1,0,0:0:0:0:
392,184,142201,1,2,0:0:0:0:
88,96,142670,5,4,0:0:0:0:
148,280,142904,1,2,0:0:0:0:
148,280,143021,1,0,0:0:0:0:
148,280,143138,2,0,L|192:280,1,42.5,2|0,0:0|0:0,0:0:0:0:
320,32,143607,5,2,0:0:0:0:
272,220,143841,1,0,0:0:0:0:
272,220,143959,1,0,0:0:0:0:
272,220,144076,2,0,L|216:220,1,42.5,2|0,0:0|0:0,0:0:0:0:
204,64,144545,5,0,0:0:0:0:
296,152,144779,1,0,0:0:0:0:
296,152,144896,1,0,0:0:0:0:
296,152,145013,2,0,L|348:152,1,42.5,2|0,0:0|0:0,0:0:0:0:
460,192,145482,5,2,0:0:0:0:
368,244,145716,1,0,0:0:0:0:
368,236,145795,1,0,0:0:0:0:
368,228,145873,1,0,0:0:0:0:
368,220,145951,1,2,0:0:0:0:
52,232,146420,6,0,L|94:225,1,42.5,4|0,0:0|0:0,0:0:0:0:
160,212,146888,1,2,0:0:0:0:
52,232,147123,1,0,0:0:0:0:
168,344,147357,6,0,P|172:312|169:280,1,63.7500024318696,4|0,0:0|0:0,0:0:0:0:
160,212,147826,1,2,0:0:0:0:
168,344,148060,1,0,0:0:0:0:
312,208,148295,6,0,P|272:192|216:196,1,85,4|0,0:0|0:0,0:0:0:0:
160,212,148763,1,4,0:0:0:0:
312,208,148998,1,0,0:0:0:0:
112,148,149232,6,0,B|92:96|92:96|92:84|92:84|68:16,2,114.750000437737,0|4|4,0:0|0:0|0:0,0:0:0:0:
212,160,149935,5,0,0:0:0:0:
212,160,150052,1,0,0:0:0:0:
212,160,150170,2,0,L|300:160,1,85,4|0,0:2|0:0,0:0:0:0:
368,116,150638,2,0,L|384:32,1,85,8|0,0:0|0:0,0:0:0:0:
464,32,151107,2,0,P|476:92|444:152,1,127.5
447,149,151576,2,0,L|468:248,1,85,8|0,0:0|0:0,0:0:0:0:
436,324,152045,6,0,P|376:296|288:304,1,127.5
315,295,152513,1,8,0:0:0:0:
176,332,152748,2,0,P|220:348|263:338,1,85
224,252,153216,1,8,0:0:0:0:
224,252,153451,1,8,0:0:0:0:
308,192,153685,5,0,0:0:0:0:
308,192,153802,1,0,0:0:0:0:
308,192,153920,2,0,L|288:52,1,127.5,4|0,0:0|0:0,0:0:0:0:
220,32,154388,2,0,L|236:128,1,85,8|0,0:0|0:0,0:0:0:0:
180,176,154857,2,0,P|140:176|96:196,1,85
99,193,155209,1,0,0:0:0:0:
99,193,155326,1,8,0:0:0:0:
40,128,155560,1,0,0:0:0:0:
72,272,155795,6,0,L|44:352,2,85,0|0|8,0:0|0:0|0:0,0:0:0:0:
156,252,156498,1,2,0:2:0:0:
160,328,156732,1,0,0:0:0:0:
160,328,156849,1,8,0:0:0:0:
88,216,157084,1,2,0:2:0:0:
88,216,157201,1,8,0:0:0:0:
220,208,157435,5,0,0:0:0:0:
220,208,157552,1,0,0:0:0:0:
220,208,157670,2,0,P|240:160|236:112,1,85,4|0,0:0|0:3,0:0:0:0:
164,64,158138,2,0,L|80:48,1,85,8|0,0:0|0:0,0:0:0:0:
44,132,158607,2,0,P|108:160|180:148,1,127.5
163,154,159076,2,0,L|176:252,1,85,8|0,0:0|0:0,0:0:0:0:
272,328,159545,6,0,B|312:268|280:200,1,127.5
282,206,160013,1,8,0:0:0:0:
344,144,160248,1,0,0:0:0:0:
392,220,160482,2,0,L|487:254,2,85,0|8|8,0:0|0:0|0:0,0:0:0:0:
264,116,161185,5,0,0:0:0:0:
264,116,161302,1,0,0:0:0:0:
264,116,161420,2,0,P|256:72|280:20,1,85,4|0,0:0|0:0,0:0:0:0:
356,172,161888,2,0,P|367:217|351:268,1,85,8|0,0:0|0:0,0:0:0:0:
276,272,162357,1,0,0:0:0:0:
332,332,162591,2,0,L|344:380,2,42.5,0|0|8,0:0|0:0|0:0,0:0:0:0:
358,254,163060,1,0,0:0:0:0:
204,192,163295,5,4,0:0:0:0:
358,254,163529,1,8,0:0:0:0:
440,104,163763,5,4,0:0:0:0:
344,248,163998,1,8,0:0:0:0:
300,40,164232,5,4,0:0:0:0:
284,44,164349,1,8,0:0:0:0:
268,48,164466,1,2,0:0:0:0:
252,52,164584,1,8,0:0:0:0:
296,100,164701,5,0,0:0:0:0:
314,107,164818,1,8,0:0:0:0:
330,115,164935,1,2,0:0:0:0:
346,123,165052,1,0,0:0:0:0:
320,180,165170,6,0,L|344:292,1,101.999996887207,4|0,0:0|0:0,0:0:0:0:
368,344,165521,1,0,0:0:0:0:
384,332,165638,2,2,B|406:319|406:319|496:340,1,101.999996887207,2|0,0:0|0:0,0:0:0:0:
320,180,166107,1,2,0:0:0:0:
320,180,166224,2,0,B|298:193|298:193|208:172,1,101.999996887207,0|0,0:0|0:0,0:0:0:0:
160,216,166576,2,0,B|128:264|168:324,1,101.999996887207,8|2,0:0|0:0,0:0:0:0:
284,124,167045,6,2,B|316:72|276:16,1,101.999996887207,2|0,0:0|0:0,0:0:0:0:
283,27,167396,1,8,0:0:0:0:
40,40,167630,1,0,0:0:0:0:
40,40,167748,2,0,L|104:24,1,50.9999984436036,2|0,0:0|2:0,0:0:0:0:
136,92,167982,2,2,L|120:192,1,101.999996887207,2|0,0:0|0:0,0:0:0:0:
108,256,168334,1,0,0:0:0:0:
108,256,168451,1,8,0:0:0:0:
224,364,168685,5,0,0:0:0:0:
224,364,168802,1,0,0:0:0:0:
224,364,168920,2,0,P|240:308|228:264,1,101.999996887207,6|0,0:0|0:0,0:0:0:0:
160,276,169271,1,0,0:0:0:0:
144,264,169388,2,0,B|28:272,1,101.999996887207,8|2,0:0|0:0,0:0:0:0:
216,124,169857,2,2,P|260:92|324:100,1,101.999996887207,2|0,0:0|0:0,0:0:0:0:
280,156,170209,1,8,0:0:0:0:
448,36,170443,1,0,0:0:0:0:
448,36,170560,2,0,L|412:76,1,50.9999984436036,2|0,0:0|2:0,0:0:0:0:
380,144,170795,6,2,L|404:268,1,101.999996887207,2|0,0:0|0:0,0:0:0:0:
416,304,171146,1,0,0:0:0:0:
416,304,171263,1,8,0:0:0:0:
184,312,171498,1,2,0:0:0:0:
348,344,171732,2,2,B|312:356|312:356|244:336,1,101.999996887207,2|0,0:0|0:0,0:0:0:0:
52,336,172201,1,8,0:0:0:0:
52,336,172318,1,0,0:0:0:0:
52,336,172435,6,0,L|92:292,1,50.9999984436036
68,224,172670,2,0,L|48:120,1,101.999996887207,6|0,0:0|0:0,0:0:0:0:
36,60,173021,1,0,0:0:0:0:
36,60,173138,1,8,0:0:0:0:
244,28,173373,5,2,0:0:0:0:
160,184,173607,2,2,B|248:180|268:92,1,152.999995330811,2|0,0:0|0:0,0:0:0:0:
244,28,174076,1,8,0:0:0:0:
188,108,174310,1,2,0:0:0:0:
308,180,174545,6,2,B|387:140|446:206,1,152.999995330811,2|0,0:0|0:0,0:0:0:0:
480,268,175013,1,8,0:0:0:0:
308,180,175248,1,2,0:0:0:0:
368,264,175482,1,2,0:0:0:0:
372,284,175599,1,0,0:0:0:0:
376,304,175716,1,8,0:0:0:0:
312,368,175951,1,8,0:0:0:0:
176,188,176185,6,0,L|116:196,1,50.9999984436036
52,248,176420,2,0,P|92:276|164:268,1,101.999996887207,4|0,0:2|0:0,0:0:0:0:
120,72,176888,2,0,L|112:176,1,101.999996887207
260,172,177357,1,4,0:2:0:0:
292,344,177591,1,0,0:0:0:0:
292,344,177709,1,0,0:0:0:0:
292,344,177826,2,0,L|276:244,1,101.999996887207,8|0,0:0|0:0,0:0:0:0:
328,36,178295,5,4,2:2:0:0:
260,172,178529,1,8,0:0:0:0:
72,96,178763,5,4,2:2:0:0:
268,184,178998,1,8,0:0:0:0:
152,316,179232,5,4,0:2:0:0:
122,333,179349,1,8,0:0:0:0:
89,327,179466,1,2,0:0:0:0:
67,301,179584,1,8,0:0:0:0:
67,267,179701,1,4,0:2:0:0:
89,241,179818,1,0,0:0:0:0:
122,235,179935,1,2,0:0:0:0:
152,252,180052,1,0,0:0:0:0:
163,284,180170,1,4,0:2:0:0:
