osu file format v12

[General]
AudioFilename: Spring of Dreams.mp3
AudioLeadIn: 1996
PreviewTime: 90170
Countdown: 0
SampleSet: Normal
StackLeniency: 0.3
Mode: 0
LetterboxInBreaks: 1
WidescreenStoryboard: 0

[Editor]
DistanceSpacing: 1.1
BeatDivisor: 4
GridSize: 4
TimelineZoom: 1

[Metadata]
Title:Spring of Dreams
TitleUnicode:春の湊に
Artist:Rin
ArtistUnicode:凛
Creator:jyc-Binggan
Version:Easy
Source:Touhou
Tags:zun lkx_shore fanzhen0019 Deye nazrin House set of "Undefined Fantastic Object" 〜 Myorenji set クロネコラウンジ 東方Project 東方星蓮船
BeatmapID:369684
BeatmapSetID:119739

[Difficulty]
HPDrainRate:3
CircleSize:3
OverallDifficulty:2
ApproachRate:2
SliderMultiplier:0.799999999999999
SliderTickRate:1

[Events]
//Background and Video events
0,0,"86c5be8a5e98182cc9fc7af8.jpg",0,0
//Break Periods
2,45370,58610
2,105369,117672
//Storyboard Layer 0 (Background)
//Storyboard Layer 1 (Fail)
//Storyboard Layer 2 (Pass)
//Storyboard Layer 3 (Foreground)
//Storyboard Sound Samples
//Background Colour Transformations
3,100,163,162,255

[TimingPoints]
170,468.75,4,1,1,35,1,0
2748,-100,4,2,1,90,0,0
2865,-100,4,1,1,35,0,0
6498,-100,4,2,1,90,0,0
6615,-100,4,1,1,35,0,0
7670,-100,4,2,1,55,0,0
7787,-100,4,1,1,35,0,0
10248,-100,4,2,1,90,0,0
10365,-100,4,1,1,35,0,0
13998,-100,4,2,1,90,0,0
14115,-100,4,1,1,35,0,0
15170,-100,4,2,1,80,0,0
43295,-100,4,1,1,60,0,0
45170,-100,4,2,1,60,0,1
45287,-100,4,2,1,60,0,0
60170,-100,4,2,1,80,0,0
73295,-100,4,2,1,90,0,0
73412,-100,4,3,0,50,0,0
75170,-100,4,2,1,80,0,1
75287,-100,4,1,1,50,0,0
90170,-100,4,2,1,80,0,1
90404,-100,4,1,1,50,0,0
103295,-100,4,2,1,80,0,0
103529,-100,4,1,1,50,0,0
120170,-100,4,2,1,80,0,1
120287,-100,4,1,1,50,0,0
133060,-100,4,1,1,50,0,0
133295,-100,4,1,1,50,0,0
135170,-100,4,2,1,70,0,0
146420,-100,4,2,1,70,0,1
146888,-100,4,2,1,70,0,0
147357,-100,4,2,1,70,0,1
147826,-100,4,2,1,70,0,0
148295,-100,4,2,1,70,0,1
148646,-100,4,2,1,70,0,0
148763,-100,4,2,1,70,0,1
149115,-100,4,2,1,70,0,0
149232,-100,4,2,1,70,0,1
149935,-100,4,1,1,50,0,0
163295,-100,4,2,1,80,0,0
163412,-100,4,3,0,50,0,0
163646,-100,4,2,1,80,0,0
163880,-100,4,3,0,50,0,0
164232,-100,4,2,1,80,0,0
164349,-100,4,3,0,50,0,0
165170,-100,4,2,1,60,0,0
165287,-100,4,1,1,60,0,0
178529,-100,4,3,0,50,0,0
180170,-100,4,2,1,50,0,1
180287,-100,4,2,1,50,0,0

[Colours]
Combo1 : 255,128,64
Combo2 : 255,128,128
Combo3 : 192,192,192

[HitObjects]
112,72,170,6,0,B|80:104|92:152,1,79.9999999999999,4|0,0:0|0:0,0:0:0:0:
148,200,1107,2,0,B|116:276,1,79.9999999999999,0|0,0:0|0:0,0:0:0:0:
184,316,2045,2,0,B|248:304|300:336,2,120,0|2|0,0:0|0:0|0:0,0:0:0:0:
136,252,3920,6,0,B|136:204|172:184,1,79.9999999999999
248,208,4857,2,0,B|328:184,1,79.9999999999999
368,120,5795,2,0,B|392:82|430:61|476:64,2,120,0|2|0,0:0|0:0|0:0,0:0:0:0:
344,196,7670,6,0,B|308:220|264:208,1,79.9999999999999,4|0,0:0|0:0,0:0:0:0:
200,168,8607,2,0,B|159:156|123:180,1,79.9999999999999
80,248,9545,2,0,B|132:288|104:356,2,120,0|2|0,0:0|0:0|0:0,0:0:0:0:
48,176,11420,5,0,0:0:0:0:
72,100,11888,1,0,0:0:0:0:
140,140,12357,2,0,B|184:156|220:132,1,79.9999999999999
288,96,13295,2,0,B|408:68,1,120,0|2,0:0|0:0,0:0:0:0:
432,40,14232,2,0,B|468:72|464:112,1,79.9999999999999
408,168,15170,5,4,0:0:0:0:
320,320,16107,1,2,0:0:0:0:
156,256,17045,2,0,B|124:224|128:184,1,79.9999999999999
184,116,17982,1,2,0:0:0:0:
244,284,18920,5,0,0:0:0:0:
408,224,19857,1,2,0:0:0:0:
376,52,20795,2,0,B|332:44|300:72,1,79.9999999999999
268,152,21732,2,0,B|237:179|193:171,2,79.9999999999999,2|2|4,0:0|0:0|0:0,0:0:0:0:
116,64,23607,5,2,0:0:0:0:
152,236,24545,2,0,B|180:268|224:264,1,79.9999999999999,0|2,0:0|0:0,0:0:0:0:
308,236,25482,1,0,0:0:0:0:
360,304,25951,2,0,B|432:268,1,79.9999999999999,2|0,0:0|0:0,0:0:0:0:
420,92,27357,5,2,0:0:0:0:
248,56,28295,2,0,B|204:64|184:100,1,79.9999999999999,0|2,0:0|0:0,0:0:0:0:
216,184,29232,1,2,0:0:0:0:
152,244,29701,1,0,0:0:0:0:
64,248,30170,1,4,0:0:0:0:
92,76,31107,5,2,0:0:0:0:
268,72,32045,2,0,B|316:72|336:108,1,79.9999999999999,0|2,0:0|0:0,0:0:0:0:
348,196,32982,2,0,B|367:231|415:231,2,79.9999999999999,2|2|0,0:0|0:0|0:0,0:0:0:0:
448,52,34857,5,2,0:0:0:0:
404,224,35795,2,0,B|380:300,1,79.9999999999999,0|2,0:0|0:0,0:0:0:0:
292,288,36732,2,0,B|248:296|232:336,1,79.9999999999999,2|2,0:0|0:0,0:0:0:0:
144,336,37670,1,4,0:0:0:0:
72,176,38607,5,2,0:0:0:0:
228,96,39545,2,0,B|276:92|296:128,1,79.9999999999999,0|2,0:0|0:0,0:0:0:0:
308,216,40482,2,0,B|320:300,1,79.9999999999999,2|2,0:0|0:0,0:0:0:0:
256,192,41420,12,0,43295,0:0:0:0:
308,264,44232,6,0,B|352:280|388:256,1,79.9999999999999
436,184,45170,1,4,0:0:0:0:
40,40,60170,6,0,B|24:116|84:152|84:152|168:136|184:196,1,240,4|0,0:0|0:0,0:0:0:0:
196,276,62045,2,0,B|284:276|320:192|320:192|300:136|328:104,1,240,2|0,0:0|0:0,0:0:0:0:
400,76,63920,6,0,B|460:68|508:112|504:176,1,160,2|0,0:0|0:0,0:0:0:0:
432,216,65326,1,2,0:0:0:0:
348,244,65795,2,0,B|304:256|284:292,1,79.9999999999999,2|0,0:0|0:0,0:0:0:0:
208,332,66732,2,0,B|188:296|140:288,1,79.9999999999999,2|0,0:0|0:0,0:0:0:0:
76,344,67670,6,0,B|44:184,1,160,4|0,0:0|0:0,0:0:0:0:
172,64,69545,2,0,B|203:220,1,160,2|0,0:0|0:0,0:0:0:0:
344,324,71420,2,0,B|408:304|423:232|404:152|344:136,1,240,2|0,0:0|0:0,0:0:0:0:
256,192,73295,12,4,75170,0:0:0:0:
116,248,76107,5,0,0:0:0:0:
172,316,76576,1,0,0:0:0:0:
256,344,77045,2,0,B|320:352|364:300,1,120
348,256,77982,2,0,B|360:208|404:196,1,79.9999999999999
488,188,78920,5,0,0:0:0:0:
360,68,79857,1,0,0:0:0:0:
292,232,80795,2,0,B|264:264|220:264,1,79.9999999999999
160,200,81732,2,0,B|117:199|89:231,1,79.9999999999999
156,288,82670,6,0,B|208:124,1,160
372,76,84545,2,0,B|368:144|304:168,1,120
264,164,85482,2,0,B|288:240,1,79.9999999999999
328,320,86420,5,0,0:0:0:0:
404,276,86888,1,0,0:0:0:0:
408,188,87357,1,0,0:0:0:0:
332,228,87826,1,0,0:0:0:0:
256,192,88295,12,4,90170,0:0:0:0:
256,192,91107,5,0,0:0:0:0:
276,280,91576,1,0,0:0:0:0:
356,320,92045,2,0,B|392:264|460:272|460:272|488:208|452:160,1,240
380,108,93920,6,0,B|332:108|312:152,1,79.9999999999999
256,212,94857,1,0,0:0:0:0:
176,252,95326,1,0,0:0:0:0:
92,228,95795,2,0,B|52:172|88:108,1,120
112,80,96732,2,0,B|144:112|188:100,1,79.9999999999999
272,76,97670,6,0,B|368:56|416:128,1,160
384,208,99076,1,0,0:0:0:0:
320,268,99545,2,0,B|348:312|432:308|464:256,1,160
464,172,100951,1,0,0:0:0:0:
392,120,101420,5,0,0:0:0:0:
220,92,102357,1,0,0:0:0:0:
48,132,103295,2,0,B|40:184|88:208,1,79.9999999999999,4|0,0:0|0:0,0:0:0:0:
148,256,104232,2,0,B|184:228|224:236,2,79.9999999999999,4|0|4,0:0|0:0|0:0,0:0:0:0:
168,68,119232,6,0,B|184:148,1,79.9999999999999,0|0,0:0|0:0,0:0:0:0:
128,216,120170,2,0,B|200:204|232:272,1,120,4|0,0:0|0:0,0:0:0:0:
204,300,121107,2,0,B|288:276,1,79.9999999999999,0|8,0:0|0:0,0:0:0:0:
348,336,122045,2,0,B|416:356|460:304,1,120
464,264,122982,1,0,0:0:0:0:
432,180,123451,1,8,0:0:0:0:
376,112,123920,6,0,B|328:164|356:224,1,120
376,260,124857,2,0,B|336:292|288:280,1,79.9999999999999,0|8,0:0|0:0,0:0:0:0:
220,248,125795,1,0,0:0:0:0:
144,296,126263,1,0,0:0:0:0:
60,268,126732,1,0,0:0:0:0:
40,184,127201,1,8,0:0:0:0:
88,108,127670,6,0,B|140:112|152:152|152:152|232:152,1,160
296,208,129076,1,8,0:0:0:0:
364,152,129545,2,0,B|428:176|432:244,1,120
400,272,130482,2,0,B|372:352,1,79.9999999999999,0|8,0:0|0:0,0:0:0:0:
284,352,131420,5,0,0:0:0:0:
216,296,131888,2,0,B|216:256,2,40
140,340,132826,2,0,B|96:324,1,40
256,192,133295,12,4,135170,0:0:0:0:
256,316,136107,5,2,0:0:0:0:
416,240,137045,2,0,B|440:204|432:164,1,79.9999999999999
384,92,137982,2,0,B|232:148,1,160,2|4,0:0|0:0,0:0:0:0:
256,316,139857,5,2,0:0:0:0:
416,240,140795,1,0,0:0:0:0:
308,100,141732,2,0,B|320:60|360:44,1,79.9999999999999,2|0,0:0|0:0,0:0:0:0:
444,76,142670,5,4,0:0:0:0:
380,240,143607,1,2,0:0:0:0:
212,296,144545,2,0,B|140:260,1,79.9999999999999
60,292,145482,2,0,B|36:200|104:144,1,160,2|4,0:0|0:0,0:0:0:0:
256,60,147357,5,4,0:0:0:0:
432,88,148295,1,4,0:0:0:0:
412,172,148763,1,4,0:0:0:0:
388,256,149232,2,0,B|328:280|268:248,1,120,4|0,0:0|0:0,0:0:0:0:
244,216,150170,6,0,B|204:200|164:216,1,79.9999999999999,4|0,0:2|0:0,0:0:0:0:
104,272,151107,2,0,B|72:156,1,120
60,112,152045,1,0,0:0:0:0:
124,52,152513,1,8,0:0:0:0:
188,112,152982,2,0,B|228:116|256:80,1,79.9999999999999
332,36,153920,6,0,B|300:152,1,120
332,184,154857,2,0,B|300:300,1,120
328,336,155795,1,0,0:0:0:0:
412,312,156263,1,8,0:0:0:0:
440,228,156732,2,0,B|404:208|360:220,1,79.9999999999999
292,272,157670,6,0,B|208:292|148:220,1,160
148,132,159076,1,0,0:0:0:0:
228,96,159545,2,0,B|264:128|248:176,1,79.9999999999999,0|8,0:0|0:0,0:0:0:0:
212,248,160482,2,0,B|304:328,1,120
344,312,161420,6,0,B|372:280|416:288,1,79.9999999999999,0|8,0:0|0:0,0:0:0:0:
476,224,162357,2,0,B|448:192|404:200,1,79.9999999999999,0|8,0:0|0:0,0:0:0:0:
320,168,163295,1,4,0:0:0:0:
280,248,163763,1,4,0:0:0:0:
240,328,164232,2,0,B|172:336|128:288,1,120,4|0,0:0|0:0,0:0:0:0:
88,288,165170,6,0,B|120:256|108:208,1,79.9999999999999,4|8,0:0|0:0,0:0:0:0:
36,164,166107,2,0,B|104:116,1,79.9999999999999,0|8,0:0|0:0,0:0:0:0:
188,136,167045,2,0,B|248:160|300:112,1,120
312,72,167982,2,0,B|336:148,1,79.9999999999999,0|8,0:0|0:0,0:0:0:0:
424,168,168920,6,0,B|392:224|420:288,1,120
452,308,169857,2,0,B|384:296|340:340,1,120
296,348,170795,1,0,0:0:0:0:
212,324,171263,1,8,0:0:0:0:
152,260,171732,2,0,B|117:238|66:246,1,79.9999999999999
100,321,172670,6,0,B|132:161,1,160
148,76,174076,1,8,0:0:0:0:
212,136,174545,2,0,B|276:152|328:104,1,120
340,68,175482,1,0,0:0:0:0:
404,128,175951,1,8,0:0:0:0:
464,192,176420,5,4,0:0:0:0:
320,292,177357,1,4,0:0:0:0:
300,116,178295,2,0,B|344:136|356:172,1,79.9999999999999,4|0,0:0|0:0,0:0:0:0:
276,204,179232,2,0,B|120:176,1,160,0|4,0:0|0:0,0:0:0:0:
