osu file format v5

[General]
AudioFilename: Kokoro.mp3
AudioLeadIn: 0
PreviewTime: -1
Countdown: 1
SampleSet: Soft

[Metadata]
Title:Kokoro
Artist:Rin
Creator:Fortevn
Version:Normal

[Difficulty]
HPDrainRate:7
CircleSize:6
OverallDifficulty:5
SliderMultiplier:1.4
SliderTickRate:1

[Events]
//Background and Video events
0,0,"Untitled 1.jpg"
//Break Periods
2,88888,93950
2,163097,191664
2,211030,213252
2,217847,220140
2,224735,226957
2,231552,233916
2,247105,249113
//Storyboard Layer 0 (Background)
//Storyboard Layer 1 (Failing)
//Storyboard Layer 2 (Passing)
//Storyboard Layer 3 (Foreground)
//Storyboard Sound Samples
//Background Colour Transformations
3,100,163,162,255

[TimingPoints]
8610,428.571428571429,4,2,0,100

[HitObjects]
96,96,18038,2,0,C|384:96,1,280
119,65,21038,6,0,C|196:76|196:153,3,140
256,128,24895,5,0
96,128,25538,2,0,C|96:168,3,23.3333333333333
160,192,27895,6,0,C|310:192,3,140
256,128,30038,5,0
384,32,31752,2,0,C|384:320,1,280
96,64,34752,6,0,C|96:224,3,140
192,192,36467,5,0
192,128,36681,1,0
192,64,36895,1,0
256,96,37110,2,0,C|384:96,1,116.666666666667
384,160,37860,1,0
288,288,38395,2,0,C|288:147,2,140
160,160,39895,5,0
96,160,40110,1,0
32,160,40324,1,0
32,224,40538,1,0
128,224,40967,2,0,C|288:224,4,140
224,96,43324,6,0,C|224:169,3,70
320,128,44395,1,0
256,224,44824,1,0
192,320,45252,1,0
128,224,45681,1,0
64,128,46109,1,0
128,192,47824,5,0
160,224,48038,1,0
192,192,48252,1,0
160,96,48681,6,4,C|236:96,2,70
96,64,50181,5,0
96,128,50395,1,0
160,128,50609,1,0
224,128,50824,2,0,C|224:256,1,116.666666666667
128,192,51681,1,0
32,192,52109,2,0,C|138:299,2,140
192,128,53609,5,0
128,160,53824,1,0
192,192,54038,1,0
128,224,54252,1,0
224,256,54681,2,0,C|384:256,4,140
224,96,57038,5,0
192,128,57252,1,0
160,160,57467,1,0
128,192,57681,1,0
224,192,58109,2,4,C|384:192,4,140
96,64,61538,5,4
160,64,61752,1,4
256,64,62181,1,4
320,64,62395,1,4
416,96,62824,2,4,C|416:327,1,210
288,320,63895,1,0
224,320,64109,1,0
160,320,64324,1,0
160,160,64967,5,0
256,96,65396,1,0
192,96,65610,1,0
128,96,65825,1,0
64,96,66039,1,0
320,64,66896,5,0
320,160,67325,2,0,C|396:175,2,70
160,32,68396,5,0
160,128,68825,1,0
192,160,69039,1,0
160,192,69253,1,0
192,224,69467,1,0
416,128,70325,5,4
288,128,70753,2,2,C|240:191,2,70
128,64,71825,5,0
128,160,72253,2,0,C|128:247,1,70
192,224,72682,2,0,C|280:224,1,70
64,192,73753,5,4
256,192,74396,1,4
448,192,75038,2,4,C|448:224,15,23.3333333333333
384,192,77182,5,2
288,160,77610,1,2
288,96,77825,1,2
288,32,78039,1,2
160,96,78682,5,2
224,192,79110,1,2
224,256,79325,1,2
160,256,79539,1,2
160,192,79753,1,2
384,96,80610,5,2
384,192,81039,2,0,C|384:282,2,70
224,96,82110,5,2
224,160,82539,2,2,C|296:160,3,70
64,64,84039,5,2
160,64,84467,1,2
160,128,84682,1,2
160,192,84896,1,2
320,192,85539,5,2
416,192,85967,1,2
352,192,86182,1,2
288,192,86396,1,2
320,224,86610,1,2
160,192,87467,5,6
160,192,88110,1,6
160,192,88753,1,6
256,192,95182,5,4
256,192,95610,1,4
256,192,96039,1,4
416,192,96682,5,0
416,128,96896,2,0,C|199:128,1,210
96,128,97967,1,0
96,224,98396,2,0,C|96:316,1,70
394,99,99467,5,4
288,224,100110,1,0
224,224,100325,1,0
64,224,100967,2,0,C|144:224,4,70
320,96,102896,5,4
320,256,103539,2,0,C|401:256,1,70
224,256,104396,1,4
224,128,104825,1,4
288,192,105253,1,4
352,192,105467,1,4
96,160,106325,5,4
95,256,107396,2,4,C|178:276,2,70
320,32,108896,5,0
320,128,109325,1,2
320,224,109753,1,0
160,224,110396,2,0,C|256:224,1,70
160,96,111253,1,4
160,192,111682,1,4
256,192,112110,2,0,C|352:192,1,70
384,160,113182,5,0
224,160,113824,1,0
288,160,114038,1,0
288,320,114681,1,0
224,320,114895,1,0
224,256,115109,1,0
224,192,115324,1,0
288,192,115538,1,0
32,288,116610,5,0
192,288,117253,1,0
256,288,117467,1,0
256,128,118110,1,0
256,224,118539,1,0
160,223,118967,1,0
160,160,119182,1,0
352,32,120039,5,0
416,96,120467,1,0
448,128,120682,1,0
352,128,121110,5,4
352,128,121325,1,4
352,128,121539,1,4
256,192,123467,12,0,135467
128,160,137395,2,6,C|128:233,2,70
160,256,138252,6,6,C|252:256,2,70
256,224,139109,6,6,C|256:148,2,70
224,128,139967,6,6,C|136:128,2,70
320,128,140824,5,0
288,160,141038,1,0
288,96,141252,1,0
352,96,141467,1,0
352,160,141681,1,0
320,256,142109,5,0
192,256,142538,2,0,C|193:281|203:301|221:315,5,70
224,128,144252,6,6,C|177:184,2,70
192,224,145109,6,6,C|255:277,2,70
288,256,145967,6,6,C|337:200,2,70
320,160,146824,6,6,C|259:111,2,70
224,96,147681,6,0,C|294:96,4,70
288,192,148967,1,0
352,288,149395,2,0,C|266:288,5,70
192,128,151110,6,6,C|192:210,2,70
288,128,151967,6,6,C|288:36,2,70
384,128,152824,6,6,C|384:211,2,70
288,192,153681,6,6,C|10:193,1,256.666666666667
256,192,154967,12,4,162895
160,96,192896,1,4
256,96,193325,1,4
352,96,193753,1,4
256,224,195468,1,4
192,160,197610,5,4
256,128,197825,1,4
320,160,198039,1,4
320,224,198468,5,4
256,256,198682,1,4
192,224,198896,1,4
256,192,199325,5,4
192,192,201039,6,4,C|352:192,3,140
164,88,204468,6,4,C|135:108|131:150|156:180|189:180,3,140
128,128,207682,5,6
160,96,207896,1,6
192,128,208110,1,6
224,96,208325,1,6
256,128,208539,5,6
288,96,208753,1,6
320,128,208968,1,6
352,96,209182,1,6
384,128,209396,5,6
416,96,209610,1,6
448,128,209825,1,6
416,160,210039,1,6
384,192,210253,5,6
352,160,210468,1,6
320,192,210682,1,6
288,160,210896,1,6
128,160,214539,5,6
160,128,214753,1,6
192,96,214968,1,6
224,64,215182,1,6
288,64,215396,5,6
320,96,215610,1,6
352,128,215825,1,6
384,160,216039,1,6
384,224,216253,5,6
352,256,216468,1,6
320,288,216682,1,6
288,320,216896,1,6
224,320,217110,5,6
192,288,217325,1,6
160,256,217539,1,6
128,224,217753,1,6
160,192,221396,5,6
192,160,221610,1,6
224,128,221825,1,6
256,96,222039,1,6
288,128,222253,5,6
256,160,222468,1,6
224,192,222682,1,6
192,224,222896,1,6
224,256,223110,5,6
256,224,223325,1,6
288,192,223539,1,6
320,160,223753,1,6
352,192,223968,5,6
320,224,224182,1,6
288,256,224396,1,6
256,288,224610,1,6
256,192,228253,5,6
256,192,228468,5,6
256,192,228682,5,6
256,192,228896,5,6
256,192,229110,5,6
256,192,229325,5,6
256,192,229539,5,6
256,192,229753,5,6
256,192,229968,5,6
256,192,230182,5,6
256,192,230396,5,6
256,192,230610,5,6
256,192,230825,5,6
256,192,231039,5,6
256,192,231253,5,6
256,192,231468,5,6
256,192,235110,5,6
256,192,235325,5,6
256,192,235539,5,6
256,192,235753,5,6
256,192,235968,5,6
256,192,236182,5,6
256,192,236396,5,6
256,192,236610,5,6
256,192,236825,5,6
256,192,237039,5,6
256,192,237253,5,6
256,192,237468,5,6
256,192,237682,5,6
256,192,237896,5,6
256,192,238110,5,6
256,192,238325,5,6
64,32,239181,5,4
128,96,239610,5,0
160,128,239825,1,0
192,96,240039,1,0
288,32,240468,5,4
192,160,242610,5,0
256,224,243038,1,0
320,160,243467,1,0
416,160,244324,6,2,B|110:160,1,280
188,263,246895,5,4
256,96,250324,5,0
352,160,250752,1,0
320,256,251181,1,0
192,256,251610,1,0
160,160,252038,1,0
192,128,253752,6,0,C|275:240|334:117,2,280
128,128,257182,5,0
192,224,257610,1,0
256,128,258039,1,0
320,224,258468,1,0
384,128,258896,1,0
128,192,259752,5,0
128,192,260610,6,0,C|416:192,1,280
192,128,264039,5,0
288,128,264468,1,0
384,128,264896,1,0
288,192,265325,2,0,C|448:192,1,140
192,160,267468,6,0,C|352:160,4,140
128,64,270895,5,0
352,64,271752,1,0
352,256,272610,1,0
96,256,273467,1,0
256,192,274217,12,0,276467
