osu file format v9

[General]
AudioFilename: kokoro edit ver..mp3
AudioLeadIn: 0
PreviewTime: -1
Countdown: 1
SampleSet: Normal
StackLeniency: 0.7
Mode: 0
LetterboxInBreaks: 1

[Editor]
DistanceSpacing: 0.8
BeatDivisor: 1
GridSize: 8

[Metadata]
Title:KoKoRo
Artist:Rin
Creator:cjpaoshen
Version:Normal
Source:
Tags:

[Difficulty]
HPDrainRate:5
CircleSize:5
OverallDifficulty:5
ApproachRate:5
SliderMultiplier:1.4
SliderTickRate:1

[Events]
//Background and Video events
0,0,"kokoro.jpg"
//Break Periods
//Storyboard Layer 0 (Background)
//Storyboard Layer 1 (Fail)
//Storyboard Layer 2 (Pass)
//Storyboard Layer 3 (Foreground)
//Storyboard Sound Samples
//Background Colour Transformations
3,100,163,162,255

[TimingPoints]
151,428.571428571429,4,1,0,100,1,0
21578,214.285714285714,4,1,0,100,1,0

[Colours]
Combo1 : 237,20,91
Combo2 : 9,225,114
Combo3 : 0,174,239
Combo4 : 244,154,193

[HitObjects]
24,48,151,1,0
120,144,1008,1,0
224,48,1865,1,0
344,144,3151,1,0
440,144,3579,1,0
424,216,5293,5,0
336,312,6151,1,0
32,48,7436,5,0
88,144,8293,1,0
192,48,10008,1,0
256,144,10865,1,0
352,48,13008,5,0
392,96,13436,1,0
432,144,13865,1,0
472,96,14293,1,0
480,216,15151,1,0
336,216,16865,5,0
192,216,17722,1,0
80,216,19436,5,0
24,56,20293,1,0
72,104,20722,1,0
120,144,21151,1,0
200,80,22006,1,0
336,48,22649,1,0
456,96,23722,1,0
472,216,24578,1,0
336,216,25435,1,0
184,256,26292,1,0
64,224,26935,1,0
32,64,28006,5,0
152,144,28863,1,0
256,56,29506,1,0
400,144,30578,1,0
456,264,31435,1,0
256,264,32506,1,0
160,264,32935,1,0
40,88,34006,5,0
112,88,34435,1,0
184,88,34863,1,0
352,88,35720,1,0
464,264,36363,1,0
384,264,36792,1,0
144,272,37435,1,0
40,56,38292,5,0
152,144,39149,1,0
272,64,40006,1,0
416,96,40649,1,0
440,264,41720,5,0
288,304,42578,1,0
32,104,43220,1,0
240,144,44292,1,0
464,144,45149,1,0
416,248,45792,1,0
304,256,46220,1,0
192,256,46649,1,0
120,96,47720,5,0
336,104,48149,1,0
480,224,48577,1,0
328,288,49435,1,0
208,288,50292,1,0
96,224,51149,1,0
32,96,52006,1,0
112,96,52435,1,0
192,96,52863,1,0
272,96,53292,1,0
336,96,53720,1,0
400,104,54149,1,0
416,272,54792,1,0
16,48,55435,5,0
112,112,56292,1,0
216,112,57149,1,0
320,48,58006,1,0
432,120,58863,1,0
432,264,59292,1,0
376,264,59720,1,0
320,264,60149,1,0
264,264,60577,1,0
208,264,61006,1,0
152,264,61435,1,0
96,264,61863,1,0
24,144,62292,5,0
120,80,63149,1,0
208,80,64006,1,0
304,144,64863,1,0
400,80,65720,1,0
432,272,66577,1,0
288,224,67006,1,0
224,296,67435,1,0
88,272,67863,1,0
64,96,70006,1,0
144,96,70435,1,0
224,96,70863,1,0
376,96,71720,1,0
456,96,72577,1,0
88,264,74292,1,0
56,104,77720,1,0
256,104,78577,1,0
440,112,79435,1,0
440,264,81149,5,0
328,264,82006,1,0
184,264,82863,1,0
72,264,83720,1,0
64,64,84577,5,0
144,144,85435,1,0
312,64,88006,5,0
424,144,88863,1,0
432,216,91435,1,0
352,312,92292,1,0
40,56,94863,5,0
120,144,95720,1,0
256,272,98292,5,0
64,104,100006,1,0
256,104,100863,1,0
432,104,101935,1,0
